osu file format v14

[General]
AudioFilename: P!nk - Blow Me (One Last Kiss).mp3
AudioLeadIn: 0
PreviewTime: 41183
Countdown: 0
SampleSet: Soft
StackLeniency: 0.7
Mode: 0
LetterboxInBreaks: 0
WidescreenStoryboard: 0

[Editor]
DistanceSpacing: 0.9
BeatDivisor: 2
GridSize: 4
TimelineZoom: 1

[Metadata]
Title:Blow Me (One Last Kiss)
TitleUnicode:Blow Me (One Last Kiss)
Artist:P!nk
ArtistUnicode:P!nk
Creator:hent2222
Version:Easy
Source:
Tags:pop electropop p!nk cut ver pink blow me
BeatmapID:773946
BeatmapSetID:343924

[Difficulty]
HPDrainRate:2
CircleSize:3
OverallDifficulty:2
ApproachRate:3
SliderMultiplier:1
SliderTickRate:1

[Events]
//Background and Video events
0,0,"resize-img.jpg",0,0
//Break Periods
//Storyboard Layer 0 (Background)
//Storyboard Layer 1 (Fail)
//Storyboard Layer 2 (Pass)
//Storyboard Layer 3 (Foreground)
//Storyboard Sound Samples

[TimingPoints]
9078,526.315789473684,4,2,0,45,1,0
25920,-100,4,2,0,65,0,0
42762,-100,4,2,0,75,0,0
56972,-100,4,2,0,70,0,0
59604,-100,4,2,0,70,0,1
68025,-100,4,2,0,75,0,0
73814,-100,4,2,0,80,0,0
74341,-100,4,2,0,50,0,0
76446,-100,4,2,0,50,0,0

[Colours]
Combo1 : 242,121,0
Combo2 : 249,19,48
Combo3 : 10,182,5
Combo4 : 0,96,191

[HitObjects]
132,128,9078,5,0,0:0:0:0:
216,96,9604,2,0,P|296:76|404:124,1,200
336,184,11183,2,0,P|388:212|432:208,2,100
248,204,12762,1,0,0:0:0:0:
212,288,13288,6,0,P|132:344|44:292,1,200
128,256,14867,1,0,0:0:0:0:
44,224,15393,2,0,P|124:168|212:220,1,200
288,172,16972,1,0,0:0:0:0:
332,92,17499,6,0,P|380:152|380:188,1,100
380,264,18551,2,0,P|367:311|330:344,1,100
292,264,19604,1,0,0:0:0:0:
204,264,20130,2,0,P|156:288|132:328,2,100
204,172,21709,6,0,P|240:96|344:152,1,200
376,204,23288,1,0,0:0:0:0:
408,288,23814,2,0,P|460:236|464:196,1,100
464,124,24867,2,0,P|424:56|380:40,1,100
316,48,25920,5,0,0:0:0:0:
328,136,26446,2,0,L|216:136,1,100
136,136,27499,2,0,L|56:216,1,100
64,296,28551,2,0,P|104:336|164:332,1,100
236,340,29604,1,0,0:0:0:0:
300,276,30130,1,0,0:0:0:0:
388,276,30656,6,0,P|448:256|464:216,1,100
460,136,31709,2,0,P|432:95|385:86,1,100
296,88,32762,2,0,L|188:88,1,100
108,88,33814,1,0,0:0:0:0:
152,168,34341,1,0,0:0:0:0:
92,236,34867,6,0,P|144:260|184:252,1,100
276,252,35920,2,0,L|376:252,1,100
452,204,36972,2,0,B|468:252|468:252|452:324,2,100
420,116,38551,1,0,0:0:0:0:
336,84,39077,6,0,P|284:72|224:96,1,100
288,160,40130,1,0,0:0:0:0:
240,236,40656,2,0,P|292:248|352:224,1,100
424,212,41709,6,0,B|448:100|448:100|360:52,1,200
284,60,43288,2,0,L|180:60,1,100
92,60,44341,1,0,0:0:0:0:
136,136,44867,1,0,0:0:0:0:
132,224,45393,6,0,P|160:276|208:284,1,100
288,288,46446,2,0,P|333:271|352:226,1,100
268,200,47499,5,0,0:0:0:0:
180,200,48025,2,0,P|104:184|84:128,1,100
92,80,49077,2,0,P|168:36|284:40,1,200
360,72,50656,2,0,P|436:108|456:128,1,100
476,212,51709,5,0,0:0:0:0:
428,292,52235,2,0,P|340:340|248:312,1,200
168,272,53814,1,0,0:0:0:0:
128,192,54341,2,0,P|112:128|148:76,1,100
200,144,55393,1,0,0:0:0:0:
272,92,55920,2,0,P|288:156|252:208,2,100
352,72,57499,6,0,P|456:92|472:180,1,200
460,260,59077,1,0,0:0:0:0:
368,260,59604,6,0,P|348:312|308:332,2,100
280,248,61183,1,0,0:0:0:0:
192,248,61709,1,0,0:0:0:0:
192,160,62235,2,0,P|136:140|68:180,2,100
280,144,63814,1,0,0:0:0:0:
368,128,64341,6,0,P|420:116|456:84,2,100
336,212,65920,1,0,0:0:0:0:
252,244,66446,2,0,B|172:276|172:276|140:160,1,200
72,108,68025,6,0,P|56:184|80:228,1,100
124,268,69077,6,0,P|200:284|244:260,1,100
176,196,70130,1,0,0:0:0:0:
264,196,70656,2,0,P|316:228|384:216,2,100
336,144,72235,1,0,0:0:0:0:
428,144,72762,6,0,P|456:72|420:24,1,104.999996795654
368,80,73814,1,0,0:0:0:0:
280,60,74341,2,0,B|180:40|180:40|80:92,1,200
32,148,75920,2,0,P|20:228|36:260,1,100
