osu file format v6

[General]
AudioFilename: BadInfluence.mp3
AudioLeadIn: 0
PreviewTime: 50667
Countdown: 1
SampleSet: Normal
StackLeniency: 0.7
Mode: 0
LetterboxInBreaks: 1

[Editor]
DistanceSpacing: 0.899999976158142
BeatDivisor: 3
GridSize: 8

[Metadata]
Title:Bad Influence
Artist:P!nk
Creator:Larto
Version:Hard
Source:
Tags:

[Difficulty]
HPDrainRate:6
CircleSize:4
OverallDifficulty:7
SliderMultiplier:1.9
SliderTickRate:1

[Events]
//Background and Video events
0,0,"pink-06.jpg"
//Break Periods
2,64953,76897
2,127562,140375
//Storyboard Layer 0 (Background)
//Storyboard Layer 1 (Fail)
//Storyboard Layer 2 (Pass)
//Storyboard Layer 3 (Foreground)
Sprite,Foreground,Centre,"SPEED.png",320,570 S,0,49092,,1.4 MY,1,49092,49310,570,415 MY,2,50397,50614,415,570
Sprite,Foreground,Centre,"SPEED.png",320,240 S,0,111701,,1.4 MY,1,111701,111846,-40,120 MY,2,113005,113150,120,-40
Sprite,Foreground,Centre,"SPEED.png",320,415 F,0,0,,0 T,HitSoundFinish,49092,50300 F,0,0,200,1,0 S,1,0,200,1.4,2.4 T,HitSoundFinish,111701,113130 MY,0,0,,120 F,0,0,200,1,0 S,1,0,200,1.4,2.4
//Storyboard Sound Samples
//Background Colour Transformations
3,100,163,162,255

[TimingPoints]
2145.42588007868,434.782608695652,4,1,0,51,1,0
49536,-50,4,1,0,51,0,0
49970,-100,4,1,0,51,0,0
50841,-100,4,1,0,51,0,1
64754,-100,4,1,0,51,0,0
112145,-50,4,1,0,51,0,0
112579,-100,4,1,0,51,0,0
113449,-100,4,1,0,51,0,1
127362,-100,4,1,0,51,0,0
140796,-100,4,2,1,29,0,0
151855,-100,4,2,1,0,0,0
153593,-100,4,2,1,29,0,0
154246,-100,4,1,0,35,0,0
154681,-100,4,2,1,22,0,0
155115,-100,4,1,0,35,0,0
167797,-100,4,1,0,9,0,0
168086,-100,4,1,0,35,0,0
168375,-100,4,1,0,17,0,0
168664,-100,4,1,0,27,0,0
168953,-100,4,1,0,35,0,0
169101,-100,4,1,0,35,0,1
196928,-100,4,1,0,35,0,1

[HitObjects]
264,64,15478,1,0
248,120,15623,1,8
264,168,15768,1,8
288,224,15913,1,8
264,280,16058,2,0,B|88:280,1,126.666666666667,4|0
136,232,16493,2,0,B|0:232,1,126.666666666667
8,184,16928,1,2
120,80,17362,1,2
264,128,17797,6,0,B|344:176|432:128,1,126.666666666667,6|0
408,120,18232,2,0,B|456:192|408:272,1,126.666666666667,8|0
400,256,18667,2,0,B|344:232|272:272,1,126.666666666667
232,296,19101,2,0,B|160:336|88:288,1,126.666666666667,8|0
80,256,19536,1,12
24,112,19971,1,0
176,72,20406,1,8
232,40,20551,1,8
280,72,20696,1,8
336,40,20841,1,0
472,152,21130,5,0
472,216,21275,2,0,B|312:216,1,126.666666666667,4|0
344,280,21710,2,0,B|200:280,1,126.666666666667,8|0
216,216,22145,2,0,B|56:216,1,126.666666666667,0|0
24,216,22580,1,8
24,216,22870,1,0
24,216,23014,2,4,B|-16:144|8:64|64:16,2,190,4|0|8
24,216,24029,1,8
24,216,24174,1,8
24,216,24319,1,0
136,152,24609,5,0
192,96,24754,2,2,B|352:96,1,126.666666666667,6|0
376,96,25188,2,0,B|424:168|352:248,1,126.666666666667,8|0
360,272,25623,2,2,B|224:272,1,126.666666666667,2|0
176,272,26058,2,0,B|104:320|24:248,1,126.666666666667,8|0
16,232,26493,2,2,B|-24:120|88:56,1,190
256,32,27362,5,8
256,80,27507,1,8
256,128,27652,1,8
256,176,27797,1,0
176,272,28232,6,4,B|224:327|346:316|374:224,1,190
400,128,29101,2,0,B|328:128,1,63.3333333333333,8|0
112,128,29536,2,0,B|184:128,1,63.3333333333333,8|0
256,128,29826,1,8
256,208,29971,6,0,B|440:208,1,126.666666666667,12|0
424,240,30406,1,10
416,288,30551,1,0
376,320,30696,1,0
328,336,30841,2,0,B|256:368|168:320,1,126.666666666667
168,312,31275,2,0,B|96:256|112:160,1,126.666666666667,10|0
112,160,31710,6,0,B|176:112|232:152,1,126.666666666667,0|0
288,168,32145,2,0,B|312:256|424:240,1,126.666666666667,10|0
440,216,32580,2,0,B|488:152|440:56,1,126.666666666667,0|0
416,48,33014,2,0,B|368:120|288:96,1,126.666666666667,10|0
248,96,33449,6,4,B|192:104|192:104|144:96|144:96|48:112,1,190,6|6
264,288,34319,2,4,B|320:280|320:280|376:288|376:288|464:272,1,190,6|6
392,160,35043,5,0
336,184,35188,2,2,B|272:216|200:200,1,126.666666666667,10|0
152,184,35623,2,0,B|96:128|160:48,1,126.666666666667,0|0
192,40,36058,2,0,B|256:16|336:48,1,126.666666666667,10|0
352,80,36493,2,0,B|432:128|504:96,1,126.666666666667
496,64,36928,1,14
368,176,37362,1,0
144,352,37797,6,2,B|56:312|56:224|120:176,1,190,2|0
184,136,38522,6,0,B|256:96,1,63.3333333333333,0|10
272,144,38812,2,0,B|328:208,1,63.3333333333333
360,168,39101,2,0,B|424:120|384:48,1,126.666666666667
336,56,39536,1,10
288,56,39681,1,0
240,56,39826,1,0
192,56,39971,2,0,B|160:136|56:144,1,126.666666666667
48,144,40406,2,4,B|-8:224|48:320|104:328,2,190
256,192,42145,12,12,43449
8,40,43884,6,2,B|192:40,1,126.666666666667,2|0
64,112,44319,2,2,B|224:112,1,126.666666666667,2|0
112,184,44754,2,2,B|296:184,1,126.666666666667,2|0
168,256,45188,2,2,B|328:256,1,126.666666666667,2|0
112,328,45623,6,2,B|240:328,1,126.666666666667,6|0
168,256,46058,2,4,B|304:256,1,126.666666666667,6|0
216,184,46493,2,4,B|344:184,1,126.666666666667,6|0
256,112,46928,2,0,B|392:112,1,126.666666666667,2|0
326,40,47362,6,2,B|192:40,1,126.666666666667,2|0
384,112,47797,2,2,B|256:112,1,126.666666666667,2|0
430,184,48232,2,2,B|296:184,1,126.666666666667,2|0
486,256,48667,2,0,B|352:256,1,126.666666666667,2|0
256,256,49101,1,0
120,184,49536,6,6,B|136:104|192:72|256:72|256:72|304:72|392:112|400:208,1,380
256,160,50261,5,0
256,184,50406,1,8
256,208,50551,1,0
256,232,50696,1,8
256,256,50841,2,6,B|224:328|112:328,1,126.666666666667
96,320,51275,2,0,B|16:280|40:176,1,126.666666666667
40,160,51710,2,2,B|72:88|160:88,1,126.666666666667
192,88,52145,1,0
320,88,52435,5,0
374,89,52580,2,2,B|440:88|472:160,1,126.666666666667
477,217,53014,2,0,B|496:280|416:320,1,126.666666666667
352,320,53448,2,2,B|272:328|253:252,1,126.666666666667
256,208,53884,1,0
256,96,54174,5,0
208,128,54319,2,6,B|104:160|88:248|88:320,2,190
256,0,55623,5,0
304,128,55913,1,0
304,128,56058,2,6,B|408:160|424:248|424:320,2,190
256,128,57072,1,0
256,168,57217,1,0
256,208,57362,1,8
256,248,57507,1,8
256,288,57652,1,8
256,328,57797,6,2,B|176:352|112:328,1,126.666666666667,6|2
136,296,58232,2,2,B|184:224|88:152,1,126.666666666667
96,152,58667,2,2,B|128:72|232:88,1,126.666666666667
256,104,59101,1,6
368,160,59536,6,2,B|416:240|352:336,1,126.666666666667
360,312,59971,1,2
256,200,60261,1,0
256,200,60406,1,2
256,200,60551,1,0
256,200,60696,1,2
256,200,60841,1,0
192,299,61130,5,0
192,299,61275,2,2,B|192:360|264:368|320:360|320:288,3,190,2|2|2|8
337,257,62725,1,8
369,226,62870,1,8
400,194,63014,2,6,B|388:116|296:72|200:80|114:113|108:224,2,380,14|6|14
88,136,77797,6,0,B|168:136,1,63.3333333333333,8|0
152,192,78087,2,8,B|232:192,1,63.3333333333333
216,248,78377,2,0,B|296:248,1,63.3333333333333,8|0
312,248,78667,2,0,B|376:200|376:104|264:64,1,190,4|0
232,144,79536,6,2,B|160:104|120:216|40:152,1,190,2|0
24,256,80261,1,0
56,296,80406,2,0,B|112:352|192:312,1,126.666666666667,4|0
216,296,80841,2,0,B|288:240|376:296,1,126.666666666667,8|0
384,296,81275,2,0,B|472:336|512:216,1,126.666666666667,0|0
496,208,81710,2,0,B|496:120|400:104,1,126.666666666667,8|0
376,104,82145,2,4,B|288:160|160:112,1,190
48,152,83014,6,2,B|0:224|40:296|112:320,1,190
91,311,83739,1,0
144,296,83884,2,0,B|224:264|288:320,1,126.666666666667,4|0
304,336,84319,2,0,B|384:312|376:200,1,126.666666666667,8|0
424,232,84754,2,0,B|456:136|352:88,1,126.666666666667
352,96,85188,2,0,B|280:144|192:96,1,126.666666666667,8|0
184,96,85623,2,4,B|112:192|200:296,2,190
320,168,87217,5,0
352,208,87362,2,8,B|376:272,1,63.3333333333333,2|0
384,312,87652,2,0,B|320:336,1,63.3333333333333,0|2
280,320,87942,2,0,B|216:344,1,63.3333333333333,0|0
184,320,88232,2,0,B|112:344,1,63.3333333333333,2|0
88,312,88522,1,0
24,328,88667,1,2
0,200,88957,1,0
16,136,89101,2,4,B|40:16|168:40,2,190
512,200,90696,5,0
496,136,90840,2,2,B|496:56|368:40,1,126.666666666667,2|0
352,56,91275,2,0,B|296:136|208:120,1,126.666666666667,4|0
184,128,91710,2,4,B|96:192|144:312,1,190,4|12
202,297,92290,1,8
265,297,92435,1,8
311,251,92580,6,2,B|384:224,1,63.3333333333333
352,168,92870,2,2,B|424:144,1,63.3333333333333
400,88,93159,2,2,B|464:64,1,63.3333333333333
416,16,93449,2,4,B|336:0|272:72,1,126.666666666667,4|0
256,96,93884,2,0,B|192:160|80:144,1,126.666666666667,4|0
80,152,94319,6,2,B|48:208,1,63.3333333333333
96,248,94609,2,2,B|128:312,1,63.3333333333333
192,192,95043,1,0
256,192,95188,2,2,B|408:192,1,126.666666666667
448,192,95623,1,6
404,297,95913,5,0
366,321,96058,2,2,B|292:359|211:339,1,126.666666666667,6|0
202,327,96493,2,0,B|124:264|45:274,1,126.666666666667,8|0
47,260,96928,2,8,B|-12:168|59:95,1,126.666666666667,4|0
56,104,97362,2,0,B|120:160|224:144,1,126.666666666667,8|0
216,152,97797,6,0,B|344:152|384:48,1,190,4|0
440,136,98522,1,0
432,176,98667,2,0,B|448:248|392:312,1,126.666666666667,2|0
368,272,99101,2,0,B|312:240|240:280,1,126.666666666667,6|0
216,312,99536,6,0,B|136:288|128:184|184:136,2,190,6|2|2
232,224,100696,1,0
232,224,100841,2,0,B|312:184|280:96,1,126.666666666667
272,80,101275,6,0,B|384:48|400:160,1,126.666666666667,4|0
384,109,101710,2,0,B|344:184|384:248,1,126.666666666667,8|0
392,272,102145,2,0,B|320:312|216:304,1,126.666666666667,0|0
224,296,102580,2,0,B|176:232|64:256,1,126.666666666667,8|0
64,240,103014,2,6,B|0:168|48:72|112:40,2,190
256,192,104754,12,12,106058
8,48,106493,5,8
56,24,106638,1,0
104,24,106783,1,0
144,64,106928,1,8
144,112,107072,1,0
88,200,107362,5,8
104,248,107507,1,0
136,288,107652,1,8
184,304,107797,1,8
232,296,107942,1,8
272,256,108087,1,8
272,208,108232,5,8
248,160,108377,1,0
240,112,108522,1,0
272,72,108667,1,8
320,48,108812,1,0
384,104,109101,5,8
376,152,109246,1,0
368,200,109391,1,0
392,240,109536,1,8
432,264,109681,1,8
480,272,109826,1,8
472,320,109971,5,8
432,344,110116,1,0
384,344,110261,1,0
344,328,110406,1,8
304,304,110551,1,0
232,256,110841,5,8
184,248,110986,1,0
136,256,111130,1,8
96,272,111275,1,8
56,296,111420,1,8
24,328,111565,1,8
0,368,111710,1,8
86,184,112145,6,6,B|198:104|262:200|262:200|318:280|438:192,1,380
256,88,113014,5,2
16,264,113449,6,2,B|48:344|136:344,1,126.666666666667,6|2
136,304,113884,2,0,B|176:240|256:264,1,126.666666666667
288,280,114319,2,2,B|352:320|440:240,1,126.666666666667
432,232,114754,1,0
504,144,115043,5,0
456,144,115188,2,2,B|328:144,1,126.666666666667,2|2
328,96,115623,2,0,B|192:96,1,126.666666666667
192,144,116058,2,2,B|65:144,1,126.666666666667
16,144,116493,1,0
32,256,116783,5,0
72,296,116928,2,6,B|136:336|216:272|128:248|128:312|160:352|248:352,1,190
376,304,117797,5,2
440,144,118232,1,8
408,96,118377,1,0
360,72,118522,1,0
304,56,118667,2,10,B|232:56|176:104,1,126.666666666667,10|0
152,152,119101,2,2,B|224:152|280:200,1,126.666666666667,2|0
296,248,119536,2,2,B|224:248|168:296,1,126.666666666667,2|0
128,328,119971,1,8
72,352,120116,1,0
16,320,120261,1,8
8,256,120406,6,2,B|24:160|104:112,1,126.666666666667
120,112,120841,2,0,B|208:152|288:64,1,126.666666666667
288,64,121275,2,2,B|376:88|360:176,1,126.666666666667
352,216,121710,1,6
152,272,122145,6,2,B|192:336|288:320,1,126.666666666667,2|2
320,304,122580,1,2
256,200,122870,1,0
256,200,123015,1,2
256,200,123160,1,0
256,200,123305,1,2
256,200,123450,1,0
320,299,123739,5,0
320,299,123884,2,2,B|320:360|248:368|192:360|192:288,3,190,2|2|2|8
175,257,125334,1,8
143,226,125479,1,8
112,194,125623,2,6,B|124:116|216:72|312:80|398:113|404:224,2,380,14|6|14
16,32,141275,6,0,B|80:144,1,126.666666666667,8|0
104,88,141710,2,8,B|168:216,1,126.666666666667,0|0
184,144,142145,2,0,B|248:256,1,126.666666666667,8|0
272,200,142580,2,0,B|336:328,1,126.666666666667,8|0
368,352,143014,2,10,B|496:352|456:192,3,190,10|10|10|2
440,168,144464,1,8
392,136,144609,1,8
336,120,144754,6,8,B|232:176|144:112,3,190
256,192,146493,12,2,147797
96,312,148232,6,0,B|256:312,1,126.666666666667,12|0
264,312,148667,2,0,B|312:216|224:160,1,126.666666666667,8|0
240,160,149101,2,0,B|192:96|240:32,1,126.666666666667,8|0
272,40,149536,2,0,B|400:40,1,126.666666666667,8|0
440,48,149971,6,8,B|480:120|440:192|376:208,3,190
352,216,151420,1,8
304,224,151565,1,8
256,224,151710,1,8
256,192,151855,12,0,153449
256,48,153884,5,8
256,72,154029,1,8
256,96,154174,1,8
256,120,154319,1,8
256,144,154464,1,8
256,168,154609,1,8
256,192,154754,1,8
256,216,154899,1,8
256,240,155043,1,8
256,264,155188,1,0
16,304,155623,5,8
16,304,155913,1,8
144,56,156493,1,8
496,304,157362,5,8
496,304,157652,1,8
368,56,158232,1,8
256,344,159101,5,8
256,344,159391,1,8
256,56,159971,1,8
8,192,160841,5,8
8,192,161130,1,8
504,192,161710,1,8
400,112,162145,6,0,B|264:112,1,126.666666666667,0|0
232,112,162580,2,8,B|160:144|184:224,1,126.666666666667
184,256,163014,2,0,B|184:336|88:352,1,126.666666666667
72,344,163449,1,8
40,160,163884,6,0,B|112:224|216:160,1,126.666666666667
200,168,164319,2,8,B|280:112|208:16,1,126.666666666667
224,16,164754,2,0,B|296:8,3,63.3333333333333,0|0|0|8
345,144,165623,6,0,B|264:192|160:144,1,190,0|8
256,80,166348,1,8
256,80,166493,2,8,B|256:288,1,190,0|8
256,192,167797,12,6,169101
48,256,169536,6,0,B|0:176|48:112,1,126.666666666667,8|0
72,96,169971,2,2,B|128:144|208:96,1,126.666666666667
240,88,170406,2,8,B|320:48|400:112,1,126.666666666667,8|0
400,120,170841,5,2
432,160,170986,1,0
416,208,171130,1,2
392,248,171275,2,0,B|368:312|272:312,1,126.666666666667,8|0
240,304,171710,2,2,B|192:248|120:240,1,126.666666666667
80,232,172145,2,0,B|24:168|56:96,1,126.666666666667,8|0
88,80,172580,6,6,B|120:40|176:88|176:88|232:128|272:80,2,190,6|14|6
152,216,173884,1,8
240,272,174174,1,0
288,272,174319,2,2,B|376:272|384:176,1,126.666666666667
376,152,174754,2,0,B|344:72|256:112,1,126.666666666667,8|0
232,128,175188,2,2,B|144:160|80:104,1,126.666666666667
64,96,175623,2,0,B|16:160|56:232,1,126.666666666667,8|0
72,264,176058,6,2,B|208:264,1,126.666666666667,6|2
184,216,176493,2,0,B|328:216,1,126.666666666667,8|0
288,168,176928,2,2,B|432:168,1,126.666666666667,2|2
464,168,177362,1,8
440,264,177797,6,2,B|304:264,1,126.666666666667,2|0
336,208,178232,2,0,B|192:208,1,126.666666666667,8|2
224,168,178667,2,2,B|80:168,1,126.666666666667
48,168,179101,1,0
192,85,179536,6,2,B|192:24|264:16|320:24|320:96,3,190,2|2|2|8
337,127,180986,1,8
369,158,181131,1,8
400,190,181275,2,6,B|388:268|296:312|200:304|114:271|108:160,2,380,14|6|14
336,64,183304,5,0
336,64,183449,1,2
256,176,183739,1,0
256,176,183884,1,2
176,64,184174,1,2
176,64,184319,2,2,B|112:144|136:240,1,126.666666666667
176,248,184754,1,2
256,360,185043,1,0
256,360,185188,1,2
336,248,185478,1,0
336,248,185623,2,2,B|400:168|376:72,1,126.666666666667
320,104,186058,2,2,B|248:72|160:120,1,126.666666666667,2|2
164,178,186493,6,6,B|264:224|352:176,2,190
24,336,187797,5,0
144,256,188087,1,0
184,296,188232,2,2,B|240:336|312:304,1,126.666666666667,2|0
344,264,188667,2,2,B|392:192|352:128,1,126.666666666667,2|0
328,96,189101,2,6,B|272:56|200:88,1,126.666666666667,10|0
168,128,189536,2,2,B|112:192|32:176,1,126.666666666667
16,224,189971,6,2,B|16:312|96:352,1,126.666666666667,6|2
128,336,190406,2,2,B|179:313|179:225,1,126.666666666667,10|2
184,168,190841,2,2,B|183:82|235:60,1,126.666666666667
295,61,191276,2,2,B|347:84|347:172,1,126.666666666667
352,224,191710,2,6,B|384:336|496:352,2,190
352,224,192725,1,2
352,224,192870,1,0
352,224,193014,1,2
160,256,193449,6,2,B|128:200|160:128,1,126.666666666667,10|0
192,96,193884,2,0,B|248:64|320:96,1,126.666666666667,8|0
352,128,194319,2,0,B|384:184|352:256,1,126.666666666667,10|0
320,288,194754,2,0,B|264:320|192:288,1,126.666666666667,8|0
256,192,195188,12,12,196058
256,192,196203,12,14,196928
