osu file format v6

[General]
AudioFilename: BadInfluence.mp3
AudioLeadIn: 0
PreviewTime: 50667
Countdown: 1
SampleSet: Normal
StackLeniency: 0.7
Mode: 0
LetterboxInBreaks: 1

[Editor]
DistanceSpacing: 1
BeatDivisor: 4
GridSize: 8

[Metadata]
Title:Bad Influence
Artist:P!nk
Creator:Larto
Version:Easy
Source:
Tags:

[Difficulty]
HPDrainRate:2
CircleSize:3
OverallDifficulty:1
SliderMultiplier:1.2
SliderTickRate:1

[Events]
//Background and Video events
0,0,"pink-06.jpg"
//Break Periods
2,64953,76552
//Storyboard Layer 0 (Background)
//Storyboard Layer 1 (Fail)
//Storyboard Layer 2 (Pass)
//Storyboard Layer 3 (Foreground)
//Storyboard Sound Samples
//Background Colour Transformations
3,100,163,162,255

[TimingPoints]
2145.42588007868,434.782608695652,4,1,0,51,1,0
50841,-100,4,1,0,51,0,1
64754,-100,4,1,0,51,0,0
113449,-100,4,1,0,51,0,1
127362,-100,4,1,0,51,0,0

[HitObjects]
200,264,15623,6,4,B|352:264,1,120
400,128,17797,5,8
304,128,18232,1,0
208,128,18667,1,8
112,128,19101,1,0
80,216,19536,2,2,B|80:296|176:360|272:352,1,240
352,192,21275,5,8
352,96,21710,1,0
264,96,22145,1,8
160,96,22580,1,0
160,192,23014,2,2,B|160:272|256:272,1,120
344,40,24754,6,6,B|344:80|256:168|160:80|168:32,2,240
256,16,26928,1,2
160,264,28232,5,8
352,264,29101,1,12
352,72,29971,5,8
256,72,30406,1,2
160,72,30841,1,8
160,264,31710,1,8
256,264,32145,1,2
352,264,32580,1,8
320,72,33449,6,4,B|184:72,2,120
192,312,35188,2,2,B|328:312,2,120
256,192,36928,1,8
256,192,37362,1,0
128,288,38667,6,2,B|64:168|176:64,1,240
343,70,40406,2,6,B|448:168|384:288,1,240
256,192,42145,2,8,B|256:336,2,120,8|0|8
256,48,43449,5,0
120,96,43884,1,8
8,192,44319,1,0
120,288,44754,1,8
256,336,45189,1,0
392,288,45623,1,8
504,192,46058,1,0
392,96,46493,1,8
256,48,46928,1,0
376,192,47362,6,8,B|120:192,2,240
70,160,50841,6,6,B|74:70|265:-44|450:76|446:179,2,480
80,304,54754,1,0
432,304,55623,1,0
362,170,56058,2,2,B|244:64|132:189,1,240
256,208,57362,1,2
256,352,57797,6,2,B|0:352,1,240
8,192,59101,1,4
16,32,59536,2,2,B|256:32,1,240,2|2
256,192,60841,1,4
320,342,61275,6,2,B|437:273|439:95|303:31,1,360
256,144,63014,2,2,B|225:207|81:215|45:135,2,240,6|6|6
256,104,78232,5,0
160,144,78667,2,2,B|200:224|312:224|360:136,2,240
72,328,81275,5,8
192,328,81710,1,0
312,328,82145,1,4
440,328,82580,1,0
440,56,83884,5,8
320,56,84319,1,0
200,56,84754,1,8
72,56,85189,1,0
128,160,85623,2,6,B|-8:160,2,120
424,264,87362,6,8,B|296:264,1,120,0|8
208,264,88232,2,8,B|88:264,1,120,8|8
64,152,89101,2,6,B|64:80|192:16|280:72,1,240
256,192,90841,5,8
256,192,91275,1,0
256,192,91710,1,8
150,288,92580,6,2,B|181:336|264:352|331:333|368:284,1,240
362,96,94319,2,2,B|331:48|248:32|181:51|144:100,1,240
256,256,96058,6,4,B|256:112,1,120
88,72,97797,5,8
200,24,98232,1,0
312,72,98667,1,8
424,32,99101,1,0
424,184,99536,6,6,B|280:184,1,120,6|6
149,303,101275,6,2,B|267:409|379:284,2,240
256,192,104754,6,2,B|256:48,2,120
256,336,106058,5,0
120,288,106493,1,8
8,192,106928,1,0
120,96,107363,1,8
256,48,107798,1,0
392,96,108232,1,8
504,192,108667,1,0
392,288,109102,1,8
256,336,109537,1,0
376,192,109971,6,8,B|120:192,2,240
376,64,113449,5,4
296,144,113884,1,8
216,64,114319,1,0
128,144,114754,1,8
48,248,115188,2,2,B|304:248,2,240
128,144,117362,1,2
384,240,118232,5,0
464,344,118667,2,2,B|224:344,2,240
384,240,120841,5,8
456,144,121275,1,0
384,48,121710,1,8
256,96,122145,2,2,B|256:240,3,120
191,342,123884,6,2,B|75:273|72:95|208:31,1,360
256,144,125623,2,6,B|287:207|431:215|467:135,2,240,6|6|6
