osu file format v14

[General]
AudioFilename: y2mate.com - hand_shakers_opening_fulloxt_one_hand_message_btrqZk8YEzY.mp3
AudioLeadIn: 0
PreviewTime: -1
Countdown: 0
SampleSet: Soft
StackLeniency: 0.7
Mode: 0
LetterboxInBreaks: 1
WidescreenStoryboard: 0

[Editor]
DistanceSpacing: 0.6
BeatDivisor: 4
GridSize: 4
TimelineZoom: 1

[Metadata]
Title:One Hand Message
TitleUnicode:One Hand Message
Artist:OxT
ArtistUnicode:OxT
Creator:Rubyy
Version:Nimrode
Source:
Tags:anime handshakers pp noob w you will never hug your waifu tfw no gf
BeatmapID:1551775
BeatmapSetID:735054

[Difficulty]
HPDrainRate:6.3
CircleSize:4
OverallDifficulty:6
ApproachRate:9.3
SliderMultiplier:1.4
SliderTickRate:1

[Events]
//Background and Video events
0,0,"HAND.jpg",0,0
//Break Periods
//Storyboard Layer 0 (Background)
//Storyboard Layer 1 (Fail)
//Storyboard Layer 2 (Pass)
//Storyboard Layer 3 (Foreground)
//Storyboard Sound Samples

[TimingPoints]
13529,309.272448979592,4,2,0,100,1,0
43219,309.272448979592,3,2,0,100,1,0
58682,309.272448979592,4,2,0,100,1,0
98268,309.272448979592,3,2,0,100,1,0
113731,309.272448979592,4,2,0,100,1,0

[HitObjects]
328,136,3013,5,0,0:0:0:0:
124,131,3168,1,0,0:0:0:0:
328,136,3477,2,0,B|272:108|220:104|152:116|96:144,1,210
84,168,4560,5,0,0:0:0:0:
224,168,5178,1,0,0:0:0:0:
360,168,5797,1,0,0:0:0:0:
224,168,5951,1,0,0:0:0:0:
224,40,6415,5,0,0:0:0:0:
224,240,7034,1,0,0:0:0:0:
224,40,7652,1,0,0:0:0:0:
224,240,7962,1,0,0:0:0:0:
284,188,8116,2,0,L|352:192,2,35
356,192,8426,6,0,B|356:292|356:296|232:348,1,210
144,148,9199,1,0,0:0:0:0:
144,148,9276,1,0,0:0:0:0:
144,148,9353,1,0,0:0:0:0:
124,220,9508,1,0,0:0:0:0:
112,288,9663,2,0,P|200:192|276:192,1,210
384,120,10436,5,0,0:0:0:0:
384,120,10513,1,0,0:0:0:0:
384,120,10590,1,0,0:0:0:0:
280,80,10745,2,0,P|224:68|196:92,1,70
168,272,11209,5,0,0:0:0:0:
168,188,11364,1,0,0:0:0:0:
168,104,11518,1,0,0:0:0:0:
172,24,11673,1,0,0:0:0:0:
280,80,11828,1,0,0:0:0:0:
245,257,11982,1,0,0:0:0:0:
245,257,12137,6,0,B|304:216|304:216|328:264|328:264|304:308|304:308|352:312|352:352|352:352|444:348|448:348|448:348|464:280|420:236|492:168|492:168|416:88,1,630
336,168,13838,1,0,0:0:0:0:
208,240,13992,1,0,0:0:0:0:
80,240,14147,2,0,B|80:192|80:192|104:164,1,70
220,160,14456,1,0,0:0:0:0:
132,140,14766,6,0,B|136:96|136:96|176:68,1,70
356,140,15075,2,0,B|344:80|344:80|320:64,1,70
132,236,15384,2,0,B|132:300|132:300|104:320,1,70
220,228,15693,2,0,B|224:180|284:176|284:176|284:112,1,140
416,124,16157,5,0,0:0:0:0:
420,252,16312,1,0,0:0:0:0:
288,256,16467,1,0,0:0:0:0:
220,192,16621,1,0,0:0:0:0:
328,72,16776,1,0,0:0:0:0:
444,192,16930,1,0,0:0:0:0:
332,296,17085,1,0,0:0:0:0:
224,308,17240,6,0,L|164:260,1,70
340,164,17549,2,0,L|272:108,1,70
216,124,17858,2,0,L|160:192,1,70
312,256,18168,1,0,0:0:0:0:
332,128,18477,6,0,B|256:72|256:72|216:108,1,140
120,216,18941,1,0,0:0:0:0:
120,216,19018,1,0,0:0:0:0:
120,216,19095,1,0,0:0:0:0:
192,296,19250,1,0,0:0:0:0:
308,288,19405,2,0,B|368:260|384:216|384:164,1,140
256,160,20023,5,0,0:0:0:0:
132,160,20178,2,0,L|132:124,2,35
392,160,20487,1,0,0:0:0:0:
188,160,20642,2,0,P|188:236|236:292,1,140
344,280,21260,6,0,L|400:232,1,70
340,192,21570,2,0,L|368:128,1,70
272,128,21879,2,0,L|296:40,1,70
184,124,22188,2,0,L|144:124,1,35
192,120,22343,2,0,B|152:112|152:112|176:76|176:76|104:96|104:96|112:36|112:36|112:32,1,210
108,40,22961,5,0,0:0:0:0:
108,40,23116,2,0,L|108:128,1,70
160,232,23425,5,0,0:0:0:0:
224,132,23580,1,0,0:0:0:0:
300,232,23734,1,0,0:0:0:0:
224,132,23889,1,0,0:0:0:0:
380,108,24044,1,0,0:0:0:0:
380,284,24198,1,0,0:0:0:0:
256,192,24353,2,0,L|160:192,1,70
56,144,24662,5,0,0:0:0:0:
216,40,24817,1,0,0:0:0:0:
132,244,24972,1,0,0:0:0:0:
288,132,25126,1,0,0:0:0:0:
228,288,25281,2,0,P|264:288|304:272,1,70
404,216,25590,2,0,P|416:176|416:136,1,70
236,220,25899,5,0,0:0:0:0:
280,160,26054,1,0,0:0:0:0:
228,240,26209,1,0,0:0:0:0:
280,128,26363,1,0,0:0:0:0:
236,268,26518,1,0,0:0:0:0:
272,96,26673,1,0,0:0:0:0:
256,308,26827,1,0,0:0:0:0:
256,48,26982,1,0,0:0:0:0:
60,120,27136,6,0,L|124:64,1,70
212,52,27446,2,0,L|300:48,1,70
396,88,27755,2,0,L|448:152,1,70
408,192,28064,1,0,0:0:0:0:
116,192,28219,1,0,0:0:0:0:
116,192,28374,1,0,0:0:0:0:
368,92,29456,5,0,0:0:0:0:
368,92,29533,1,0,0:0:0:0:
368,92,29611,1,0,0:0:0:0:
208,144,30848,5,0,0:0:0:0:
332,144,31157,2,0,P|376:160|392:200,1,70
424,284,31621,1,0,0:0:0:0:
256,364,31776,1,0,0:0:0:0:
256,364,32162,1,0,0:0:0:0:
96,284,32317,1,0,0:0:0:0:
96,192,32549,2,0,L|96:116,1,70
164,112,33013,2,0,B|200:84|200:84|220:128|220:128|264:96,1,140
384,80,33631,6,0,B|444:136|448:216|440:220,1,140
443,203,34095,2,0,L|444:292,2,70
124,312,34559,1,0,0:0:0:0:
440,192,34714,1,0,0:0:0:0:
440,192,34868,2,0,L|420:272,1,70
176,124,35332,5,0,0:0:0:0:
176,124,35487,1,0,0:0:0:0:
176,124,35641,1,0,0:0:0:0:
296,108,35796,2,0,B|304:156|304:156|340:152,1,70
440,224,36105,2,0,B|440:272|440:272|396:272,1,70
360,272,36415,1,0,0:0:0:0:
256,272,36569,1,0,0:0:0:0:
152,268,36724,1,0,0:0:0:0:
256,28,36879,2,0,B|232:56|232:56|272:72|272:72|232:96|232:96|280:112|280:112|232:144|232:144|256:180|300:204|352:152,1,350
132,40,37806,5,0,0:0:0:0:
408,40,37960,1,0,0:0:0:0:
248,184,38115,1,0,0:0:0:0:
248,184,38270,2,0,B|264:96|340:76|432:128|472:236|416:276|416:276|472:280|472:280|412:316|412:316|480:344|480:344|480:340,1,490
465,347,39507,2,0,B|440:300|440:300|408:360|408:360|388:300|388:300|368:368|368:368|208:360|168:236|100:348,1,490
28,352,40899,1,0,0:0:0:0:
384,88,41208,5,0,0:0:0:0:
264,40,41363,1,0,0:0:0:0:
172,120,41518,1,0,0:0:0:0:
96,28,41672,1,0,0:0:0:0:
96,28,41982,5,0,0:0:0:0:
80,60,42059,1,0,0:0:0:0:
72,92,42136,1,0,0:0:0:0:
72,128,42214,1,0,0:0:0:0:
88,160,42291,1,0,0:0:0:0:
104,192,42368,1,0,0:0:0:0:
112,224,42445,1,0,0:0:0:0:
112,260,42523,1,0,0:0:0:0:
132,288,42600,5,0,0:0:0:0:
160,308,42677,1,0,0:0:0:0:
192,324,42755,1,0,0:0:0:0:
228,324,42832,1,0,0:0:0:0:
264,324,42909,1,0,0:0:0:0:
300,328,42987,1,0,0:0:0:0:
336,332,43064,1,0,0:0:0:0:
368,316,43141,1,0,0:0:0:0:
400,296,43219,6,0,L|440:256,8,46.6666666666667
380,164,44146,2,0,L|420:128,7,46.6666666666667
316,48,45074,5,0,0:0:0:0:
296,68,45177,1,0,0:0:0:0:
280,92,45280,1,0,0:0:0:0:
260,112,45383,1,0,0:0:0:0:
244,136,45486,1,0,0:0:0:0:
232,160,45590,1,0,0:0:0:0:
224,188,45693,1,0,0:0:0:0:
216,216,45796,1,0,0:0:0:0:
208,244,45899,1,0,0:0:0:0:
196,272,46002,6,0,P|124:236|108:168,1,140
108,92,46620,1,0,0:0:0:0:
256,72,46930,1,0,0:0:0:0:
360,52,47239,2,0,B|392:96|392:96|440:188,1,140
416,256,47858,1,0,0:0:0:0:
360,336,48167,2,0,B|260:336|260:336|196:284,1,140
164,96,48785,5,0,0:0:0:0:
356,104,49095,1,0,0:0:0:0:
160,276,49404,1,0,0:0:0:0:
352,276,49713,1,0,0:0:0:0:
424,192,50022,2,0,B|388:88|296:44|224:40|224:40|224:0,1,280
176,96,50796,5,0,0:0:0:0:
212,184,50950,2,0,L|152:240,1,70
264,136,51260,2,0,L|320:76,1,70
328,248,51569,5,0,0:0:0:0:
328,248,51723,1,0,0:0:0:0:
184,244,51878,2,0,L|184:168,1,70
88,248,52187,2,0,L|88:160,1,70
256,96,52497,5,0,0:0:0:0:
416,20,52651,1,0,0:0:0:0:
428,192,52806,1,0,0:0:0:0:
416,20,52961,1,0,0:0:0:0:
168,88,53115,6,0,L|168:172,1,70
72,84,53424,2,0,L|72:172,1,70
320,144,53734,1,0,0:0:0:0:
192,240,53888,1,0,0:0:0:0:
380,192,54043,1,0,0:0:0:0:
140,192,54198,1,0,0:0:0:0:
192,44,54352,5,0,0:0:0:0:
228,48,54430,1,0,0:0:0:0:
260,60,54507,1,0,0:0:0:0:
292,76,54584,1,0,0:0:0:0:
320,100,54662,1,0,0:0:0:0:
344,124,54739,1,0,0:0:0:0:
372,144,54816,1,0,0:0:0:0:
404,160,54894,1,0,0:0:0:0:
424,188,54971,1,0,0:0:0:0:
436,220,55048,1,0,0:0:0:0:
440,256,55125,1,0,0:0:0:0:
296,296,55280,5,0,0:0:0:0:
308,264,55357,1,0,0:0:0:0:
324,232,55435,1,0,0:0:0:0:
356,216,55512,1,0,0:0:0:0:
388,200,55589,1,0,0:0:0:0:
404,160,55667,1,0,0:0:0:0:
404,124,55744,1,0,0:0:0:0:
392,92,55821,1,0,0:0:0:0:
368,64,55899,1,0,0:0:0:0:
332,56,55976,1,0,0:0:0:0:
292,76,56053,1,0,0:0:0:0:
264,96,56131,6,0,L|228:128,1,35
172,168,56363,1,0,0:0:0:0:
344,168,56672,1,0,0:0:0:0:
456,168,56981,2,0,L|456:92,2,70
300,288,58064,5,0,0:0:0:0:
408,120,58218,1,0,0:0:0:0:
320,64,58527,2,0,B|240:48|240:48|168:160,1,210
112,280,59300,1,0,0:0:0:0:
284,288,59455,1,0,0:0:0:0:
408,160,59610,1,0,0:0:0:0:
284,56,59764,2,0,B|220:16|220:16|124:112,1,210
176,308,60537,5,0,0:0:0:0:
116,152,60692,1,0,0:0:0:0:
276,52,60846,1,0,0:0:0:0:
408,120,61001,2,0,B|412:248|412:248|344:328,1,210
232,320,61774,2,0,B|188:316|188:316|144:280,1,70
124,212,62083,1,0,0:0:0:0:
96,120,62238,2,0,B|188:56|188:56|280:108,1,210
424,108,63011,5,0,0:0:0:0:
256,112,63166,1,0,0:0:0:0:
256,112,63243,1,0,0:0:0:0:
256,112,63320,1,0,0:0:0:0:
256,296,63475,6,0,B|256:192|256:192|144:128,1,210
76,96,64248,1,0,0:0:0:0:
68,272,64403,1,0,0:0:0:0:
232,200,64558,1,0,0:0:0:0:
104,80,64712,1,0,0:0:0:0:
52,300,64867,5,0,0:0:0:0:
256,216,65022,1,0,0:0:0:0:
352,32,65176,1,0,0:0:0:0:
448,224,65331,1,0,0:0:0:0:
488,56,65485,2,0,P|488:96|464:136,1,70
284,184,65795,1,0,0:0:0:0:
172,112,65949,5,0,0:0:0:0:
220,296,66103,1,0,0:0:0:0:
368,176,66258,1,0,0:0:0:0:
248,88,66413,1,0,0:0:0:0:
144,312,66568,1,0,0:0:0:0:
396,244,66723,1,0,0:0:0:0:
120,172,66877,1,0,0:0:0:0:
440,184,67032,6,0,L|440:100,1,70
76,188,67341,2,0,L|76:108,1,70
420,252,67650,1,0,0:0:0:0:
136,80,67805,1,0,0:0:0:0:
324,308,67960,2,0,P|256:216|248:184,1,140
348,96,68424,6,0,P|256:56|144:80,1,210
52,192,69197,1,0,0:0:0:0:
128,332,69351,1,0,0:0:0:0:
268,248,69506,1,0,0:0:0:0:
384,168,69661,2,0,L|464:168,2,70
224,168,70125,1,0,0:0:0:0:
64,168,70279,1,0,0:0:0:0:
112,284,70434,6,0,B|148:348|148:348|192:324|224:332,1,140
360,308,70898,2,0,B|440:276|440:276|464:192|424:160,1,210
344,76,71671,1,0,0:0:0:0:
168,48,71826,1,0,0:0:0:0:
60,180,71981,1,0,0:0:0:0:
128,312,72135,6,0,B|252:312|252:312|264:256|304:228,1,210
460,312,72908,1,0,0:0:0:0:
456,192,73063,1,0,0:0:0:0:
456,64,73217,1,0,0:0:0:0:
324,192,73372,1,0,0:0:0:0:
112,184,73527,6,0,P|96:144|116:104,1,70
400,192,73836,2,0,P|416:148|408:124,1,70
100,256,74145,2,0,P|60:240|40:204,1,70
408,256,74454,2,0,P|452:236|476:204,1,70
256,328,74764,1,0,0:0:0:0:
112,192,74918,1,0,0:0:0:0:
256,56,75073,1,0,0:0:0:0:
400,192,75228,1,0,0:0:0:0:
132,308,75382,5,0,0:0:0:0:
132,76,75537,1,0,0:0:0:0:
372,76,75691,1,0,0:0:0:0:
360,308,75846,1,0,0:0:0:0:
236,216,76001,5,0,0:0:0:0:
280,216,76155,1,0,0:0:0:0:
276,172,76310,1,0,0:0:0:0:
240,172,76465,1,0,0:0:0:0:
312,228,76619,1,0,0:0:0:0:
200,160,76774,1,0,0:0:0:0:
348,280,76929,1,0,0:0:0:0:
176,96,77083,1,0,0:0:0:0:
256,192,77238,6,0,L|212:192,14,35
104,192,78475,1,0,0:0:0:0:
220,96,78630,1,0,0:0:0:0:
216,280,78784,1,0,0:0:0:0:
344,192,78939,1,0,0:0:0:0:
440,148,79093,6,0,L|440:72,1,70
292,148,79403,2,0,L|292:64,1,70
212,332,79712,1,0,0:0:0:0:
76,244,79867,1,0,0:0:0:0:
72,96,80021,1,0,0:0:0:0:
224,20,80176,1,0,0:0:0:0:
192,244,80331,6,0,L|276:244,1,70
192,124,80640,2,0,L|276:124,1,70
436,256,80949,1,0,0:0:0:0:
340,128,81104,1,0,0:0:0:0:
304,252,81258,1,0,0:0:0:0:
472,140,81413,1,0,0:0:0:0:
296,336,81568,6,0,L|200:336,1,70
76,284,81877,2,0,L|76:200,1,70
72,48,82186,1,0,0:0:0:0:
196,48,82341,1,0,0:0:0:0:
320,48,82495,1,0,0:0:0:0:
440,48,82650,1,0,0:0:0:0:
256,192,82805,5,0,0:0:0:0:
256,192,82959,1,0,0:0:0:0:
256,192,83114,2,0,B|204:200|204:200|220:164|220:164|168:128,1,140
