osu file format v14

[General]
AudioFilename: gh.mp3
AudioLeadIn: 0
PreviewTime: 50119
Countdown: 0
SampleSet: Normal
StackLeniency: 0.4
Mode: 0
LetterboxInBreaks: 1
WidescreenStoryboard: 0

[Editor]
DistanceSpacing: 1.3
BeatDivisor: 4
GridSize: 32
TimelineZoom: 2.3

[Metadata]
Title:GO CRY GO
TitleUnicode:GO CRY GO
Artist:OxT
ArtistUnicode:OxT
Creator:pashty
Version:Extra
Source:Overlord
Tags:overlord s2 op ed anime
BeatmapID:1768003
BeatmapSetID:845222

[Difficulty]
HPDrainRate:3.5
CircleSize:3.5
OverallDifficulty:8
ApproachRate:9.2
SliderMultiplier:1.5
SliderTickRate:1

[Events]
//Background and Video events
0,0,"thumb-1920-626765.jpg",0,0
//Break Periods
//Storyboard Layer 0 (Background)
//Storyboard Layer 1 (Fail)
//Storyboard Layer 2 (Pass)
//Storyboard Layer 3 (Foreground)
//Storyboard Sound Samples

[TimingPoints]
813,297.029702970297,4,1,0,100,1,0
6159,-100,4,1,0,70,0,0
16258,-125,4,1,0,60,0,0
25763,-100,4,1,0,70,0,0
37644,-200,4,1,0,70,0,0
43585,-100,4,1,0,70,0,0
50713,-66.6666666666667,4,1,0,100,0,1
78040,-100,4,1,0,70,0,0
88733,-66.6666666666667,4,1,0,100,0,0

[HitObjects]
171,100,6159,6,0,L|146:194,1,75
248,178,6456,2,0,L|289:266,1,75
313,109,6753,1,0,0:0:0:0:
313,109,6902,1,0,0:0:0:0:
226,220,7050,5,0,0:0:0:0:
197,90,7199,1,0,0:0:0:0:
324,194,7347,6,0,L|392:250,1,75
278,283,7644,2,0,L|201:318,1,75
315,155,7941,6,0,L|401:169,1,75
319,255,8238,2,0,L|269:323,1,75
295,125,8535,6,0,L|377:94,1,75
256,41,8832,2,0,L|180:3,1,75
194,131,9129,1,0,0:0:0:0:
194,131,9278,1,0,0:0:0:0:
249,4,9426,5,0,0:0:0:0:
313,117,9575,1,0,0:0:0:0:
151,59,9723,2,0,L|75:31,1,75
140,163,10020,2,0,L|186:248,1,75
49,118,10317,1,0,0:0:0:0:
49,118,10392,1,0,0:0:0:0:
49,118,10466,5,0,0:0:0:0:
93,248,10614,1,0,0:0:0:0:
197,125,10763,1,0,0:0:0:0:
38,226,10912,2,0,L|-33:271,1,75
171,316,11209,2,0,L|270:343,1,75
171,193,11506,5,0,0:0:0:0:
60,331,11654,1,0,0:0:0:0:
246,289,11803,2,0,P|301:270|324:225,1,75
185,381,12100,5,0,0:0:0:0:
185,381,12248,1,0,0:0:0:0:
243,222,12397,5,0,0:0:0:0:
342,364,12545,1,0,0:0:0:0:
162,286,12694,5,0,0:0:0:0:
355,190,12842,1,0,0:0:0:0:
138,114,12991,2,0,P|80:101|46:124,1,75
219,31,13288,5,0,0:0:0:0:
219,31,13362,1,0,0:0:0:0:
219,31,13436,1,0,0:0:0:0:
239,156,13585,1,0,0:0:0:0:
291,58,13733,1,0,0:0:0:0:
177,90,13882,6,0,P|139:111|124:139,1,75
314,141,14179,2,0,P|352:162|367:190,1,75
229,248,14476,5,0,0:0:0:0:
194,263,14550,1,0,0:0:0:0:
160,278,14624,1,0,0:0:0:0:
326,277,14773,1,0,0:0:0:0:
158,192,14921,1,0,0:0:0:0:
267,348,15070,5,0,0:0:0:0:
277,114,15218,1,0,0:0:0:0:
61,237,15367,2,0,L|-17:278,1,75
215,137,16258,6,0,L|195:223,1,60
298,208,16555,2,0,L|318:294,1,60
203,321,16852,5,0,0:0:0:0:
203,321,16926,1,0,0:0:0:0:
203,321,17001,1,0,0:0:0:0:
114,245,17149,2,0,P|92:201|96:169,1,60
98,344,17446,1,0,0:0:0:0:
156,213,17595,1,0,0:0:0:0:
38,280,17743,1,0,0:0:0:0:
217,265,17892,2,0,L|302:260,1,60
185,170,18189,5,0,0:0:0:0:
270,324,18337,1,0,0:0:0:0:
318,158,18486,1,0,0:0:0:0:
410,322,18634,2,0,L|447:375,1,60
445,137,18931,6,0,L|482:190,1,60
207,225,19228,6,0,L|244:278,1,60
270,52,19525,6,0,L|307:105,1,60
129,81,19822,5,0,0:0:0:0:
222,126,19971,1,0,0:0:0:0:
105,179,20119,1,0,0:0:0:0:
143,36,20268,2,0,P|163:12|195:0,1,60
55,69,20565,5,0,0:0:0:0:
186,131,20713,1,0,0:0:0:0:
14,164,20862,1,0,0:0:0:0:
145,226,21011,2,0,L|217:271,1,60
101,281,21308,5,0,0:0:0:0:
210,199,21456,1,0,0:0:0:0:
210,199,21530,1,0,0:0:0:0:
210,199,21605,2,0,L|249:173,1,30
210,308,21753,2,0,L|198:346,1,30
111,190,21902,5,0,0:0:0:0:
301,311,22050,1,0,0:0:0:0:
306,188,22199,2,0,P|302:152|287:123,1,60
392,229,22496,5,0,0:0:0:0:
203,143,22644,2,0,P|164:133|126:143,1,60
269,45,22941,6,0,P|308:35|346:45,1,60
149,37,23238,1,0,0:0:0:0:
331,151,23387,6,0,L|399:202,1,60
240,191,23684,5,0,0:0:0:0:
300,243,23832,1,0,0:0:0:0:
363,290,23981,2,0,L|431:341,1,60
273,323,24278,2,0,L|200:316,1,60
153,311,24501,1,0,0:0:0:0:
153,311,24575,5,0,0:0:0:0:
264,232,24723,1,0,0:0:0:0:
117,218,24872,1,0,0:0:0:0:
169,359,25020,1,0,0:0:0:0:
169,359,25095,1,0,0:0:0:0:
169,359,25169,5,0,0:0:0:0:
157,173,25317,1,0,0:0:0:0:
16,335,25466,1,0,0:0:0:0:
231,258,25614,1,0,0:0:0:0:
44,139,25763,6,0,L|-27:102,1,75
138,79,26060,2,0,L|209:116,1,75
205,259,26357,6,0,L|134:222,1,75
319,117,26654,2,0,L|390:154,1,75
311,308,26951,5,0,0:0:0:0:
247,168,27100,1,0,0:0:0:0:
405,227,27248,1,0,0:0:0:0:
211,289,27397,2,0,P|153:284|128:267,1,75
291,376,27694,5,0,0:0:0:0:
173,212,27842,1,0,0:0:0:0:
341,358,27991,1,0,0:0:0:0:
92,332,28139,2,0,L|10:323,1,75
214,209,28436,6,0,L|132:200,1,75
282,384,28733,6,0,L|200:375,1,75
394,119,29030,6,0,L|312:110,1,75
395,287,29327,5,0,0:0:0:0:
485,150,29476,1,0,0:0:0:0:
292,223,29624,1,0,0:0:0:0:
382,86,29773,2,0,P|412:56|455:57,1,75
264,92,30070,5,0,0:0:0:0:
372,202,30218,2,0,L|428:257,1,75
468,306,30441,1,0,0:0:0:0:
468,306,30515,5,0,0:0:0:0:
471,180,30664,1,0,0:0:0:0:
355,275,30813,1,0,0:0:0:0:
362,140,30961,2,0,L|367:58,1,75
289,193,31258,5,0,0:0:0:0:
443,109,31407,2,0,P|455:68|442:35,1,75
397,8,31629,1,0,0:0:0:0:
397,8,31704,5,0,0:0:0:0:
495,154,31852,1,0,0:0:0:0:
317,125,32001,1,0,0:0:0:0:
415,271,32149,1,0,0:0:0:0:
419,108,32298,2,0,P|411:72|381:45,1,75
328,28,32520,1,0,0:0:0:0:
328,28,32595,5,0,0:0:0:0:
471,72,32743,1,0,0:0:0:0:
342,168,32892,1,0,0:0:0:0:
230,38,33040,2,0,L|254:120,1,75
130,141,33337,5,0,0:0:0:0:
180,272,33486,1,0,0:0:0:0:
342,168,33634,5,0,0:0:0:0:
392,299,33783,1,0,0:0:0:0:
90,229,33931,5,0,0:0:0:0:
140,360,34080,1,0,0:0:0:0:
439,206,34228,5,0,0:0:0:0:
489,337,34377,1,0,0:0:0:0:
268,311,34525,5,0,0:0:0:0:
218,180,34674,2,0,L|188:106,1,75
338,244,34971,6,0,L|308:170,1,75
184,353,35268,5,0,0:0:0:0:
169,318,35342,1,0,0:0:0:0:
155,283,35416,1,0,0:0:0:0:
288,216,35862,5,0,0:0:0:0:
334,57,36456,5,0,0:0:0:0:
206,125,36939,1,0,0:0:0:0:
377,193,37347,1,0,0:0:0:0:
270,308,37644,2,0,L|223:372,1,75
202,198,38238,5,0,0:0:0:0:
330,349,38498,5,0,0:0:0:0:
421,206,38721,1,0,0:0:0:0:
312,25,38907,5,0,0:0:0:0:
225,239,39426,6,0,B|216:222|216:222|209:179|209:179|195:157,1,75
61,351,40020,5,0,0:0:0:0:
316,204,40614,6,0,L|340:276,1,75
390,73,41209,1,0,0:0:0:0:
163,138,41803,5,0,0:0:0:0:
414,239,42397,6,0,L|516:305,1,112.5
195,279,42991,6,0,P|154:323|104:317,1,112.5
336,145,43585,6,0,P|377:153|373:102,1,75
296,218,43882,5,0,0:0:0:0:
303,47,44179,1,0,0:0:0:0:
161,163,44476,1,0,0:0:0:0:
384,241,44773,6,0,L|430:261,1,37.5
131,278,45070,6,0,L|92:311,1,37.5
382,70,45367,6,0,L|416:42,1,37.5
76,61,45664,6,0,L|29:36,1,37.5
256,191,45961,5,0,0:0:0:0:
256,191,46258,6,0,P|237:246|163:283,1,112.5
274,219,46555,6,0,P|298:281|354:280,1,112.5
206,240,46852,6,0,B|200:302|200:302|148:288,1,112.5
321,266,47149,6,0,B|361:338|361:338|401:279|496:270|496:270|437:203|437:203|452:133|364:98|364:98|384:185,1,525
472,44,48337,6,0,L|510:9,2,37.5
330,208,48634,1,0,0:0:0:0:
311,30,48783,6,0,L|296:-10,2,37.5
384,254,49080,1,0,0:0:0:0:
243,51,49228,1,0,0:0:0:0:
465,107,49377,1,0,0:0:0:0:
212,235,49525,1,0,0:0:0:0:
340,14,49674,1,0,0:0:0:0:
415,330,49822,1,0,0:0:0:0:
161,137,49971,6,0,L|123:107,1,37.5
214,177,50119,6,0,L|246:203,1,37.5
238,331,50342,6,0,L|277:362,1,37.5
482,292,50565,6,0,L|526:328,1,37.5
244,201,50713,1,0,0:0:0:0:
462,211,50862,1,0,0:0:0:0:
223,321,51011,2,0,P|162:338|97:327,1,112.500004291535
272,196,51308,5,0,0:0:0:0:
480,130,51457,1,0,0:0:0:0:
293,315,51606,2,0,P|241:351|176:363,1,112.500004291535
310,169,51902,6,0,L|345:111,1,56.2500021457673
120,193,52087,2,0,P|60:228|45:303,1,112.500004291535
349,332,52310,6,0,L|412:357,1,56.2500021457673
182,99,52496,2,0,L|143:43,1,56.2500021457673
169,270,52644,1,0,0:0:0:0:
307,132,52793,1,0,0:0:0:0:
106,138,52941,1,0,0:0:0:0:
361,264,53090,6,0,L|479:328,1,112.500004291535
228,301,53387,2,0,P|166:329|141:278,1,112.500004291535
362,170,53684,6,0,L|493:143,1,112.500004291535
283,283,53981,2,0,P|253:344|201:321,1,112.500004291535
367,75,54278,5,0,0:0:0:0:
429,227,54426,1,0,0:0:0:0:
315,71,54575,1,0,0:0:0:0:
325,273,54723,1,0,0:0:0:0:
403,43,54872,1,0,0:0:0:0:
403,43,54946,1,0,0:0:0:0:
403,43,55020,6,0,L|423:-12,1,56.2500021457673
234,147,55169,2,0,L|176:197,1,56.2500021457673
464,72,55317,6,0,L|508:34,1,56.2500021457673
213,83,55466,2,0,L|137:97,1,56.2500021457673
334,184,55614,1,0,0:0:0:0:
258,22,55763,1,0,0:0:0:0:
258,218,55912,1,0,0:0:0:0:
321,44,56060,6,0,L|341:-14,1,56.2500021457673
385,233,56209,2,0,L|428:283,1,56.2500021457673
294,34,56357,6,0,L|303:-25,1,56.2500021457673
375,254,56506,2,0,L|409:311,1,56.2500021457673
221,114,56654,2,0,P|167:92|104:118,1,112.500004291535
230,219,56951,2,0,L|333:313,1,112.500004291535
111,246,57248,5,0,0:0:0:0:
346,187,57397,1,0,0:0:0:0:
146,326,57545,5,0,0:0:0:0:
281,116,57694,1,0,0:0:0:0:
236,367,57842,5,0,0:0:0:0:
236,367,57916,1,0,0:0:0:0:
236,367,57991,1,0,0:0:0:0:
180,157,58139,1,0,0:0:0:0:
172,323,58288,5,0,0:0:0:0:
172,323,58362,1,0,0:0:0:0:
172,323,58437,1,0,0:0:0:0:
228,113,58585,1,0,0:0:0:0:
287,342,58733,1,0,0:0:0:0:
257,75,58882,1,0,0:0:0:0:
89,251,59030,5,0,0:0:0:0:
372,202,59179,1,0,0:0:0:0:
113,148,59327,5,0,0:0:0:0:
390,303,59476,1,0,0:0:0:0:
104,320,59624,5,0,0:0:0:0:
374,103,59773,1,0,0:0:0:0:
221,387,59921,5,0,0:0:0:0:
292,23,60070,1,0,0:0:0:0:
67,210,60218,6,0,L|-36:280,1,112.500004291535
279,183,60515,2,0,P|292:257|241:282,1,112.500004291535
73,265,60813,6,0,L|60:388,1,112.500004291535,0|0,0:0|0:0,0:0:0:0:
188,85,61110,2,0,P|253:122|239:177,1,112.500004291535,0|0,0:0|0:0,0:0:0:0:
137,276,61407,6,0,L|102:334,1,56.2500021457673
330,243,61592,2,0,P|385:222|397:172,1,112.500004291535
101,104,61815,6,0,L|38:79,1,56.2500021457673
268,337,62001,2,0,L|307:393,1,56.2500021457673
262,132,62149,1,0,0:0:0:0:
150,321,62298,1,0,0:0:0:0:
150,321,62372,1,0,0:0:0:0:
150,321,62446,1,0,0:0:0:0:
416,255,62595,6,0,L|526:218,1,112.500004291535
301,105,62892,2,0,P|297:162|250:185,1,112.500004291535
418,205,63189,6,0,L|460:96,1,112.500004291535
229,196,63486,2,0,P|270:235|257:286,1,112.500004291535
383,168,63783,5,0,0:0:0:0:
301,340,63931,1,0,0:0:0:0:
296,132,64080,5,0,0:0:0:0:
387,320,64228,1,0,0:0:0:0:
410,96,64377,5,0,0:0:0:0:
226,259,64525,1,0,0:0:0:0:
505,301,64674,1,0,0:0:0:0:
284,63,64822,1,0,0:0:0:0:
171,306,64971,2,0,L|121:408,1,112.500004291535
81,170,65268,6,0,L|68:282,1,112.500004291535
340,197,65565,6,0,L|276:291,1,112.500004291535
136,49,65862,6,0,L|163:159,1,112.500004291535
399,52,66159,6,0,L|307:118,1,112.500004291535
241,14,66456,5,0,0:0:0:0:
454,110,66605,1,0,0:0:0:0:
206,190,66753,2,0,L|95:233,1,112.500004291535
304,309,67050,2,0,L|415:352,1,112.500004291535
338,184,67347,5,0,0:0:0:0:
216,274,67496,1,0,0:0:0:0:
258,57,67644,2,0,L|264:175,1,112.500004291535
354,260,67941,5,0,0:0:0:0:
157,247,68090,1,0,0:0:0:0:
380,66,68238,2,0,L|287:188,1,112.500004291535
287,337,68535,5,0,0:0:0:0:
101,159,68684,1,0,0:0:0:0:
355,200,68832,5,0,0:0:0:0:
112,305,68981,1,0,0:0:0:0:
423,292,69129,5,0,0:0:0:0:
144,216,69278,1,0,0:0:0:0:
451,272,69426,5,0,0:0:0:0:
109,239,69575,1,0,0:0:0:0:
417,160,69723,2,0,L|535:118,1,112.500004291535
293,290,70020,2,0,P|350:330|364:278,1,112.500004291535
279,145,70317,5,0,0:0:0:0:
431,269,70466,1,0,0:0:0:0:
211,217,70614,1,0,0:0:0:0:
394,101,70763,2,0,L|501:33,1,112.500004291535
235,64,71060,6,0,P|261:129|216:151,1,112.500004291535
361,194,71357,5,0,0:0:0:0:
168,102,71506,1,0,0:0:0:0:
168,102,71580,1,0,0:0:0:0:
168,102,71654,1,0,0:0:0:0:
276,266,71803,1,0,0:0:0:0:
313,58,71951,1,0,0:0:0:0:
143,219,72100,5,0,0:0:0:0:
409,117,72248,1,0,0:0:0:0:
117,198,72397,1,0,0:0:0:0:
435,155,72545,1,0,0:0:0:0:
164,318,72694,6,0,L|107:358,1,56.2500021457673
321,68,72842,2,0,L|355:18,1,56.2500021457673
140,128,72991,5,0,0:0:0:0:
365,271,73139,2,0,L|463:338,1,112.500004291535
282,123,73436,5,0,0:0:0:0:
282,123,73511,1,0,0:0:0:0:
282,123,73585,1,0,0:0:0:0:
287,265,73733,1,0,0:0:0:0:
389,143,73882,1,0,0:0:0:0:
211,189,74030,1,0,0:0:0:0:
376,286,74179,1,0,0:0:0:0:
336,64,74327,1,0,0:0:0:0:
201,283,74476,6,0,L|143:385,1,112.500004291535
438,197,74773,6,0,L|342:264,1,112.500004291535
393,38,75070,6,0,L|410:-18,1,56.2500021457673
246,155,75218,2,0,L|190:207,1,56.2500021457673
398,156,75367,5,0,0:0:0:0:
251,30,75515,2,0,P|194:8|136:23,1,112.500004291535
457,43,75813,5,0,0:0:0:0:
223,73,76110,5,0,0:0:0:0:
459,1,76259,1,0,0:0:0:0:
145,17,76555,5,0,0:0:0:0:
381,118,76852,5,0,0:0:0:0:
265,301,77001,1,0,0:0:0:0:
407,124,77149,5,0,0:0:0:0:
228,311,77298,1,0,0:0:0:0:
369,86,77446,5,0,0:0:0:0:
250,345,77595,1,0,0:0:0:0:
416,82,77743,5,0,0:0:0:0:
203,358,77892,2,0,L|168:407,1,56.2500021457673
392,28,78040,5,0,0:0:0:0:
200,182,78337,5,0,0:0:0:0:
200,182,78634,1,0,0:0:0:0:
200,182,78931,1,0,0:0:0:0:
200,182,79228,6,0,L|143:272,1,75
322,198,79525,2,0,L|407:174,1,75
256,110,79822,5,0,0:0:0:0:
251,270,79971,1,0,0:0:0:0:
296,98,80119,2,0,L|315:13,1,75
181,164,80416,6,0,L|124:238,1,75
256,254,80713,2,0,L|313:328,1,75
127,187,81011,6,0,L|114:279,1,75
236,227,81308,2,0,L|322:262,1,75
89,235,81605,5,0,0:0:0:0:
89,235,81753,1,0,0:0:0:0:
180,150,81902,5,0,0:0:0:0:
197,307,82050,1,0,0:0:0:0:
296,182,82199,2,0,L|349:113,1,75
343,247,82496,5,0,0:0:0:0:
265,87,82644,1,0,0:0:0:0:
222,247,82793,2,0,L|197:332,1,75
345,172,83090,2,0,L|411:104,1,75
201,129,83387,5,0,0:0:0:0:
201,129,83461,1,0,0:0:0:0:
201,129,83535,1,0,0:0:0:0:
337,282,83684,1,0,0:0:0:0:
288,62,83832,1,0,0:0:0:0:
189,247,83981,6,0,L|135:323,1,75
332,158,84278,2,0,L|409:95,1,75
115,229,84575,5,0,0:0:0:0:
391,188,84723,1,0,0:0:0:0:
216,304,84872,2,0,P|170:316|132:311,1,75
326,351,85169,5,0,0:0:0:0:
326,351,85317,1,0,0:0:0:0:
296,208,85466,5,0,0:0:0:0:
440,278,85614,1,0,0:0:0:0:
364,124,85763,5,0,0:0:0:0:
301,302,85912,1,0,0:0:0:0:
185,143,86060,2,0,B|171:120|171:120|169:83|169:83|156:61,1,75
108,242,86357,6,0,L|83:299,1,37.5
220,211,86506,1,0,0:0:0:0:
68,178,86654,6,0,L|12:205,1,37.5
243,257,86803,1,0,0:0:0:0:
157,90,86951,5,0,0:0:0:0:
157,90,87025,1,0,0:0:0:0:
157,90,87100,1,0,0:0:0:0:
188,298,87248,1,0,0:0:0:0:
296,87,87397,1,0,0:0:0:0:
349,301,87545,6,0,L|366:353,1,37.5
246,178,87694,1,0,0:0:0:0:
260,312,87842,6,0,L|243:364,1,37.5
363,189,87991,1,0,0:0:0:0:
440,348,88139,5,0,0:0:0:0:
298,142,88288,1,0,0:0:0:0:
167,337,88436,2,0,L|128:401,1,75
