osu file format v9

[General]
AudioFilename: Owl City - The Saltwater Room.mp3
AudioLeadIn: 0
PreviewTime: 88415
Countdown: 0
SampleSet: Soft
StackLeniency: 0.7
Mode: 0
LetterboxInBreaks: 1

[Editor]
DistanceSpacing: 0.8
BeatDivisor: 4
GridSize: 8

[Metadata]
Title:The Saltwater Room
Artist:Owl City ft. Breanne Duren
Creator:JauiPlaY
Version:Normal
Source:
Tags:ocean eyes

[Difficulty]
HPDrainRate:5
CircleSize:4
OverallDifficulty:4
ApproachRate:4
SliderMultiplier:1.8
SliderTickRate:1

[Events]
//Background and Video events
0,0,"BG.jpg"
//Break Periods
2,105346,120969
2,141775,146951
2,184632,200255
//Storyboard Layer 0 (Background)
//Storyboard Layer 1 (Fail)
//Storyboard Layer 2 (Pass)
//Storyboard Layer 3 (Foreground)
//Storyboard Sound Samples
//Background Colour Transformations
3,100,163,162,255

[TimingPoints]
8718,535.714285714286,4,2,0,30,1,0
17155,-100,4,2,0,90,0,0
17423,-100,4,2,0,100,0,0
87066,-100,4,2,0,30,0,0
87870,-100,4,2,0,100,0,0
88004,-100,4,2,0,100,0,1
88405,-100,4,2,0,70,0,1
103137,-100,4,2,0,100,0,0
140637,-100,4,2,0,30,0,0
141441,-100,4,2,2,100,0,0
141709,-100,4,2,0,100,0,0
150147,-100,4,2,0,100,0,1
150280,-100,4,2,0,70,0,1
165280,-100,4,2,0,100,0,0
167289,-100,4,2,0,100,0,1
167423,-100,4,2,0,70,0,1
182423,-100,4,2,0,100,0,0
184422,-100,4,2,0,100,0,1
184499,-100,4,2,0,100,0,0
218316,-200,4,2,0,100,0,0
220726,-100,4,2,2,100,0,0

[Colours]
Combo1 : 180,125,223
Combo2 : 255,128,255
Combo3 : 128,255,255
Combo4 : 43,52,121
Combo5 : 128,0,255

[HitObjects]
256,192,16485,5,8
256,192,16753,1,8
256,192,17289,1,4
216,56,17825,6,0,B|112:104|104:200,1,180,0|2
176,196,18628,1,0
138,257,18896,2,0,B|226:329|322:305,1,180,0|2
376,288,19700,1,0
440,248,19967,1,2
472,184,20235,1,0
376,80,20771,5,0
320,120,21039,1,2
288,184,21307,1,0
288,256,21575,2,0,B|32:224|288:80|32:48,1,360,2|2
24,120,22914,1,0
40,192,23182,2,0,B|112:256,1,90,2|0
104,328,23718,6,0,B|208:304,3,90,2|0|0|0
264,320,24789,2,0,B|312:104,1,180,2|0
232,120,25593,2,0,B|144:200,1,90,2|2
176,328,26396,6,0,B|128:248,1,90,0|0
72,294,26932,2,0,B|-8:222,1,90,2|0
48,176,27468,2,0,B|72:48,2,90,0|2|2
184,128,28539,2,0,B|248:200,1,90
296,144,29075,2,0,B|384:200,1,90,2|0
368,264,29610,2,0,B|280:352,2,90,0|2|2
224,272,30682,6,0,B|160:264|160:192,1,90
176,144,31218,2,0,B|216:96|280:128,1,90,2|0
312,168,31753,2,0,B|336:224|280:264,1,90,0|2
424,328,32557,1,0
376,272,32825,2,0,B|456:224,1,90,2|0
432,160,33360,2,0,B|392:64|272:104,2,180,2|0|2
360,176,34700,5,2
288,176,34968,1,0
216,176,35235,1,2
96,248,35771,1,2
168,248,36039,1,0
240,248,36307,1,2
216,320,36575,5,0
288,320,36843,1,2
360,320,37110,1,0
432,320,37378,1,2
464,176,37914,5,2
392,176,38182,1,0
320,176,38450,1,2
248,176,38718,2,0,B|288:296|144:408|-48:304|24:64|200:120,1,540,2|2
264,104,40593,1,0
264,104,40860,5,2
408,104,41396,1,0
408,248,41932,1,2
264,248,42468,1,0
280,320,42735,1,2
208,344,43003,1,2
72,344,43539,5,2
56,200,44075,1,2
96,136,44343,2,0,B|208:176,1,90
184,240,44878,2,0,B|128:336,1,90,2|2
272,272,45682,5,2
392,344,46218,2,0,B|360:240,1,90,2|0
400,192,46753,2,0,B|456:264,1,90,0|2
496,200,47289,1,2
400,88,47825,6,0,B|312:128,1,90,2|0
304,192,48360,2,0,B|264:280,1,90,2|0
288,344,48896,2,0,B|376:272|488:312,1,180,0|2
472,232,49700,5,0
416,184,49968,1,0
481,155,50235,1,0
424,112,50503,2,0,B|320:128|216:96,2,180,2|0|2
232,200,52378,6,0,B|192:240|144:216,1,90,0|2
176,152,52914,2,0,B|128:136|104:88,1,90
48,56,53450,1,0
40,128,53718,2,0,B|16:224|24:312,2,180,2|0|2
101,164,55057,5,0
120,232,55325,2,0,B|208:296,1,90,2|0
246,237,55860,2,0,B|206:116|349:4|542:108|469:348|293:292,1,540,2|2
230,306,57735,5,2
230,306,58003,2,0,B|152:368,1,90,2|0
128,296,58539,2,0,B|32:288,1,90,2|0
63,220,59075,6,0,B|-9:148,1,90,2|0
24,88,59610,1,0
80,40,59878,1,2
152,24,60146,1,2
136,168,60682,6,0,B|204:86|292:60|387:85|461:188,1,360,2|0
392,216,62021,1,2
320,216,62289,1,2
176,216,62825,1,2
40,168,63360,2,0,B|108:86|196:60|291:85|365:188,1,360,2|0
384,304,64968,5,2
312,304,65235,1,0
240,296,65503,2,0,B|144:240,1,90,2|0
213,199,66039,2,0,B|173:119,1,90,2|0
296,40,66843,2,0,B|408:80,1,90,0|2
344,136,67378,2,0,B|400:216,1,90,0|2
360,272,67914,5,0
288,272,68182,1,0
216,272,68450,1,2
144,272,68718,1,2
96,216,68985,6,0,B|160:136,1,90
256,48,69789,2,0,B|368:72|424:168,1,180,2|0
357,194,70593,1,0
417,233,70860,2,0,B|353:337|273:353,1,180,2|0
246,289,71664,1,0
193,338,71932,6,0,B|120:276|127:155,1,180,2|0
193,151,72735,1,0
164,85,73003,2,0,B|12:93|28:-11|236:-91|460:5|460:101|276:85,1,540,2|2
256,136,74878,5,0
313,179,75146,2,0,B|400:224,1,90,2|0
352,280,75682,2,0,B|264:272,1,90,2|0
264,344,76217,2,0,B|160:360|72:304,2,180,2|2|2
408,328,77825,5,2
352,280,78092,1,0
296,232,78360,1,2
240,184,78628,1,0
184,136,78896,1,0
128,88,79164,1,2
72,40,79432,1,2
88,184,79967,6,0,B|144:176|176:240,1,90,2|0
160,296,80503,2,0,B|120:344|56:328,1,90,2|0
24,296,81039,2,0,B|-8:248|32:208,1,90,0|2
88,256,81575,1,2
216,328,82110,5,2
288,328,82378,1,0
288,256,82646,1,2
216,256,82914,1,0
216,184,83182,1,2
288,184,83450,2,0,B|352:104|440:56,1,180
488,104,84253,5,2
432,144,84521,2,0,B|400:184|440:248,2,90,0|2|0
489,187,85325,1,2
256,192,85592,12,0,86932
256,192,87200,5,8
256,192,87467,1,8
256,192,88003,1,4
296,56,88539,6,0,B|384:96,1,90,8|0
392,168,89075,1,0
392,168,89342,1,0
440,224,89610,2,0,B|344:288,1,90,8|0
320,328,90146,6,0,B|232:360|120:352,1,180,0|8
152,280,90950,1,0
80,264,91217,2,0,B|112:160|176:88,1,180,0|8
208,160,92021,2,0,B|248:128|304:112,1,90
286,117,92557,5,0
286,117,92825,1,8
286,117,93092,1,0
360,120,93360,2,0,B|360:224|336:320,2,180,0|8|0
360,120,94700,5,0
360,120,94967,1,8
360,120,95235,1,0
296,152,95503,2,0,B|232:232|136:264,1,180,0|8
128,192,96307,1,0
78,244,96575,2,0,B|70:300|118:324,1,90
184,320,97110,5,8
328,320,97646,1,0
208,240,98182,1,8
352,240,98717,2,0,B|392:160,1,90
392,159,99253,5,8
288,64,99789,1,0
208,64,100057,2,0,B|232:128,2,45,0|0|8
152,112,100592,2,0,B|104:136|64:200,1,90
84,170,101128,6,0,B|72:264,2,90,0|8|0
152,200,101932,2,0,B|224:272,2,90,0|0|8
216,160,102735,1,0
216,160,103003,1,0
256,192,103271,12,4,105146
256,192,122289,5,2
256,336,122825,1,2
384,264,123360,1,2
384,192,123628,1,0
384,120,123896,1,2
256,56,124432,5,2
128,120,124967,1,2
128,264,125503,1,2
128,192,125771,1,0
128,120,126039,1,2
248,32,126575,6,0,B|248:144|248:144|352:64|480:160|424:296|344:352|224:264,1,540,2|2
160,168,128717,2,0,B|136:200|128:272,1,90,2|0
64,224,129253,2,0,B|56:296|24:336,1,90,2|0
112,328,129789,2,0,B|232:312|312:248,1,180,2|0
296,200,130592,2,0,B|312:152|344:112,1,90,2|2
192,112,131396,5,2
160,256,131932,2,0,B|208:360,1,90,2|0
256,288,132467,2,0,B|352:312,1,90,0|2
408,272,133003,1,2
392,128,133539,5,2
264,56,134075,2,0,B|152:112,1,90,2|0
160,160,134610,2,0,B|184:264,2,90,0|2|2
16,176,135682,6,0,B|96:240,1,90,2|0
80,304,136217,2,0,B|184:328,1,90,2|0
157,252,136753,1,2
224,272,137021,2,0,B|320:264|432:296,1,180
400,216,137825,6,0,B|320:160,1,90,2|0
256,192,138360,1,2
256,192,138628,1,0
256,192,138896,1,2
256,192,139164,12,0,140503
256,192,140771,5,8
256,192,141039,1,8
256,192,141575,1,6
256,192,148271,12,4,150146
368,96,150682,6,0,B|288:48|192:56,1,180,8|0
88,152,151753,2,0,B|64:264|136:336,1,180,8|0
179,277,152557,2,0,B|267:317,2,90,0|8|0
256,160,153628,2,0,B|360:136,2,90,0|8|0
200,112,154432,5,0
200,112,154700,1,0
200,112,154967,2,0,B|280:64|392:48,1,180,8|0
472,152,156039,2,0,B|408:216|272:240,1,180,8|0
240,232,156842,2,0,B|184:224|120:264,2,90,0|8|0
104,192,157914,2,0,B|168:176|208:136,2,90,0|8|0
80,128,158717,5,0
128,80,158985,1,0
176,32,159253,1,8
288,128,159789,2,0,B|232:128|176:152,2,90,0|0|8
416,192,160860,6,0,B|312:224|200:200,1,180,0|8
104,256,161932,2,0,B|200:280|312:272,1,180,0|8
354,270,162735,2,0,B|418:270|474:238,1,90
456,184,163271,6,0,B|408:176|336:200,1,90,0|8
368,120,163807,2,0,B|280:144|152:128,1,180
189,131,164610,1,8
189,131,164878,1,0
189,131,165146,1,0
256,192,165414,12,4,167289
232,32,167825,6,0,B|216:88|184:136,1,90,8|0
272,120,168360,2,0,B|288:176|320:216,1,90
239,221,168896,2,0,B|231:269|207:317,1,90,8|0
144,328,169432,2,0,B|104:248|104:136,1,180,0|8
48,112,170235,1,0
112,80,170503,6,0,B|152:136|296:136,1,180,0|8
304,72,171307,1,0
352,128,171575,2,0,B|320:216|320:320,1,180,0|8
392,296,172378,2,0,B|432:328,2,45
448,248,172914,2,0,B|472:152,1,90,0|8
473,88,173450,2,0,B|281:144,1,180
340,198,174253,6,0,B|292:238|236:238,1,90,8|0
205,284,174789,1,0
144,248,175057,1,0
192,192,175325,1,8
120,176,175593,2,0,B|32:200|-24:88|56:40,1,180
90,102,176396,5,8
111,33,176664,2,0,B|175:49|159:121,1,90
233,84,177200,2,0,B|241:140|177:172,2,90,0|8|0
304,72,178003,2,0,B|400:40|472:104,3,180,0|8|0|8
488,176,179878,2,0,B|432:248,1,90
384,192,180414,6,0,B|288:240,1,90,0|8
328,304,180950,2,0,B|216:312|128:256,1,180
192,208,181753,1,8
120,200,182021,2,0,B|96:152|96:88,1,90
256,192,182557,12,4,184432
256,192,201575,5,2
112,192,202110,1,2
200,80,202646,1,2
256,128,202914,1,0
312,80,203182,1,2
368,128,203450,1,0
424,80,203718,5,2
440,224,204253,1,2
312,280,204789,1,2
256,232,205057,1,0
200,280,205325,1,2
144,232,205593,1,0
88,280,205860,5,2
88,136,206396,1,2
232,136,206932,1,2
184,80,207200,1,0
232,24,207468,1,2
280,80,207735,1,0
232,136,208003,5,2
376,136,208539,1,2
232,136,209075,1,2
184,184,209343,1,0
232,232,209610,1,2
280,184,209878,1,0
232,136,210146,5,2
368,88,210682,1,2
456,200,211218,1,2
456,200,211485,2,0,B|456:320,1,90,0|2
392,248,212021,2,0,B|392:128,1,90,0|2
256,192,212825,5,2
112,200,213360,1,2
112,200,213628,2,0,B|112:104,1,90,0|2
176,144,214164,2,0,B|176:232,1,90,0|2
232,272,214700,5,0
304,272,214968,1,2
272,208,215235,1,0
344,208,215503,1,2
312,144,215771,1,0
384,144,216039,1,2
352,80,216307,1,0
296,32,216575,6,0,B|176:32,1,90,2|0
144,72,217110,2,0,B|144:176,1,90,2|0
216,176,217646,2,0,B|320:176,1,90,2|0
360,128,218182,1,2
291,105,218450,2,0,B|316:24|460:20|480:180|364:204|364:204|364:264,1,360
364,321,220860,5,6
