osu file format v9

[General]
AudioFilename: Owl City - The Saltwater Room.mp3
AudioLeadIn: 0
PreviewTime: 88415
Countdown: 0
SampleSet: Soft
StackLeniency: 0.7
Mode: 0
LetterboxInBreaks: 1

[Editor]
DistanceSpacing: 0.9
BeatDivisor: 4
GridSize: 8

[Metadata]
Title:The Saltwater Room
Artist:Owl City ft. Breanne Duren
Creator:JauiPlaY
Version:Hard
Source:
Tags:ocean eyes

[Difficulty]
HPDrainRate:7
CircleSize:4
OverallDifficulty:7
ApproachRate:7
SliderMultiplier:2.4
SliderTickRate:1

[Events]
//Background and Video events
0,0,"BG.jpg"
//Break Periods
2,105346,121389
2,141775,147371
//Storyboard Layer 0 (Background)
//Storyboard Layer 1 (Fail)
//Storyboard Layer 2 (Pass)
//Storyboard Layer 3 (Foreground)
//Storyboard Sound Samples
//Background Colour Transformations
3,100,163,162,255

[TimingPoints]
8718,535.714285714286,4,2,0,30,1,0
17155,-100,4,2,0,90,0,0
17423,-100,4,2,0,100,0,0
43405,-200,4,2,0,100,0,0
44744,-100,4,2,0,100,0,0
45548,-200,4,2,0,100,0,0
46887,-100,4,2,0,100,0,0
73003,-200,4,2,0,100,0,0
74610,-100,4,2,0,100,0,0
87066,-100,4,2,0,30,0,0
87869,-100,4,2,0,100,0,0
88004,-100,4,2,0,100,0,1
88137,-100,4,2,0,70,0,1
103137,-100,4,2,0,100,0,0
126508,-200,4,2,0,100,0,0
128249,-100,4,2,0,100,0,0
140637,-100,4,2,0,30,0,0
141441,-100,4,2,2,100,0,0
141709,-100,4,2,0,100,0,0
150147,-100,4,2,0,100,0,1
150280,-100,4,2,0,70,0,1
165280,-100,4,2,0,100,0,0
167289,-100,4,2,0,100,0,1
167423,-100,4,2,0,70,0,1
180816,-200,4,2,0,70,0,1
182423,-100,4,2,0,70,0,0
184422,-100,4,2,0,100,0,1
184499,-100,4,2,0,100,0,0
218316,-200,4,2,0,100,0,0
220726,-100,4,2,2,100,0,0

[Colours]
Combo1 : 180,125,223
Combo2 : 255,128,255
Combo3 : 128,255,255
Combo4 : 43,52,121
Combo5 : 128,0,255

[HitObjects]
256,192,16485,1,8
256,192,16753,1,8
256,192,17289,1,4
424,56,17825,6,0,B|336:16|280:120|352:200|464:128,1,240,0|2
352,232,18628,1,0
432,304,18896,2,0,B|304:320,1,120
208,320,19432,1,2
208,264,19566,1,0
208,208,19700,2,0,B|136:216|112:136,1,120
184,64,20235,1,0
288,64,20503,5,2
344,64,20637,1,0
400,64,20771,2,0,B|400:184,1,120
400,184,21307,1,0
456,272,21575,2,0,B|320:288|208:240,1,240,2|0
128,184,22378,2,0,B|192:168|256:184,1,120,0|2
160,248,22914,2,0,B|80:248|32:216,1,120
88,120,23450,5,0
144,24,23718,2,0,B|176:88|248:104,1,120,2|0
152,168,24253,2,0,B|208:184|256:248,1,120
160,304,24789,2,0,B|288:328|416:280,1,240,2|0
304,224,25593,1,2
304,224,25860,1,2
152,64,26396,5,0
152,64,26664,2,0,B|96:176,1,120,0|2
200,136,27200,2,0,B|184:256,1,120
264,184,27735,1,0
296,80,28003,2,0,B|352:192|376:320,1,240,2|0
424,208,28807,1,0
384,104,29075,2,0,B|448:128|504:184,2,120,2|0|0
384,104,29878,1,2
384,104,30146,1,2
168,64,30682,6,0,B|144:136|160:216,1,120
144,288,31218,1,2
248,328,31485,1,0
232,224,31753,1,0
312,160,32021,1,0
360,128,32155,1,0
416,120,32289,2,0,B|440:184|432:248,1,120,2|0
328,264,32825,2,0,B|264:296|160:264,1,120
136,200,33360,2,0,B|104:120|136:56,1,120,2|0
232,64,33896,5,2
288,64,34030,1,0
344,64,34164,1,0
400,64,34298,1,0
456,64,34432,1,2
416,160,34700,5,0
392,264,34968,1,2
312,192,35235,1,0
312,192,35771,1,0
392,264,36039,1,2
416,160,36307,1,0
344,80,36575,5,0
208,152,36843,1,0
240,304,37110,1,2
392,352,37378,1,0
80,328,37914,5,0
24,128,38182,1,2
208,40,38450,1,0
344,88,38718,6,0,B|256:152|256:152|248:240|304:272,1,240,2|0
368,184,39521,1,0
440,104,39789,2,0,B|496:168|456:240|456:240|352:304,1,240,2|0
272,328,40593,1,0
216,336,40726,1,0
160,328,40860,6,0,B|96:312|48:256,1,120,2|0
152,216,41396,2,0,B|96:184|64:112,1,120
152,56,41932,2,0,B|216:24|280:64,2,120,2|0|0
152,56,42735,1,2
152,56,43003,1,2
240,120,43271,5,0
352,128,43539,2,0,B|304:56|408:-40|520:72|432:152,1,240,2|0
408,208,44878,1,2
408,208,45146,1,2
408,208,45414,1,0
304,240,45682,2,0,B|344:328|216:368|152:280|224:216,1,240,2|0
224,128,47021,1,2
128,80,47289,1,2
64,168,47557,5,0
64,280,47825,2,0,B|136:184,1,120
240,208,48360,2,0,B|184:336,1,120,2|0
304,328,48896,1,0
360,320,49030,1,0
408,296,49164,2,0,B|472:192|472:48,1,240,2|2
368,40,49968,6,0,B|296:56|248:128,1,120
376,128,50503,2,0,B|328:192|256:192,1,120,2|2
184,240,51039,2,0,B|248:264|344:256,1,120
216,328,51575,2,0,B|88:312|0:192,1,240,2|0
40,104,52378,1,0
96,104,52512,1,0
152,104,52646,2,0,B|208:152|280:168,1,120,2|0
368,152,53182,2,0,B|312:104|240:80,1,120
376,72,53718,2,0,B|440:112|480:176,1,120,2|0
480,256,54253,6,0,B|416:232|352:264,1,120
192,80,55057,2,0,B|256:96|312:176,1,120
240,248,55593,1,0
184,248,55726,1,0
144,288,55860,2,0,B|32:208,1,120,2|0
80,112,56396,2,0,B|160:224,1,120
240,144,56932,1,2
288,176,57066,1,0
336,144,57200,1,0
256,72,57468,5,0
360,64,57735,1,0
392,168,58003,1,2
440,72,58271,1,0
464,120,58405,1,0
504,160,58539,2,0,B|512:224|504:288,1,120
400,312,59075,5,2
344,312,59209,1,0
288,312,59343,1,0
232,312,59476,1,0
176,312,59610,1,0
72,288,59878,2,0,B|128:248|152:192,1,120,2|2
64,136,60414,5,0
64,136,60548,1,0
64,136,60682,2,0,B|184:56,1,120
264,40,61218,2,0,B|216:152,1,120,2|0
216,150,61753,1,0
120,200,62021,2,0,B|200:280|360:304,1,240,2|2
440,272,62825,2,0,B|376:224|288:224,1,120
376,128,63360,6,0,B|408:176|504:216,2,120,2|0|0
464,64,64164,2,0,B|400:32|304:32,1,120,2|2
256,96,64700,1,0
216,136,64834,1,0
176,176,64968,1,0
272,216,65235,5,0
200,296,65503,2,0,B|72:336,1,120,2|0
16,248,66039,1,0
72,152,66307,2,0,B|104:88|176:48,1,120,2|0
256,32,66843,1,0
216,184,67110,1,2
352,112,67378,1,0
312,264,67646,1,2
216,312,67914,5,0
184,312,68048,1,0
152,312,68182,1,2
120,312,68316,1,0
88,312,68450,1,0
56,312,68584,1,2
24,312,68718,1,2
48,208,68985,5,0
96,112,69253,2,0,B|96:184|176:224,1,120
208,120,69789,1,2
312,104,70057,2,0,B|328:160,1,60
280,184,70325,2,0,B|280:256,1,60
224,232,70593,2,0,B|176:312,1,60
240,312,70860,2,0,B|312:320|376:272,1,120,2|0
440,216,71396,5,0
480,120,71664,2,0,B|416:88|328:72,1,120,0|2
264,48,72200,2,0,B|176:64,1,60
176,104,72468,2,0,B|104:168,1,60
144,200,72735,2,0,B|96:256,1,60
128,296,73003,2,0,B|344:360|280:176|496:248,1,360,2|0
424,136,74878,5,0
368,136,75012,1,0
312,136,75146,2,0,B|256:184|192:192,1,120,2|0
96,168,75682,2,0,B|144:136|224:112,1,120
264,32,76217,2,0,B|144:32|0:136,1,240,2|0
39,108,77021,1,2
39,108,77289,1,2
200,256,77825,6,0,B|320:192,1,120
408,224,78360,2,0,B|296:280,2,120,2|0|0
352,128,79164,2,0,B|288:96|216:88,1,120,2|2
144,152,79700,1,0
144,208,79834,1,0
144,264,79967,2,0,B|288:264,1,120
360,208,80503,2,0,B|232:208,2,120,2|0|0
272,144,81307,2,0,B|312:88|376:48,1,120,2|2
464,80,81842,5,0
464,136,81976,1,0
464,192,82110,2,0,B|456:248|392:296,1,120
296,320,82646,2,0,B|224:296|192:216,2,120,2|0|0
336,216,83450,2,0,B|256:128|136:48,1,240,2|2
154,60,84119,1,0
154,60,84253,1,2
48,176,84521,5,0
128,312,84789,1,2
280,272,85057,1,0
288,120,85325,1,2
256,192,85592,12,0,86932
256,192,87200,5,8
256,192,87467,1,8
256,192,88003,1,4
88,56,88539,6,0,B|56:120|48:184,1,120,8|0
144,120,89075,2,0,B|112:192|120:248,1,120
208,304,89610,1,8
208,304,89744,1,0
208,304,89878,1,0
280,224,90146,2,0,B|280:152|264:104,1,120
344,32,90682,2,0,B|400:144|376:272,2,240,8|0|8
296,128,92021,2,0,B|248:152|200:224,1,120
168,112,92557,5,0
112,112,92691,1,0
56,112,92825,1,8
104,208,93092,2,0,B|88:280|184:320,1,120
264,304,93628,2,0,B|312:248|392:240,1,120,0|8
365,244,94164,2,0,B|416:144|376:8,1,240
304,88,94967,5,8
256,184,95235,2,0,B|232:112,2,60
160,136,95771,2,0,B|96:96|80:16,1,120,0|8
87,43,96307,2,0,B|48:152|80:280,1,240,0|0
184,312,97110,5,8
336,288,97378,1,0
440,168,97646,1,0
408,16,97914,1,0
312,72,98182,5,8
256,72,98316,1,0
200,72,98450,1,0
168,176,98717,2,0,B|96:160|88:96,2,120,0|0|8
256,240,99521,1,0
312,240,99655,1,0
368,240,99789,1,0
424,240,99923,1,0
480,240,100057,1,0
456,136,100325,2,0,B|464:64|384:40,1,120,8|0
288,72,100860,5,0
264,120,100994,1,0
216,144,101128,2,0,B|152:160|120:224,1,120,0|8
224,264,101664,1,0
256,312,101798,1,0
312,320,101932,2,0,B|352:272|352:192,1,120
416,296,102467,1,8
440,192,102735,2,0,B|488:232|512:304,1,120
256,192,103271,12,4,105146
256,192,122289,5,2
352,232,122557,1,0
312,272,122691,1,0
272,312,122825,1,2
168,296,123092,2,0,B|96:336|128:232|48:272,1,120,0|2
96,160,123628,1,0
136,120,123762,1,0
176,80,123896,1,2
280,64,124164,2,0,B|248:152|384:72|352:160,1,120,0|2
464,104,124700,6,0,B|528:168|384:168|456:240,1,120,0|2
336,248,125235,1,0
280,248,125369,1,0
224,248,125503,1,2
168,152,125771,1,0
184,128,125905,1,0
208,112,126039,1,2
240,104,126173,1,0
272,112,126307,1,0
296,128,126441,1,2
320,152,126575,6,0,B|256:272|400:360|520:232|416:136,1,360,0|0
352,56,128450,2,0,B|304:16|216:8,1,120,0|2
288,112,128985,2,0,B|241:91|169:99,1,120
232,192,129521,1,0
232,192,129789,1,2
176,288,130057,2,0,B|120:248|112:176,1,120
64,88,130592,2,0,B|32:144|24:216,1,120,2|2
136,192,131128,5,0
208,112,131396,1,0
280,200,131664,1,0
200,280,131932,1,2
72,296,132200,5,0
40,152,132467,1,0
152,48,132735,1,2
312,96,133003,1,2
416,232,133271,5,0
304,336,133539,1,0
168,280,133807,1,0
216,160,134075,1,2
336,168,134342,5,0
272,256,134610,1,0
176,216,134878,2,0,B|120:192|88:128,1,120,2|2
160,56,135414,5,0
216,56,135548,1,0
272,56,135682,2,0,B|400:72,1,120
296,128,136217,2,0,B|416:176,2,120,2|0|0
192,160,137021,2,0,B|312:192|424:272,1,240,2|2
304,288,137825,1,0
248,288,137959,1,0
192,288,138092,1,0
96,248,138360,2,0,B|56:288|8:232|40:176|112:192,2,120,2|0|0
256,192,139164,12,0,140503
256,192,140771,5,8
256,192,141039,1,8
256,192,141575,1,6
256,192,148271,12,4,150146
256,192,150682,5,8
264,88,150950,2,0,B|312:136|368:144,1,120
344,40,151485,1,0
448,64,151753,2,0,B|488:112|488:184,1,120,8|0
408,248,152289,2,0,B|296:304|176:304,3,240,0|8|0|8
176,304,154164,1,0
176,304,154298,1,0
176,304,154432,1,0
80,248,154700,6,0,B|48:184|64:120,1,120,0|8
144,64,155235,2,0,B|176:112|160:200,1,120
232,96,155771,2,0,B|272:48|360:48,1,120,0|8
448,40,156307,2,0,B|496:192|352:112|400:272,1,240
395,254,157110,1,8
288,256,157378,5,0
256,256,157512,1,0
224,256,157646,1,0
192,256,157780,1,0
160,256,157914,1,8
128,256,158048,1,0
96,256,158182,1,8
32,168,158450,2,0,B|-32:64|128:0|168:112|128:168,1,240
184,24,159253,6,0,B|248:80|216:168,1,120,8|0
320,72,159789,2,0,B|328:144|264:192,1,120
384,168,160325,2,0,B|352:248|272:272,1,120,8|0
208,288,160860,2,0,B|128:288|128:288|88:216|24:224|-8:328,2,240,0|8|0
184,184,162200,1,0
240,184,162334,1,0
296,184,162467,1,8
336,280,162735,2,0,B|376:240|392:168,1,120
448,80,163271,6,0,B|368:104|424:16|336:40,1,120,0|8
248,72,163807,2,0,B|208:8|176:136|136:80,1,120
72,168,164342,1,0
72,168,164476,1,0
72,168,164610,1,8
128,264,164878,2,0,B|176:296|248:280,1,120
256,192,165414,12,4,167289
256,192,167825,6,0,B|384:192,1,120,8|0
464,128,168360,2,0,B|336:128,1,120
232,128,168896,1,8
176,128,169030,1,0
120,128,169164,1,0
64,224,169432,2,0,B|40:328|240:336|192:200,2,240,0|8|0
120,128,170771,2,0,B|48:128,2,60,0|0|8
184,40,171307,2,0,B|336:40,1,120
416,40,171842,5,0
368,56,171976,1,0
408,88,172110,1,8
320,144,172378,1,0
288,104,172512,1,0
264,152,172646,1,0
184,80,172914,5,0
128,88,173048,1,0
104,136,173182,1,8
128,184,173316,1,0
176,208,173450,2,0,B|272:248|216:376|80:336|112:216,1,240
24,200,174253,2,0,B|0:64,2,120,8|0|0
96,120,175057,2,0,B|208:40,1,120,0|8
296,80,175593,2,0,B|448:88|480:232,1,240
368,216,176396,5,8
280,280,176664,1,0
384,304,176932,1,0
280,280,177200,1,0
328,376,177468,1,8
280,280,177735,1,0
176,256,178003,2,0,B|120:296|32:312,1,120
88,200,178539,2,0,B|136:152|224:136,1,120,8|0
296,168,179075,2,0,B|232:176|176:208,2,120,0|0|8
368,88,179878,5,0
416,104,180012,1,0
432,152,180146,1,0
392,256,180414,2,0,B|256:288,1,120,0|8
184,232,180950,2,0,B|88:280|32:136|136:64|224:120|216:192,1,300
256,192,182557,12,4,184432
256,192,184700,5,2
256,248,184834,1,0
352,192,185101,1,0
352,136,185235,1,2
256,80,185503,1,0
144,80,185771,1,2
144,136,185905,1,0
48,192,186173,1,2
48,136,186307,1,0
48,248,186575,5,0
160,248,186843,1,2
200,208,186976,1,0
312,208,187244,1,0
272,248,187378,1,2
272,136,187646,1,0
352,64,187914,1,2
392,104,188048,1,0
392,216,188316,1,0
432,256,188450,2,0,B|432:328,2,60,2|0|0
480,160,188985,6,0,B|480:88,1,60,2|0
392,160,189387,2,0,B|328:160,1,60,0|2
224,160,189789,1,0
304,232,190057,2,0,B|304:312,1,60,2|0
200,264,190459,2,0,B|128:264,1,60,0|2
64,192,190860,6,0,B|72:128|112:80,1,120,0|2
109,82,191262,1,0
208,48,191530,2,0,B|256:96,1,60,0|2
336,128,191932,2,0,B|288:176,1,60,2|0
328,216,192200,2,0,B|280:264,1,60,2|0
240,224,192468,2,0,B|192:272,3,60,2|0|2|0
176,312,193003,5,2
120,304,193137,1,0
72,280,193271,1,0
32,248,193405,1,0
16,200,193539,1,2
32,152,193673,1,0
72,120,193807,1,0
120,104,193941,1,0
176,96,194075,2,0,B|224:144,3,60,2|0|0|0
224,192,194610,2,0,B|272:240,3,60,2|0|0|0
272,288,195146,5,2
328,280,195280,1,0
376,256,195414,1,0
416,224,195548,1,0
432,176,195682,1,2
416,128,195816,1,0
376,96,195950,1,0
328,72,196084,1,0
272,64,196218,2,0,B|224:112,3,60,2|0|0|0
224,160,196753,2,0,B|176:208,3,60,2|0|0|0
176,256,197289,6,0,B|136:312|64:312,1,120,2|0
32,280,197691,1,0
56,232,197825,2,0,B|48:176|96:120,1,120,2|0
112,72,198226,1,0
160,48,198360,2,0,B|176:112,3,60,2|0|0|0
176,160,198896,2,0,B|240:184,3,60,2|0|0|0
256,128,199432,5,2
328,48,199700,1,2
352,152,199968,1,2
448,200,200235,1,2
360,264,200503,1,2
256,256,200771,2,0,B|232:320,2,60,2|0|2
184,176,201307,1,2
80,208,201575,1,2
112,104,201843,6,0,B|176:80|240:80,1,120,0|2
312,152,202378,2,0,B|376:152|448:176,1,120,0|2
416,280,202914,1,0
360,280,203048,1,0
304,280,203182,1,2
304,280,203450,2,0,B|240:264|192:224,1,120,0|2
120,296,203985,2,0,B|80:248|72:168,1,120,0|2
96,80,204521,1,0
192,136,204789,1,2
200,32,205057,1,0
192,136,205325,5,2
296,112,205593,2,0,B|320:176|384:208,1,120,2|2
272,248,206128,2,0,B|312:312,2,60,0|0|2
168,232,206664,1,0
64,272,206932,1,2
80,168,207200,1,0
168,232,207468,1,2
248,160,207735,2,0,B|304:120|344:56,3,120,0|2|0|2
432,32,208807,2,0,B|488:152|424:288,1,240,2|2
368,184,209610,2,0,B|360:248|312:296,2,120,2|2|2
320,88,210414,5,0
264,88,210548,1,0
208,88,210682,1,2
112,128,210950,2,0,B|104:200|144:240,1,120,0|2
40,208,211485,2,0,B|56:280|112:312,1,120,0|2
208,304,212021,1,0
208,304,212289,2,0,B|240:200|360:216|376:304,3,240,2|2|2|2
472,256,214164,2,0,B|448:192|392:160,1,120,2|2
344,72,214700,5,0
344,72,214968,2,0,B|256:152,1,120,2|0
256,264,215503,1,2
256,264,215771,2,0,B|168:184,1,120,0|2
64,208,216307,2,0,B|32:152|56:80,1,120,0|2
248,336,217110,1,2
448,96,217646,1,2
144,48,218182,1,2
216,128,218450,2,0,B|168:24|272:-48|376:-16|400:72|392:152|288:168|288:168|288:248,1,480,0|2
288,336,220860,5,6
