osu file format v9

[General]
AudioFilename: Owl City - The Saltwater Room.mp3
AudioLeadIn: 0
PreviewTime: 88415
Countdown: 0
SampleSet: Soft
StackLeniency: 0.7
Mode: 0
LetterboxInBreaks: 1

[Editor]
DistanceSpacing: 1
BeatDivisor: 2
GridSize: 8

[Metadata]
Title:The Saltwater Room
Artist:Owl City ft. Breanne Duren
Creator:JauiPlaY
Version:Easy
Source:
Tags:ocean eyes

[Difficulty]
HPDrainRate:2
CircleSize:3
OverallDifficulty:1
ApproachRate:2
SliderMultiplier:1.2
SliderTickRate:1

[Events]
//Background and Video events
0,0,"BG.jpg"
//Break Periods
2,105346,120729
2,141775,148586
2,184632,200015
//Storyboard Layer 0 (Background)
//Storyboard Layer 1 (Fail)
//Storyboard Layer 2 (Pass)
//Storyboard Layer 3 (Foreground)
//Storyboard Sound Samples
//Background Colour Transformations
3,100,163,162,255

[TimingPoints]
8718,535.714285714286,4,2,0,100,1,0
17155,-100,4,2,0,90,0,0
17423,-100,4,2,0,100,0,0
87401,-100,4,2,0,30,0,0
87534,-100,4,2,0,100,0,0
88004,-100,4,2,0,100,0,1
88137,-100,4,2,0,70,0,1
103137,-100,4,2,0,100,0,0
140972,-100,4,2,0,30,0,0
141106,-100,4,2,0,100,0,0
141435,-100,4,2,2,100,0,0
141709,-100,4,2,0,100,0,0
150147,-100,4,2,0,100,0,1
150280,-100,4,2,0,70,0,1
167155,-100,4,2,0,100,0,0
167289,-100,4,2,0,100,0,1
167423,-100,4,2,0,70,0,1
182423,-100,4,2,0,100,0,0
184422,-100,4,2,0,100,0,1
184499,-100,4,2,0,100,0,0
220726,-100,4,2,2,100,0,0

[Colours]
Combo1 : 180,125,223
Combo2 : 255,128,255
Combo3 : 128,255,255
Combo4 : 43,52,121
Combo5 : 128,0,255

[HitObjects]
256,192,17289,1,4
256,72,17825,2,0,B|392:72,1,120,0|2
448,168,18896,2,0,B|448:312,1,120,0|2
328,312,19967,2,0,B|184:312,1,120,0|2
280,216,21039,5,0
320,104,21575,2,0,B|64:-16|256:264|0:144,1,360,2|2
56,264,23717,6,0,B|184:264,1,120,2|0
264,176,24789,1,2
344,264,25325,2,0,B|424:264,2,60,0|2|2
392,152,26396,6,0,B|368:88|296:72,1,120,0|2
200,128,27467,2,0,B|136:136|104:200,2,120,0|2|0
224,248,29075,2,0,B|232:344|384:344|392:240,1,240,2|2
432,136,30682,5,0
312,136,31217,1,2
192,136,31753,1,0
80,104,32289,6,0,B|32:152|72:232,1,120,2|0
144,312,33360,2,0,B|192:360|272:320,2,120
177,194,34967,6,0,B|192:136,1,60,2|0
304,96,35771,2,0,B|362:81,2,60,0|2|0
280,216,36842,2,0,B|265:274,2,60,0|2|0
368,296,37914,2,0,B|448:296,1,60,0|2
432,184,38717,6,0,B|336:56|200:192|104:64,1,360,2|2
64,184,40860,1,0
160,256,41396,2,0,B|288:256,1,120,2|0
400,240,42467,2,0,B|400:304,2,60,2|2|2
424,120,43539,6,0,B|328:48|168:48|64:136,1,360,2|2
88,240,45682,2,0,B|184:312|344:312|448:224,1,360,2|2
384,128,47825,5,2
264,144,48360,2,0,B|216:216,2,60,2|0|0
192,48,49432,2,0,B|128:64|96:144,1,120,2|0
112,248,50503,2,0,B|144:312|224:328,2,120,2|0|2
216,192,52110,6,0,B|288:192,1,60,0|2
352,104,52914,2,0,B|328:40,2,60,2|0|2
232,88,53985,2,0,B|160:48,2,60,0|2|0
128,152,55057,2,0,B|56:152,1,60,2|2
136,248,55860,6,0,B|72:344|256:384|408:336|336:240,1,360,2|0
464,240,58003,1,2
456,120,58539,2,0,B|408:80|344:56,1,120,0|2
256,128,59610,2,0,B|208:64,2,60,0|2|2
136,120,60682,6,0,B|80:160|72:240,1,120,0|2
184,264,61753,2,0,B|232:304|312:296,1,120,0|2
400,232,62825,1,0
360,120,63360,2,0,B|304:160,2,60,2|0|0
248,88,64432,6,0,B|120:88,1,120,2|0
72,192,65503,2,0,B|200:192,1,120,2|0
224,304,66575,1,2
280,304,66843,5,0
336,304,67110,1,0
344,184,67646,2,0,B|400:232|480:200,2,120,2|0|2
416,88,69253,6,0,B|272:88,1,120,0|2
176,88,70325,1,0
104,184,70860,1,2
160,288,71396,1,0
272,328,71932,5,2
384,280,72468,1,0
432,168,73003,2,0,B|464:32|264:0|216:168|328:216,1,360,2|2
224,288,75146,6,0,B|128:192,1,120,2|0
120,88,76218,1,2
240,72,76753,2,0,B|200:136,2,60,0|2|2
352,40,77825,6,0,B|208:232|464:168|312:368,1,360,2|2
200,360,79968,2,0,B|56:168|312:232|160:32,1,360,2|2
280,80,82110,5,0
400,104,82646,1,2
448,216,83182,1,0
360,304,83718,6,0,B|304:320|224:328,1,120,2|0
152,248,84789,2,0,B|208:208|272:176,1,120,2|0
296,72,85860,6,0,B|408:128|480:264,1,240,2|0
352,264,87468,1,8
256,192,88003,1,4
200,296,88539,6,0,B|128:288|80:248,1,120,8|0
144,144,89610,2,0,B|96:96,2,60,8|0|0
248,80,90682,2,0,B|320:64|392:96,1,120,8|0
408,200,91753,2,0,B|456:144,2,60,8|0|0
304,256,92825,6,0,B|344:304,2,60,8|0|0
328,136,93896,2,0,B|280:88|200:72,1,120,8|0
112,120,94968,2,0,B|72:176,2,60,8|0|0
152,232,96039,2,0,B|184:288|256:320,1,120,8|0
360,296,97110,5,8
448,216,97646,1,0
432,96,98182,1,8
320,128,98718,2,0,B|248:128|192:168,3,120,0|8|0|8
88,128,100860,5,0
88,184,101128,1,0
88,240,101396,1,8
200,288,101932,2,0,B|272:296|336:272,2,120,0|8|0
256,192,103271,12,4,105146
256,192,122289,5,2
304,80,122825,2,0,B|360:104,2,60,2|0|2
184,104,123896,1,2
144,216,124432,5,2
232,296,124968,2,0,B|176:352,2,60,2|0|2
352,272,126039,1,2
384,160,126575,2,0,B|216:24|224:224|40:88,1,360,2|0
72,216,128718,6,0,B|112:280|192:296,1,120,2|2
248,200,129789,1,2
336,280,130325,2,0,B|384:320,2,60,2|2|2
400,176,131396,6,0,B|248:32|216:200|56:48,1,360,2|2
32,176,133539,2,0,B|184:320|216:152|376:304,1,360,2|2
480,280,135682,6,0,B|520:224|504:168,1,120,2|2
456,56,136753,2,0,B|400:104|416:184,2,120,2|2|2
336,72,138360,1,2
336,72,138896,1,2
224,24,139432,6,0,B|176:128|48:192,1,240,2|0
152,256,141039,1,8
256,192,141575,1,6
256,192,150146,5,4
344,112,150682,2,0,B|312:40,2,60,8|0|0
400,216,151753,2,0,B|432:160,2,60,8|0|0
328,312,152825,1,8
208,288,153360,5,0
112,216,153896,1,8
64,104,154432,1,0
176,56,154967,6,0,B|248:56,2,60,8|0|0
256,144,156039,2,0,B|304:192,2,60,8|0|0
224,264,157110,2,0,B|160:288|80:280,2,120,8|0|8
144,176,158717,5,0
144,120,158985,1,0
144,64,159253,1,8
264,80,159789,6,0,B|392:152,1,120,0|8
448,232,160860,2,0,B|320:304,2,120,0|8|0
472,112,162467,2,0,B|464:48,2,60,8|0|0
352,112,163539,6,0,B|280:120|232:168,1,120,8|0
136,208,164610,2,0,B|80:152,2,60,8|0|0
216,296,165682,2,0,B|272:344|352:312,1,120,8|0
440,280,166753,2,0,B|488:224|456:144,1,120,8|4
384,80,167825,5,8
384,80,168360,1,0
384,80,168896,2,0,B|288:168,1,120,8|0
304,280,169967,5,8
304,280,170503,1,0
304,280,171039,2,0,B|192:216,1,120,8|0
80,248,172110,6,0,B|32:88|216:224|160:56,1,240,8|8
280,48,173717,1,0
376,120,174253,2,0,B|424:280|240:144|296:312,1,240,8|8
208,216,175860,1,0
264,112,176396,6,0,B|224:48,2,60,8|0|0
384,160,177467,2,0,B|440:112,2,60,8|0|0
336,272,178539,2,0,B|240:240|312:320|216:288,2,120,8|0|8
240,200,180146,6,0,B|168:216|104:168,1,120,0|8
40,96,181217,2,0,B|96:56|168:56,1,120,0|8
264,96,182289,1,0
256,192,182557,12,4,184432
256,192,201575,5,2
168,112,202110,2,0,B|208:48|240:96|280:32,1,120,2|2
368,112,203182,2,0,B|408:168,2,60,2|0|2
344,232,204253,6,0,B|384:272|280:304|320:344,1,120,2|2
208,272,205325,2,0,B|144:232,2,60,2|0|2
200,152,206396,6,0,B|232:96|288:56,1,120,2|2
384,120,207467,1,2
384,176,207735,1,0
384,232,208003,1,2
288,304,208539,6,0,B|232:280|152:288,1,120,2|2
56,248,209610,1,2
56,192,209878,1,0
56,136,210146,1,2
152,64,210682,6,0,B|184:128|264:144,3,120,2|2|2|2
328,56,212825,2,0,B|392:72|432:144,3,120,2|2|2|2
448,240,214967,6,0,B|336:328|320:184|208:272,1,240,2|2
104,256,216575,1,2
64,144,217110,2,0,B|176:232|192:88|304:176,1,240,2|2
384,96,218717,2,0,B|400:8|520:0|576:120|456:184|456:184|456:264,1,360,2|2
456,360,220860,5,6
