osu file format v14

[General]
AudioFilename: You're not alone.mp3
AudioLeadIn: 2000
PreviewTime: 44775
Countdown: 0
SampleSet: Soft
StackLeniency: 0.7
Mode: 0
LetterboxInBreaks: 0
WidescreenStoryboard: 0

[Editor]
DistanceSpacing: 1
BeatDivisor: 8
GridSize: 4
TimelineZoom: 1

[Metadata]
Title:You're Not Alone Feat. Britt Nicole
TitleUnicode:You're Not Alone Feat. Britt Nicole
Artist:Owl City
ArtistUnicode:Owl City
Creator:mancuso_JM_
Version:Normal
Source:
Tags:Adam Young Brittany Waddell mancusojuanmattos
BeatmapID:661609
BeatmapSetID:294251

[Difficulty]
HPDrainRate:4
CircleSize:3.5
OverallDifficulty:4
ApproachRate:5
SliderMultiplier:1.6
SliderTickRate:2

[Events]
//Background and Video events
0,0,"You're not alone.jpg",0,0
//Break Periods
2,80332,90361
2,183190,191432
//Storyboard Layer 0 (Background)
//Storyboard Layer 1 (Fail)
//Storyboard Layer 2 (Pass)
//Storyboard Layer 3 (Foreground)
//Storyboard Sound Samples

[TimingPoints]
133,714.285714285714,4,2,0,45,1,0
2990,-100,4,2,0,55,0,0
3079,-100,4,2,0,45,0,0
5847,-100,4,2,0,55,0,0
5936,-100,4,2,0,45,0,0
11561,-100,4,2,0,55,0,0
11650,-100,4,2,0,45,0,0
14418,-100,4,2,0,55,0,0
14507,-100,4,2,0,45,0,0
17275,-100,4,2,0,55,0,0
17365,-100,4,2,0,45,0,0
20132,-100,4,2,0,55,0,0
20222,-100,4,2,0,45,0,0
22990,-83.3333333333333,4,2,0,55,0,0
24061,-83.3333333333333,4,2,0,45,0,0
24150,-83.3333333333333,4,2,0,55,0,0
26918,-83.3333333333333,4,2,0,45,0,0
27275,-83.3333333333333,4,2,0,55,0,0
29775,-83.3333333333333,4,2,0,45,0,0
30132,-83.3333333333333,4,2,0,55,0,0
31918,-83.3333333333333,4,2,0,45,0,0
32097,-83.3333333333333,4,2,0,55,0,0
32632,-83.3333333333333,4,2,0,45,0,0
33436,-83.3333333333333,4,2,0,55,0,0
35490,-83.3333333333333,4,2,0,45,0,0
35847,-83.3333333333333,4,2,0,55,0,0
38347,-83.3333333333333,4,2,0,45,0,0
38704,-83.3333333333333,4,2,0,55,0,0
41204,-83.3333333333333,4,2,0,45,0,0
41561,-83.3333333333333,4,2,0,55,0,0
43347,-83.3333333333333,4,2,0,45,0,0
43704,-83.3333333333333,4,2,0,55,0,0
44061,-83.3333333333333,4,2,0,45,0,0
45847,-83.3333333333333,4,2,0,65,0,1
55490,-83.3333333333333,4,2,0,55,0,1
56293,-83.3333333333333,4,2,0,65,0,1
56918,-83.3333333333333,4,2,0,55,0,1
57275,-83.3333333333333,4,2,0,65,0,1
66918,-83.3333333333333,4,2,0,55,0,1
67722,-83.3333333333333,4,2,0,65,0,1
68347,-83.3333333333333,4,2,0,55,0,1
68704,-83.3333333333333,4,2,0,65,0,1
69775,-83.3333333333333,4,2,0,55,0,1
69865,-83.3333333333333,4,2,0,65,0,1
70490,-83.3333333333333,4,2,0,55,0,1
70847,-83.3333333333333,4,2,0,65,0,1
72097,-83.3333333333333,4,2,0,55,0,1
72186,-83.3333333333333,4,2,0,65,0,1
72632,-83.3333333333333,4,2,0,55,0,1
73704,-83.3333333333333,4,2,0,65,0,1
75490,-83.3333333333333,4,2,0,55,0,1
75579,-83.3333333333333,4,2,0,65,0,1
76204,-83.3333333333333,4,2,0,55,0,1
76293,-83.3333333333333,4,2,0,65,0,1
77811,-83.3333333333333,4,2,0,55,0,1
77900,-83.3333333333333,4,2,0,65,0,1
78347,-83.3333333333333,4,2,0,55,0,1
79150,-83.3333333333333,4,2,0,65,0,1
80132,-100,4,2,0,45,0,0
91561,-100,4,2,0,55,0,0
92632,-100,4,2,0,45,0,0
92722,-100,4,2,0,55,0,0
95490,-100,4,2,0,45,0,0
95579,-100,4,2,0,55,0,0
98347,-100,4,2,0,45,0,0
98436,-100,4,2,0,55,0,0
102990,-83.3333333333333,4,2,0,55,0,0
104061,-83.3333333333333,4,2,0,45,0,0
104150,-83.3333333333333,4,2,0,55,0,0
106918,-83.3333333333333,4,2,0,45,0,0
107007,-83.3333333333333,4,2,0,55,0,0
109775,-83.3333333333333,4,2,0,45,0,0
109865,-83.3333333333333,4,2,0,55,0,0
111918,-83.3333333333333,4,2,0,45,0,0
112275,-83.3333333333333,4,2,0,55,0,0
112632,-83.3333333333333,4,2,0,45,0,0
112722,-83.3333333333333,4,2,0,55,0,0
113347,-83.3333333333333,4,2,0,45,0,0
113704,-83.3333333333333,4,2,0,55,0,0
115490,-83.3333333333333,4,2,0,45,0,0
115579,-83.3333333333333,4,2,0,55,0,0
118347,-83.3333333333333,4,2,0,45,0,0
118436,-83.3333333333333,4,2,0,55,0,0
121204,-83.3333333333333,4,2,0,45,0,0
121293,-83.3333333333333,4,2,0,55,0,0
125847,-83.3333333333333,4,2,0,65,0,1
135490,-83.3333333333333,4,2,0,55,0,1
136293,-83.3333333333333,4,2,0,65,0,1
136918,-83.3333333333333,4,2,0,55,0,1
137275,-83.3333333333333,4,2,0,65,0,1
146918,-83.3333333333333,4,2,0,55,0,1
147722,-83.3333333333333,4,2,0,65,0,1
148347,-83.3333333333333,4,2,0,55,0,1
148704,-83.3333333333333,4,2,0,65,0,1
149775,-83.3333333333333,4,2,0,55,0,1
150132,-83.3333333333333,4,2,0,65,0,1
150490,-83.3333333333333,4,2,0,55,0,1
150579,-83.3333333333333,4,2,0,65,0,1
152097,-83.3333333333333,4,2,0,55,0,1
152186,-83.3333333333333,4,2,0,65,0,1
152632,-83.3333333333333,4,2,0,55,0,1
153704,-83.3333333333333,4,2,0,65,0,1
155490,-83.3333333333333,4,2,0,55,0,1
155579,-83.3333333333333,4,2,0,65,0,1
156204,-83.3333333333333,4,2,0,55,0,1
156293,-83.3333333333333,4,2,0,65,0,1
157811,-83.3333333333333,4,2,0,55,0,1
157900,-83.3333333333333,4,2,0,65,0,1
158347,-83.3333333333333,4,2,0,55,0,1
159418,-83.3333333333333,4,2,0,65,0,1
160132,-83.3333333333333,4,2,0,65,0,0
161204,-83.3333333333333,4,2,0,55,0,0
161561,-83.3333333333333,4,2,0,65,0,0
181561,-83.3333333333333,4,2,0,45,0,0
182990,-83.3333333333333,4,2,0,55,0,0
192632,-83.3333333333333,4,2,0,65,0,0
194418,-83.3333333333333,4,2,0,65,0,1
204775,-83.3333333333333,4,2,0,55,0,1
204865,-83.3333333333333,4,2,0,65,0,1
205490,-83.3333333333333,4,2,0,55,0,1
205579,-83.3333333333333,4,2,0,65,0,1
206918,-83.3333333333333,4,2,0,55,0,1
207007,-83.3333333333333,4,2,0,65,0,1
207632,-83.3333333333333,4,2,0,55,0,1
207722,-83.3333333333333,4,2,0,65,0,1
209240,-83.3333333333333,4,2,0,55,0,1
209329,-83.3333333333333,4,2,0,65,0,1
209775,-83.3333333333333,4,2,0,55,0,1
210847,-83.3333333333333,4,2,0,65,0,1
212632,-83.3333333333333,4,2,0,55,0,1
212722,-83.3333333333333,4,2,0,65,0,1
213347,-83.3333333333333,4,2,0,55,0,1
213436,-83.3333333333333,4,2,0,65,0,1
214954,-83.3333333333333,4,2,0,55,0,1
215043,-83.3333333333333,4,2,0,65,0,1
215490,-83.3333333333333,4,2,0,55,0,1
216561,-83.3333333333333,4,2,0,65,0,1
217275,-83.3333333333333,4,2,0,45,0,0

[Colours]
Combo1 : 196,147,0
Combo2 : 198,99,0
Combo3 : 0,106,236
Combo4 : 0,151,75

[HitObjects]
144,123,133,6,0,P|191:62|268:65,1,160,2|2,0:0|0:0,0:0:0:0:
340,208,1561,2,0,P|292:268|215:265,1,160,2|2,0:0|0:0,0:0:0:0:
144,123,2990,6,0,P|191:62|268:65,1,160,2|2,0:0|0:0,0:0:0:0:
344,92,4061,1,0,0:0:0:0:
404,144,4418,2,0,P|410:183|406:222,1,80,2|0,0:0|0:0,0:0:0:0:
356,288,5132,1,2,0:0:0:0:
200,328,5847,6,0,L|178:169,1,160,2|2,0:0|0:0,0:0:0:0:
124,112,6918,1,0,0:0:0:0:
80,180,7275,2,0,L|101:338,1,160,2|2,0:0|0:0,0:0:0:0:
256,296,8704,6,0,P|322:335|392:304,1,160,2|2,0:0|0:0,0:0:0:0:
404,144,10132,2,0,P|337:104|267:135,1,160,2|2,0:0|0:0,0:0:0:0:
196,276,11561,6,0,P|125:306|59:266,1,160,2|2,0:0|0:0,0:0:0:0:
16,200,12632,1,0,0:0:0:0:
76,144,12990,2,0,P|146:113|212:153,1,160,2|2,0:0|0:0,0:0:0:0:
224,312,14418,6,0,B|304:296|300:340|381:324,1,160,2|2,0:0|0:0,0:0:0:0:
440,272,15490,1,0,0:0:0:0:
496,215,15847,2,0,P|500:176|490:137,1,80,2|0,0:0|0:0,0:0:0:0:
432,84,16561,1,2,0:0:0:0:
280,32,17275,6,0,L|120:39,1,160,2|2,0:0|0:0,0:0:0:0:
44,68,18347,1,0,0:0:0:0:
52,148,18704,2,0,L|211:140,1,160,2|2,0:0|0:0,0:0:0:0:
348,224,20132,6,0,P|376:295|333:359,1,160,2|2,0:0|0:0,0:0:0:0:
178,359,21561,2,0,P|135:295|163:224,1,160,2|2,0:0|0:0,0:0:0:0:
264,60,22990,6,0,P|315:107|384:100,1,143.999995605469,4|4,0:3|0:3,0:0:0:0:
428,76,23704,2,0,P|420:123|424:170,1,95.9999970703126,8|4,0:0|0:3,0:0:0:0:
376,256,24418,2,0,P|294:211|212:253,1,191.999994140625,2|8,0:0|0:0,0:0:0:0:
20,248,25847,6,0,L|12:104,1,143.999995605469,4|4,0:3|0:3,0:0:0:0:
40,64,26561,2,0,P|59:107|92:141,1,95.9999970703126,8|4,0:0|0:3,0:0:0:0:
188,135,27275,2,0,P|251:68|342:82,1,191.999994140625,2|8,0:0|0:0,0:0:0:0:
380,272,28704,6,0,P|326:317|255:313,1,143.999995605469,4|4,0:3|0:3,0:0:0:0:
216,288,29418,2,0,L|206:192,1,95.9999970703126,8|4,0:0|0:3,0:0:0:0:
112,176,30132,2,0,L|121:271,2,95.9999970703126,2|0|8,0:0|0:0|0:0,0:0:0:0:
256,48,31561,5,4,0:3:0:0:
332,104,31918,2,0,L|379:96,2,47.9999985351563,4|4|8,0:3|0:3|0:0,0:0:0:0:
276,184,32632,1,4,0:3:0:0:
151,328,33347,2,0,P|107:344|60:336,1,95.9999970703126,4|8,0:3|0:0,0:0:0:0:
40,144,34418,6,0,P|104:115|171:136,1,143.999995605469,4|4,0:3|0:3,0:0:0:0:
196,176,35132,2,0,L|207:80,1,95.9999970703126,8|4,0:0|0:3,0:0:0:0:
304,80,35847,2,0,L|316:176,2,95.9999970703126,2|2|8,0:0|0:0|0:0,0:0:0:0:
492,40,37275,6,0,L|510:182,1,143.999995605469,4|4,0:3|0:3,0:0:0:0:
491,227,37990,2,0,P|469:185|435:151,1,95.9999970703126,8|4,0:0|0:3,0:0:0:0:
344,120,38704,2,0,P|311:154|265:168,1,95.9999970703126,2|2,0:0|0:0,0:0:0:0:
176,132,39418,1,8,0:0:0:0:
52,280,40132,6,0,P|103:326|171:311,1,143.999995605469,4|4,0:3|0:3,0:0:0:0:
172,264,40847,2,0,P|207:295|252:311,1,95.9999970703126,8|4,0:0|0:3,0:0:0:0:
336,360,41561,2,0,P|378:337|425:331,1,95.9999970703126,2|2,0:0|0:0,0:0:0:0:
492,260,42275,2,0,P|512:169|454:97,1,191.999994140625,8|4,0:0|0:3,0:0:0:0:
364,60,43347,6,0,L|348:8,2,47.9999985351563,4|4|8,0:3|0:3|0:0,0:0:0:0:
316,144,44061,1,4,0:3:0:0:
256,328,44775,6,0,P|212:347|165:345,2,95.9999970703126,2|2|2,0:0|0:0|0:0,0:0:0:0:
308,248,45847,6,0,P|351:229|399:231,1,95.9999970703126,4|0,0:0|0:0,0:0:0:0:
484,184,46561,2,0,P|495:113|476:44,2,143.999995605469,8|2|2,0:0|0:0|0:0,0:0:0:0:
399,231,47990,2,0,P|351:229|308:248,1,95.9999970703126,8|2,0:0|0:0,0:0:0:0:
256,328,48704,6,0,P|212:347|165:345,1,95.9999970703126,4|0,0:3|0:3,0:0:0:0:
88,284,49418,2,0,P|68:215|76:144,2,143.999995605469,8|2|2,0:0|0:0|0:0,0:0:0:0:
164,344,50847,2,0,L|312:336,1,143.999995605469,10|2,0:0|0:0,0:0:0:0:
351,355,51561,6,0,P|340:309|340:261,1,95.9999970703126,4|2,0:3|0:0,0:0:0:0:
420,208,52275,2,0,P|420:160|408:113,1,95.9999970703126,8|0,0:0|0:0,0:0:0:0:
348,40,52990,2,0,P|268:88|178:62,1,191.999994140625,2|8,0:0|0:0,0:0:0:0:
84,76,54061,6,2,P|12:192|84:308,1,287.999991210938,2|8,0:0|0:0,0:0:0:0:
176,336,55490,1,4,0:3:0:0:
368,312,56204,2,0,P|412:292|460:288,2,95.9999970703126,4|8|4,0:3|0:0|0:3,0:0:0:0:
284,268,57275,6,0,L|287:124,1,143.999995605469,4|4,0:3|0:3,0:0:0:0:
263,80,57990,2,0,P|241:122|206:154,1,95.9999970703126,8|2,0:0|0:0,0:0:0:0:
160,144,58525,2,0,L|182:286,1,143.999995605469,2|0,0:0|0:0,0:0:0:0:
276,304,59418,2,0,P|336:267|404:284,2,143.999995605469,8|2|0,0:0|0:0|0:0,0:0:0:0:
184,328,60847,6,0,P|123:364|55:347,2,143.999995605469,8|2|2,0:0|0:0|0:0,0:0:0:0:
220,240,62275,2,0,L|223:96,1,143.999995605469,8|2,0:0|0:0,0:0:0:0:
236,48,62990,6,0,P|271:79|316:95,2,95.9999970703126,4|2|8,0:3|0:0|0:0,0:0:0:0:
48,80,64418,2,0,L|59:175,1,95.9999970703126,2|0,0:0|0:0,0:0:0:0:
76,220,64954,2,0,P|116:196|164:198,1,95.9999970703126,2|0,0:0|0:0,0:0:0:0:
184,240,65490,6,2,P|256:340|328:240,1,287.999991210938,2|8,0:0|0:0,0:0:0:0:
308,144,66918,1,4,0:3:0:0:
116,120,67632,2,0,L|101:25,2,95.9999970703126,4|8|4,0:3|0:0|0:3,0:0:0:0:
32,168,68704,6,0,L|51:310,1,143.999995605469,4|4,0:0|0:3,0:0:0:0:
80,347,69418,2,0,P|111:312|155:292,1,95.9999970703126,8|4,0:0|0:3,0:0:0:0:
252,292,70132,2,0,P|291:318|338:327,1,95.9999970703126,2|4,0:0|0:3,0:0:0:0:
432,300,70847,1,8,0:0:0:0:
468,112,71561,6,0,P|414:67|345:77,2,143.999995605469,4|4|4,0:0|0:0|0:0,0:0:0:0:
504,300,73347,1,4,0:3:0:0:
424,356,73704,2,0,L|328:352,1,95.9999970703126,8|0,0:0|0:0,0:0:0:0:
239,311,74418,6,0,P|176:281|111:307,1,143.999995605469,4|4,0:0|0:3,0:0:0:0:
76,340,75132,2,0,L|79:244,1,95.9999970703126,8|4,0:0|0:3,0:0:0:0:
19,167,75847,2,0,P|11:120|22:74,2,95.9999970703126,2|4|8,0:0|0:3|0:0,0:0:0:0:
204,223,77275,6,0,P|266:191|334:208,2,143.999995605469,4|4|4,0:0|0:0|0:0,0:0:0:0:
16,184,79061,2,0,P|11:136|22:89,1,95.9999970703126,4|8,0:3|0:0,0:0:0:0:
168,24,80132,1,4,0:0:0:0:
64,152,91561,6,0,P|71:211|74:271,1,120,4|4,0:3|0:3,0:0:0:0:
76,312,92275,2,0,L|151:286,1,80,8|4,0:0|0:3,0:0:0:0:
220,332,92990,2,0,L|295:306,1,80,2|0,0:0|0:0,0:0:0:0:
372,336,93704,1,8,0:0:0:0:
484,219,94418,6,0,P|491:160|478:102,1,120,4|4,0:3|0:3,0:0:0:0:
460,64,95132,2,0,L|380:70,1,80,8|4,0:0|0:3,0:0:0:0:
336,136,95847,2,0,L|261:107,1,80,2|0,0:0|0:0,0:0:0:0:
184,132,96561,1,8,0:0:0:0:
36,188,97275,6,0,L|46:307,1,120,4|4,0:3|0:3,0:0:0:0:
72,339,97990,2,0,P|101:313|139:300,1,80,8|4,0:0|0:3,0:0:0:0:
220,312,98704,2,2,P|289:348|363:324,1,160,2|8,0:0|0:0,0:0:0:0:
412,260,99775,2,0,L|408:216,1,40,2|0,0:0|0:0,0:0:0:0:
384,188,100132,6,0,P|314:151|240:175,2,160,4|8|2,0:3|0:0|0:0,0:0:0:0:
504,80,102275,1,8,0:0:0:0:
448,24,102632,1,0,0:0:0:0:
395,84,102990,6,0,P|327:104|259:85,1,143.999995605469,4|4,0:3|0:3,0:0:0:0:
219,59,103704,2,0,P|178:37|130:38,1,95.9999970703126,8|4,0:0|0:3,0:0:0:0:
51,96,104418,2,0,P|24:185|65:269,1,191.999994140625,2|8,0:0|0:0,0:0:0:0:
236,355,105847,6,0,P|297:322|365:341,1,143.999995605469,4|4,0:3|0:3,0:0:0:0:
412,356,106561,2,0,L|402:260,1,95.9999970703126,8|4,0:0|0:3,0:0:0:0:
447,176,107275,2,0,P|383:120|335:190,1,191.999994140625,2|8,0:0|0:0,0:0:0:0:
256,364,108704,6,0,P|193:330|125:347,1,143.999995605469,4|4,0:3|0:3,0:0:0:0:
80,332,109418,2,0,P|88:284|78:238,1,95.9999970703126,8|4,0:0|0:3,0:0:0:0:
24,160,110132,2,0,P|13:113|24:64,1,95.9999970703126,2|0,0:0|0:0,0:0:0:0:
108,112,110847,2,0,P|186:64|271:101,1,191.999994140625,8|4,0:0|0:3,0:0:0:0:
352,152,111918,6,0,L|356:200,2,47.9999985351563,4|4|8,0:3|0:3|0:0,0:0:0:0:
432,96,112632,2,0,L|448:292,1,191.999994140625,4|4,0:3|0:3,0:0:0:0:
364,340,113704,1,8,0:0:0:0:
172,348,114418,6,0,L|164:204,1,143.999995605469,4|4,0:3|0:3,0:0:0:0:
123,175,115132,2,0,P|112:129|117:82,1,95.9999970703126,8|4,0:0|0:3,0:0:0:0:
192,24,115847,2,0,L|287:31,2,95.9999970703126,2|2|8,0:0|0:0|0:0,0:0:0:0:
32,132,117275,6,0,P|44:202|30:272,1,143.999995605469,4|4,0:3|0:3,0:0:0:0:
16,320,117990,2,0,L|111:312,1,95.9999970703126,8|4,0:0|0:3,0:0:0:0:
204,340,118704,2,0,P|248:356|296:351,1,95.9999970703126,2|2,0:0|0:0,0:0:0:0:
388,324,119418,1,8,0:0:0:0:
468,148,120132,6,0,P|418:99|350:113,1,143.999995605469,4|4,0:3|0:3,0:0:0:0:
324,152,120847,2,0,L|305:57,1,95.9999970703126,8|4,0:0|0:3,0:0:0:0:
206,57,121561,2,0,L|188:152,1,95.9999970703126,2|2,0:0|0:0,0:0:0:0:
256,220,122275,1,8,0:0:0:0:
456,221,122990,6,0,B|368:209|372:305|372:305|288:301|256:374|256:374|224:301|140:305|140:305|144:209|56:221,1,575.999982421876,4|2,0:0|0:0,0:0:0:0:
76,28,125847,6,0,P|145:46|203:87,1,143.999995605469,4|4,0:0|0:3,0:0:0:0:
200,135,126561,2,0,P|241:111|287:100,1,95.9999970703126,8|2,0:0|0:0,0:0:0:0:
332,80,127097,2,0,L|339:223,1,143.999995605469,2|2,0:0|0:0,0:0:0:0:
304,312,127990,1,8,0:0:0:0:
112,300,128704,6,0,P|119:252|113:205,1,95.9999970703126,4|2,0:3|0:0,0:0:0:0:
31,155,129418,2,0,P|15:86|26:15,2,143.999995605469,8|2|2,0:0|0:0|0:0,0:0:0:0:
112,207,130847,2,0,P|172:172|240:189,1,143.999995605469,8|2,0:0|0:0,0:0:0:0:
280,216,131561,6,0,L|272:120,2,95.9999970703126,4|2|8,0:3|0:0|0:0,0:0:0:0:
300,312,132632,1,0,0:0:0:0:
372,248,132990,2,0,L|355:57,1,191.999994140625,2|8,0:0|0:0,0:0:0:0:
452,44,134061,6,2,L|469:235,1,191.999994140625
396,300,135132,2,0,P|356:274|308:269,1,95.9999970703126,8|4,0:0|0:3,0:0:0:0:
156,152,136204,2,0,P|161:104|187:64,2,95.9999970703126,4|8|4,0:3|0:0|0:3,0:0:0:0:
224,220,137275,6,0,P|210:289|165:345,1,143.999995605469,4|4,0:3|0:3,0:0:0:0:
124,368,137990,2,0,L|112:272,1,95.9999970703126,8|2,0:0|0:0,0:0:0:0:
67,255,138525,2,0,P|50:186|55:114,1,143.999995605469,2|2,0:0|0:0,0:0:0:0:
116,40,139418,2,0,L|211:36,1,95.9999970703126,8|0,0:0|0:0,0:0:0:0:
284,95,140132,6,0,P|337:51|406:62,1,143.999995605469,4|4,0:3|0:3,0:0:0:0:
440,96,140847,2,0,L|432:248,2,143.999995605469,8|2|2,0:0|0:0|0:0,0:0:0:0:
360,40,142275,2,0,L|212:44,1,143.999995605469,8|2,0:0|0:0,0:0:0:0:
172,60,142990,6,0,P|180:107|173:154,1,95.9999970703126,4|2,0:3|0:0,0:0:0:0:
88,196,143704,1,8,0:0:0:0:
176,364,144418,2,0,L|271:356,1,95.9999970703126,2|0,0:0|0:0,0:0:0:0:
300,316,144954,2,0,P|341:292|388:287,1,95.9999970703126,2|0,0:0|0:0,0:0:0:0:
436,275,145490,6,2,P|473:190|434:105,1,191.999994140625
360,47,146561,2,0,P|324:80|280:97,1,95.9999970703126,8|4,0:0|0:3,0:0:0:0:
96,148,147632,2,0,P|91:195|99:242,1,95.9999970703126,4|8,0:3|0:0,0:0:0:0:
160,316,148347,1,4,0:3:0:0:
244,363,148704,6,0,P|306:332|374:351,1,143.999995605469,4|4,0:0|0:3,0:0:0:0:
411,323,149418,2,0,P|403:276|411:229,1,95.9999970703126,8|4,0:0|0:3,0:0:0:0:
468,152,150132,2,0,P|475:104|467:57,2,95.9999970703126,2|4|8,0:0|0:3|0:0,0:0:0:0:
287,215,151561,6,0,P|220:197|161:234,2,143.999995605469,4|4|4,0:0|0:0|0:0,0:0:0:0:
464,288,153347,1,4,0:3:0:0:
496,195,153704,2,0,P|504:148|493:102,1,95.9999970703126,8|0,0:0|0:0,0:0:0:0:
420,40,154418,6,0,B|348:60|352:24|277:39,1,143.999995605469,4|4,0:0|0:3,0:0:0:0:
240,68,155132,2,0,L|247:163,1,95.9999970703126,8|4,0:0|0:3,0:0:0:0:
183,235,155847,2,0,P|152:200|111:175,2,95.9999970703126,2|4|8,0:0|0:3|0:0,0:0:0:0:
343,340,157275,6,0,P|409:362|468:326,2,143.999995605469,4|4|4,0:0|0:0|0:0,0:0:0:0:
164,276,159061,1,4,0:3:0:0:
76,240,159418,2,0,P|68:192|75:145,1,95.9999970703126,8|0,0:0|0:0,0:0:0:0:
144,76,160132,6,0,L|288:80,1,143.999995605469,4|4,0:0|0:3,0:0:0:0:
331,96,160847,2,0,P|323:142|337:188,1,95.9999970703126,8|4,0:0|0:3,0:0:0:0:
420,232,161561,2,0,P|420:279|400:322,1,95.9999970703126,2|0,0:0|0:0,0:0:0:0:
312,360,162275,2,0,L|216:352,1,95.9999970703126,10|0,0:0|0:0,0:0:0:0:
167,343,162811,6,2,P|96:252|124:140,1,239.999992675781,2|8,0:0|0:0,0:0:0:0:
196,76,164061,2,2,B|232:104|256:150|256:150|280:104|316:76,1,191.999994140625
404,36,165132,1,8,0:0:0:0:
484,88,165490,1,0,0:0:0:0:
419,160,165847,6,0,P|408:230|427:299,1,143.999995605469,4|4,0:3|0:3,0:0:0:0:
412,344,166561,2,0,P|347:315|279:333,1,143.999995605469,10|0,0:0|0:0,0:0:0:0:
232,333,167275,2,0,P|164:315|100:344,1,143.999995605469,2|0,0:0|0:0,0:0:0:0:
84,299,167990,2,0,P|103:230|93:160,1,143.999995605469,10|0,0:0|0:0,0:0:0:0:
140,148,168704,6,0,B|196:152|232:140|256:85|256:85|280:140|316:152|372:148,2,287.999991210938,4|2|8,0:3|0:0|0:0,0:0:0:0:
76,220,171204,1,0,0:0:0:0:
56,312,171561,6,0,P|98:332|146:332,1,95.9999970703126,2|0,0:0|0:0,0:0:0:0:
240,319,172275,2,0,P|298:280|367:291,1,143.999995605469,10|2,0:0|0:0,0:0:0:0:
416,288,172990,2,0,P|424:240|413:194,1,95.9999970703126,2|0,0:0|0:0,0:0:0:0:
376,108,173704,2,0,L|233:127,1,143.999995605469,10|0,0:0|0:0,0:0:0:0:
188,112,174418,6,0,L|206:206,1,95.9999970703126,4|2,0:3|0:0,0:0:0:0:
120,248,175132,2,0,L|93:106,2,143.999995605469,8|2|0,0:0|0:0|0:0,0:0:0:0:
196,304,176561,2,0,P|231:271|276:255,2,95.9999970703126,8|2|4,0:0|0:0|0:3,0:0:0:0:
256,192,177632,12,2,181561,0:0:0:0:
256,192,182990,5,2,0:0:0:0:
32,40,192632,6,0,L|39:135,1,95.9999970703126,4|4,0:3|0:3,0:0:0:0:
136,144,193347,2,0,L|143:239,1,95.9999970703126,4|8,0:3|0:0,0:0:0:0:
228,284,194061,1,4,0:3:0:0:
300,347,194418,6,0,P|359:309|427:326,1,143.999995605469,4|4,0:0|0:3,0:0:0:0:
471,347,195132,2,0,P|462:299|469:252,1,95.9999970703126,10|2,0:0|0:0,0:0:0:0:
492,212,195668,2,0,P|504:141|483:73,1,143.999995605469,2|2,0:0|0:0,0:0:0:0:
400,28,196561,1,8,0:0:0:0:
308,48,196918,1,2,0:0:0:0:
216,24,197275,6,0,L|72:31,1,143.999995605469,4|4,0:3|0:3,0:0:0:0:
27,44,197990,2,0,P|20:90|33:136,1,95.9999970703126,8|2,0:0|0:0,0:0:0:0:
128,156,198704,2,0,P|141:201|133:248,1,95.9999970703126,0|2,0:0|0:0,0:0:0:0:
168,336,199418,2,0,L|310:316,1,143.999995605469,8|2,0:0|0:0,0:0:0:0:
352,340,200132,5,4,0:3:0:0:
444,372,200490,1,2,0:0:0:0:
464,280,200847,1,8,0:0:0:0:
338,134,201561,2,0,P|303:100|279:58,1,95.9999970703126,2|0,0:0|0:0,0:0:0:0:
232,58,202097,2,0,P|208:100|174:134,1,95.9999970703126,2|0,0:0|0:0,0:0:0:0:
152,176,202632,6,2,P|256:259|360:176,1,287.999991210938,2|8,0:0|0:0,0:0:0:0:
416,96,204061,1,4,0:3:0:0:
496,276,204775,2,0,P|482:325|451:364,2,95.9999970703126,4|8|4,0:3|0:0|0:3,0:0:0:0:
423,211,205847,6,0,P|400:144|396:72,1,143.999995605469,4|4,0:0|0:3,0:0:0:0:
420,32,206561,2,0,L|325:47,1,95.9999970703126,8|4,0:0|0:3,0:0:0:0:
276,128,207275,2,0,L|181:143,1,95.9999970703126,2|4,0:0|0:3,0:0:0:0:
124,220,207990,1,8,0:0:0:0:
256,359,208704,6,0,P|318:328|386:346,2,143.999995605469,4|4|4,0:0|0:0|0:0,0:0:0:0:
64,332,210490,1,4,0:3:0:0:
11,251,210847,2,0,P|3:204|11:157,1,95.9999970703126,8|0,0:0|0:0,0:0:0:0:
68,80,211561,6,0,L|212:80,1,143.999995605469,4|4,0:0|0:3,0:0:0:0:
248,111,212275,2,0,P|286:84|333:72,1,95.9999970703126,8|4,0:0|0:3,0:0:0:0:
388,152,212990,2,0,P|349:179|302:191,1,95.9999970703126,2|4,0:0|0:3,0:0:0:0:
248,112,213704,1,8,0:0:0:0:
59,148,214418,6,0,P|39:215|65:281,2,143.999995605469,4|4|4,0:0|0:0|0:0,0:0:0:0:
228,56,216204,1,4,0:3:0:0:
300,120,216561,2,0,L|395:112,1,95.9999970703126,8|0,0:0|0:0,0:0:0:0:
468,176,217275,1,4,0:0:0:0:
