osu file format v14

[General]
AudioFilename: You're not alone.mp3
AudioLeadIn: 2000
PreviewTime: 44775
Countdown: 0
SampleSet: Soft
StackLeniency: 0.7
Mode: 0
LetterboxInBreaks: 0
WidescreenStoryboard: 0

[Editor]
DistanceSpacing: 1.2
BeatDivisor: 8
GridSize: 4
TimelineZoom: 1

[Metadata]
Title:You're Not Alone Feat. Britt Nicole
TitleUnicode:You're Not Alone Feat. Britt Nicole
Artist:Owl City
ArtistUnicode:Owl City
Creator:mancuso_JM_
Version:Easy
Source:
Tags:Adam Young Brittany Waddell mancusojuanmattos
BeatmapID:661607
BeatmapSetID:294251

[Difficulty]
HPDrainRate:2
CircleSize:3
OverallDifficulty:2
ApproachRate:3
SliderMultiplier:1.4
SliderTickRate:2

[Events]
//Background and Video events
0,0,"You're not alone.jpg",0,0
//Break Periods
2,80332,90121
2,183190,191192
//Storyboard Layer 0 (Background)
//Storyboard Layer 1 (Fail)
//Storyboard Layer 2 (Pass)
//Storyboard Layer 3 (Foreground)
//Storyboard Sound Samples

[TimingPoints]
133,714.285714285714,4,2,0,45,1,0
2990,-100,4,2,0,55,0,0
3079,-100,4,2,0,45,0,0
5847,-100,4,2,0,55,0,0
5936,-100,4,2,0,45,0,0
11561,-100,4,2,0,55,0,0
12275,-100,4,2,0,45,0,0
14418,-100,4,2,0,55,0,0
15132,-100,4,2,0,45,0,0
17275,-100,4,2,0,55,0,0
17365,-100,4,2,0,45,0,0
22990,-100,4,2,0,55,0,0
24061,-100,4,2,0,45,0,0
24418,-100,4,2,0,55,0,0
26204,-100,4,2,0,45,0,0
26561,-100,4,2,0,55,0,0
29061,-100,4,2,0,45,0,0
29418,-100,4,2,0,55,0,0
31918,-100,4,2,0,45,0,0
32275,-100,4,2,0,55,0,0
32632,-100,4,2,0,45,0,0
33436,-100,4,2,0,55,0,0
35490,-100,4,2,0,45,0,0
35847,-100,4,2,0,55,0,0
38347,-100,4,2,0,45,0,0
38704,-100,4,2,0,55,0,0
41204,-100,4,2,0,45,0,0
41561,-100,4,2,0,55,0,0
43347,-100,4,2,0,45,0,0
43704,-100,4,2,0,55,0,0
44061,-100,4,2,0,45,0,0
45847,-100,4,2,0,65,0,1
55490,-100,4,2,0,55,0,1
56293,-100,4,2,0,65,0,1
66918,-100,4,2,0,55,0,1
67722,-100,4,2,0,65,0,1
69775,-100,4,2,0,55,0,1
69865,-100,4,2,0,65,0,1
70490,-100,4,2,0,55,0,1
70579,-100,4,2,0,65,0,1
72097,-100,4,2,0,55,0,1
72186,-100,4,2,0,65,0,1
72632,-100,4,2,0,55,0,1
73436,-100,4,2,0,65,0,1
75490,-100,4,2,0,55,0,1
75579,-100,4,2,0,65,0,1
76204,-100,4,2,0,55,0,1
76293,-100,4,2,0,65,0,1
77811,-100,4,2,0,55,0,1
77900,-100,4,2,0,65,0,1
78347,-100,4,2,0,55,0,1
79150,-100,4,2,0,65,0,1
80132,-100,4,2,0,45,0,0
91561,-100,4,2,0,55,0,0
92632,-100,4,2,0,45,0,0
92990,-100,4,2,0,55,0,0
98347,-100,4,2,0,45,0,0
98704,-100,4,2,0,55,0,0
101204,-100,4,2,0,45,0,0
101293,-100,4,2,0,55,0,0
104061,-100,4,2,0,45,0,0
104418,-100,4,2,0,55,0,0
106918,-100,4,2,0,45,0,0
107275,-100,4,2,0,55,0,0
109775,-100,4,2,0,45,0,0
109865,-100,4,2,0,55,0,0
111918,-100,4,2,0,45,0,0
112275,-100,4,2,0,55,0,0
112632,-100,4,2,0,45,0,0
112722,-100,4,2,0,55,0,0
113347,-100,4,2,0,45,0,0
113436,-100,4,2,0,55,0,0
115490,-100,4,2,0,45,0,0
115579,-100,4,2,0,55,0,0
118347,-100,4,2,0,45,0,0
118436,-100,4,2,0,55,0,0
121204,-100,4,2,0,45,0,0
121293,-100,4,2,0,55,0,0
125847,-100,4,2,0,65,0,1
135490,-100,4,2,0,55,0,1
136293,-100,4,2,0,65,0,1
136918,-100,4,2,0,55,0,1
137275,-100,4,2,0,65,0,1
146918,-100,4,2,0,55,0,1
147722,-100,4,2,0,65,0,1
149775,-100,4,2,0,55,0,1
149865,-100,4,2,0,65,0,1
152097,-100,4,2,0,55,0,1
152186,-100,4,2,0,65,0,1
152632,-100,4,2,0,55,0,1
153436,-100,4,2,0,65,0,1
155490,-100,4,2,0,55,0,1
155579,-100,4,2,0,65,0,1
157811,-100,4,2,0,55,0,1
157900,-100,4,2,0,65,0,1
158347,-100,4,2,0,55,0,1
159150,-100,4,2,0,65,0,1
160132,-100,4,2,0,65,0,0
169775,-100,4,2,0,55,0,0
169865,-100,4,2,0,65,0,0
170490,-100,4,2,0,55,0,0
170847,-100,4,2,0,65,0,0
181561,-100,4,2,0,45,0,0
182990,-100,4,2,0,55,0,0
192632,-100,4,2,0,65,0,0
194418,-100,4,2,0,65,0,1
204061,-100,4,2,0,55,0,1
204865,-100,4,2,0,65,0,1
205490,-100,4,2,0,55,0,1
205847,-100,4,2,0,65,0,1
206918,-100,4,2,0,55,0,1
207007,-100,4,2,0,65,0,1
207632,-100,4,2,0,55,0,1
207722,-100,4,2,0,65,0,1
209240,-100,4,2,0,55,0,1
209329,-100,4,2,0,65,0,1
209775,-100,4,2,0,55,0,1
209865,-100,4,2,0,65,0,1
210490,-100,4,2,0,55,0,1
210579,-100,4,2,0,65,0,1
212632,-100,4,2,0,55,0,1
212722,-100,4,2,0,65,0,1
213347,-100,4,2,0,55,0,1
213436,-100,4,2,0,65,0,1
214954,-100,4,2,0,55,0,1
215043,-100,4,2,0,65,0,1
215490,-100,4,2,0,55,0,1
216293,-100,4,2,0,65,0,1
217275,-100,4,2,0,45,0,0

[Colours]
Combo1 : 196,147,0
Combo2 : 198,99,0
Combo3 : 0,106,236
Combo4 : 0,151,75

[HitObjects]
64,304,133,6,0,B|96:316|116:348|116:348|146:328|186:336,1,140,2|2,0:0|0:0,0:0:0:0:
328,335,1561,2,0,B|366:328|396:348|396:348|416:316|448:304,1,140,2|2,0:0|0:0,0:0:0:0:
448,164,2990,6,0,P|395:119|326:115,1,140,2|2,0:0|0:0,0:0:0:0:
185,115,4418,2,0,P|116:119|64:164,1,140,2|2,0:0|0:0,0:0:0:0:
166,260,5847,2,0,B|222:268|256:309|256:309|290:268|346:260,2,210,2|2|2,0:0|0:0|0:0,0:0:0:0:
43,188,8704,6,0,P|105:154|154:105,1,140,2|2,0:0|0:0,0:0:0:0:
268,24,10132,2,0,P|317:72|378:106,1,140,2|2,0:0|0:0,0:0:0:0:
492,192,11561,5,2,0:0:0:0:
404,300,12275,2,0,P|321:349|263:272,2,210,2|2|2,0:0|0:0|0:0,0:0:0:0:
492,192,15132,2,0,L|476:52,2,140,2|2|2,0:0|0:0|0:0,0:0:0:0:
452,324,17275,6,0,P|391:291|327:313,1,140,2|2,0:0|0:0,0:0:0:0:
188,340,18704,2,0,P|123:361|63:329,1,140,2|2,0:0|0:0,0:0:0:0:
72,188,20132,6,0,P|136:166|196:198,1,140,2|2,0:0|0:0,0:0:0:0:
296,300,21561,1,2,0:0:0:0:
468,80,22990,6,0,B|432:60|428:28|428:28|400:40|357:33,1,140,4|8,0:3|0:0,0:0:0:0:
280,64,24061,1,4,0:3:0:0:
312,140,24418,2,0,B|348:160|352:192|352:192|380:180|422:186,1,140,2|8,0:0|0:0,0:0:0:0:
376,348,25847,6,0,P|341:345|306:338,1,70,4|4,0:3|0:3,0:0:0:0:
232,300,26561,2,0,B|200:324|188:352|188:352|160:336|119:336,2,140,8|2|8,0:0|0:0|0:0,0:0:0:0:
340,168,28704,6,0,L|408:144,1,70,4|4,0:3|0:3,0:0:0:0:
392,60,29418,2,0,L|260:108,2,140,8|2|8,0:0|0:0|0:0,0:0:0:0:
492,196,31561,6,0,L|488:265,1,70,4|4,0:3|0:3,0:0:0:0:
412,296,32275,2,0,P|389:269|361:248,1,70,8|4,0:0|0:3,0:0:0:0:
200,292,33347,2,0,P|171:271|149:244,1,70,4|8,0:3|0:0,0:0:0:0:
192,84,34418,6,0,P|256:60|320:84,1,140,4|8,0:3|0:0,0:0:0:0:
392,128,35490,1,4,0:3:0:0:
464,172,35847,2,0,P|480:239|469:307,1,140,2|8,0:0|0:0,0:0:0:0:
308,348,37275,6,0,B|280:348|264:328|256:308|256:308|248:328|232:348|204:348,1,140,4|8,0:3|0:0,0:0:0:0:
120,348,38347,1,4,0:3:0:0:
44,312,38704,2,0,P|33:244|50:177,1,140,2|8,0:0|0:0,0:0:0:0:
172,56,40132,6,0,B|196:124|196:124|196:191,1,140,4|8,0:3|0:0,0:0:0:0:
256,248,41204,1,4,0:3:0:0:
316,191,41561,2,0,B|316:124|316:124|340:56,1,140,2|8,0:0|0:0,0:0:0:0:
487,135,42990,6,0,P|492:170|489:205,1,70,4|4,0:3|0:3,0:0:0:0:
432,268,43704,2,0,P|400:254|366:260,1,70,8|4,0:0|0:3,0:0:0:0:
212,324,44775,6,0,L|140:332,2,70,2|2|2,0:0|0:0|0:0,0:0:0:0:
264,260,45847,6,0,L|244:116,2,140,4|8|2,0:0|0:0|0:0,0:0:0:0:
424,316,47990,2,0,L|414:246,1,70,8|2,0:0|0:0,0:0:0:0:
468,180,48704,6,0,B|452:136|452:136|460:96|460:96|440:46,1,140,4|8,0:3|0:0,0:0:0:0:
360,28,49775,1,2,0:0:0:0:
276,24,50132,2,0,L|208:42,2,70,0|2|8,0:0|0:0|0:0,0:0:0:0:
364,168,51561,6,0,L|296:186,2,70,4|2|8,0:3|0:0|0:0,0:0:0:0:
452,312,52990,2,0,L|316:345,1,140,2|8,0:0|0:0,0:0:0:0:
232,332,54061,6,2,P|174:295|109:314,1,140,2|0,0:0|0:0,0:0:0:0:
28,296,55132,2,0,P|23:261|27:226,1,70,8|4,0:0|0:3,0:0:0:0:
112,80,56204,2,0,P|129:110|154:134,1,70,4|8,0:3|0:0,0:0:0:0:
316,176,57275,6,0,P|370:135|438:145,2,140,4|8|2,0:3|0:0|0:0,0:0:0:0:
256,236,59061,1,0,0:0:0:0:
196,292,59418,2,0,P|166:309|131:314,1,70,8|2,0:0|0:0,0:0:0:0:
64,264,60132,6,0,P|48:196|63:128,2,140,4|8|2,0:3|0:0|0:0,0:0:0:0:
107,336,61918,2,0,P|138:319|172:312,1,70,2|8,0:0|0:0,0:0:0:0:
340,316,62990,6,0,P|371:330|406:334,2,70,4|2|8,0:3|0:0|0:0,0:0:0:0:
191,231,64418,2,0,P|184:163|212:99,1,140,2|8,0:0|0:0,0:0:0:0:
299,99,65490,6,2,P|327:163|320:231,1,140,2|0,0:0|0:0,0:0:0:0:
292,312,66561,2,0,P|256:316|220:312,1,70,8|4,0:0|0:3,0:0:0:0:
108,192,67632,2,0,P|103:157|107:122,1,70,4|8,0:3|0:0,0:0:0:0:
256,44,68704,6,0,B|324:40|324:72|393:64,1,140,4|8,0:0|0:0,0:0:0:0:
468,104,69775,2,0,P|480:172|470:241,1,140,4|4,0:3|0:3,0:0:0:0:
404,296,70847,1,8,0:0:0:0:
248,364,71561,6,0,L|136:356,2,105,4|4|4,0:0|0:0|0:0,0:0:0:0:
404,296,73347,2,0,P|407:261|404:226,1,70,4|8,0:3|0:0,0:0:0:0:
256,144,74418,6,0,B|184:144|184:144|119:121,1,140,4|8,0:0|0:0,0:0:0:0:
44,160,75490,2,0,B|44:212|44:212|56:244|56:244|56:298,1,140,4|4,0:3|0:3,0:0:0:0:
116,360,76561,1,8,0:0:0:0:
256,268,77275,6,0,B|252:228|260:212|256:163,2,105,4|4|4,0:0|0:0|0:0,0:0:0:0:
424,256,79061,2,0,P|428:221|421:187,1,70,4|8,0:3|0:0,0:0:0:0:
292,80,80132,1,4,0:0:0:0:
56,56,91561,6,0,P|44:124|57:192,1,140,4|8,0:3|0:0,0:0:0:0:
116,252,92632,1,4,0:3:0:0:
188,300,92990,2,0,P|227:244|294:235,1,140,2|8,0:0|0:0,0:0:0:0:
456,196,94418,6,0,P|467:127|448:61,2,140,4|8|0,0:3|0:0|0:0,0:0:0:0:
396,252,96204,1,2,0:0:0:0:
316,280,96561,1,8,0:0:0:0:
168,360,97275,6,0,L|28:348,1,140,4|8,0:3|0:0,0:0:0:0:
0,268,98347,1,4,0:3:0:0:
20,188,98704,2,2,L|160:200,1,140,2|8,0:0|0:0,0:0:0:0:
236,236,99775,1,2,0:0:0:0:
304,284,100132,6,0,P|397:316|463:242,2,210,4|4|8,0:3|0:3|0:0,0:0:0:0:
240,128,102990,6,0,B|204:100|168:100|168:100|106:100,1,140,4|8,0:3|0:0,0:0:0:0:
28,76,104061,1,4,0:3:0:0:
40,160,104418,2,0,B|76:188|112:188|112:188|173:188,1,140,2|8,0:0|0:0,0:0:0:0:
272,324,105847,6,0,P|334:352|398:329,1,140,4|8,0:3|0:0,0:0:0:0:
468,280,106918,1,4,0:3:0:0:
404,224,107275,2,0,P|341:195|277:218,1,140,2|8,0:0|0:0,0:0:0:0:
116,264,108704,5,4,0:3:0:0:
48,212,109061,2,0,P|44:176|48:140,1,70,4|8,0:3|0:0,0:0:0:0:
96,72,109775,2,0,B|140:56|176:64|196:92|216:120|252:128|291:112,1,210,4|8,0:3|0:0,0:0:0:0:
456,144,111561,6,0,L|459:213,1,70,4|4,0:3|0:3,0:0:0:0:
396,268,112275,2,0,L|327:252,1,70,8|4,0:0|0:3,0:0:0:0:
180,332,113347,2,0,L|111:316,1,70,4|8,0:3|0:0,0:0:0:0:
64,156,114418,6,0,L|201:183,1,140,4|8,0:3|0:0,0:0:0:0:
260,244,115490,1,4,0:3:0:0:
316,305,115847,2,0,P|349:316|383:320,2,70,2|2|8,0:0|0:0|0:0,0:0:0:0:
184,204,117275,6,0,P|171:135|183:66,1,140,4|8,0:3|0:0,0:0:0:0:
256,24,118347,1,4,0:3:0:0:
324,76,118704,2,0,P|332:120|324:156,2,70,2|2|8,0:0|0:0|0:0,0:0:0:0:
488,40,120132,6,0,P|500:108|492:178,1,140,4|8,0:3|0:0,0:0:0:0:
448,248,121204,1,4,0:3:0:0:
376,292,121561,2,0,L|306:284,1,70,2|2,0:0|0:0,0:0:0:0:
240,336,122275,1,8,0:0:0:0:
192,176,122990,6,0,P|256:24|320:176,1,420,4|2,0:0|0:0,0:0:0:0:
255,331,125847,6,0,P|191:307|124:325,2,140,4|8|2,0:0|0:0|0:0,0:0:0:0:
420,296,127990,2,0,P|415:261|419:226,1,70,8|2,0:0|0:0,0:0:0:0:
476,163,128704,6,0,P|488:95|473:27,2,140,4|8|2,0:3|0:0|0:0,0:0:0:0:
408,216,130490,2,0,L|338:205,1,70,2|8,0:0|0:0,0:0:0:0:
204,104,131561,6,0,P|171:91|136:87,2,70,4|2|8,0:3|0:0|0:0,0:0:0:0:
296,244,132990,2,0,P|328:256|363:260,2,70,2|0|8,0:0|0:0|0:0,0:0:0:0:
220,204,134061,6,2,B|164:196|164:196|84:222,1,140
100,304,135132,2,0,L|168:284,1,70,8|4,0:0|0:3,0:0:0:0:
324,356,136204,2,0,L|392:336,2,70,4|8|4,0:3|0:0|0:3,0:0:0:0:
272,288,137275,6,0,L|406:248,2,140,4|8|2,0:3|0:0|0:0,0:0:0:0:
188,288,139061,1,0,0:0:0:0:
116,240,139418,2,0,P|111:205|115:170,1,70,8|2,0:0|0:0,0:0:0:0:
168,104,140132,6,0,B|236:100|236:132|305:124,2,140,4|8|2,0:3|0:0|0:0,0:0:0:0:
100,155,141918,2,0,P|96:190|103:224,1,70,2|8,0:0|0:0,0:0:0:0:
232,332,142990,6,0,L|301:328,2,70,4|2|8,0:3|0:0|0:0,0:0:0:0:
76,272,144418,2,0,L|68:132,1,140,2|8,0:0|0:0,0:0:0:0:
152,108,145490,6,2,L|160:248,1,140
219,308,146561,2,0,P|242:281|268:258,1,70,8|4,0:0|0:3,0:0:0:0:
416,336,147632,2,0,P|442:312|464:286,1,70,4|8,0:3|0:0,0:0:0:0:
472,116,148704,6,0,P|374:96|315:176,2,210,4|4|8,0:0|0:3|0:0,0:0:0:0:
500,280,151561,2,0,P|455:307|404:318,2,105,4|4|4,0:0|0:0|0:0,0:0:0:0:
427,128,153347,2,0,P|393:135|365:154,1,70,4|8,0:3|0:0,0:0:0:0:
228,252,154418,6,0,P|130:271|71:191,2,210,4|4|8,0:0|0:3|0:0,0:0:0:0:
256,88,157275,2,0,P|300:60|351:49,2,105,4|4|4,0:0|0:0|0:0,0:0:0:0:
127,195,159061,2,0,L|140:264,1,70,4|8,0:3|0:0,0:0:0:0:
288,340,160132,6,0,P|330:285|395:261,2,140,4|8|2,0:0|0:0|0:0,0:0:0:0:
120,356,162275,2,0,L|51:342,1,70,8|0,0:0|0:0,0:0:0:0:
11,267,162990,2,0,P|1:164|34:65,2,210,4|2|8,0:3|0:0|0:0,0:0:0:0:
160,348,165847,6,0,L|232:340,1,70,4|2,0:3|0:0,0:0:0:0:
276,268,166561,2,0,P|263:199|273:130,2,140,8|2|8,0:0|0:0|0:0,0:0:0:0:
440,308,168704,6,0,P|452:239|442:170,1,140,4|8,0:3|0:0,0:0:0:0:
396,100,169775,2,0,B|327:108|327:76|259:80,1,140,4|4,0:3|0:3,0:0:0:0:
180,112,170847,1,8,0:0:0:0:
36,200,171561,6,0,L|43:269,1,70,4|2,0:3|0:0,0:0:0:0:
100,332,172275,2,0,P|145:279|208:249,2,140,8|2|8,0:0|0:0|0:0,0:0:0:0:
27,180,174418,6,0,P|52:154|82:137,1,70,4|2,0:3|0:0,0:0:0:0:
164,124,175132,2,0,P|195:139|228:149,1,70,8|2,0:0|0:0,0:0:0:0:
304,183,175847,2,0,P|371:167|438:186,2,140,2|8|4,0:0|0:0|0:3,0:0:0:0:
256,192,177632,12,2,181561,0:0:0:0:
256,192,182990,5,2,0:0:0:0:
204,32,192632,6,0,L|214:101,1,70,4|4,0:3|0:3,0:0:0:0:
297,101,193347,2,0,L|308:32,2,70,4|8|4,0:3|0:0|0:3,0:0:0:0:
256,176,194418,6,0,B|248:228|268:264|256:314,2,140,4|8|2,0:0|0:0|0:0,0:0:0:0:
360,43,196561,2,0,P|371:77|390:105,1,70,8|2,0:0|0:0,0:0:0:0:
464,144,197275,6,0,P|476:212|466:281,1,140,4|8,0:3|0:0,0:0:0:0:
392,324,198347,1,4,0:3:0:0:
320,364,198704,2,0,P|292:342|259:330,1,70,2|2,0:0|0:0,0:0:0:0:
176,340,199418,1,8,0:0:0:0:
36,248,200132,6,0,P|28:213|30:179,2,70,4|2|8,0:3|0:0|0:0,0:0:0:0:
176,340,201561,2,0,B|214:291|214:291|214:214,1,140,2|8,0:0|0:0,0:0:0:0:
298,214,202632,6,2,B|298:291|298:291|336:340,1,140
420,330,203704,2,0,P|423:295|418:260,1,70,8|4,0:0|0:3,0:0:0:0:
332,116,204775,2,0,P|327:81|330:46,2,70,4|8|4,0:3|0:0|0:3,0:0:0:0:
380,184,205847,6,0,P|397:251|380:320,1,140,4|8,0:0|0:0,0:0:0:0:
308,360,206918,2,0,B|280:360|264:340|256:320|256:320|248:340|232:360|204:360,1,140,4|4,0:3|0:3,0:0:0:0:
132,320,207990,1,8,0:0:0:0:
52,171,208704,6,0,P|55:119|67:68,2,105,4|4|4,0:0|0:0|0:0,0:0:0:0:
180,284,210490,2,0,P|195:252|219:228,1,70,4|8,0:3|0:0,0:0:0:0:
384,192,211561,6,0,L|372:52,1,140,4|8,0:0|0:0,0:0:0:0:
456,36,212632,2,0,L|467:175,1,140,4|4,0:3|0:3,0:0:0:0:
452,260,213704,1,8,0:0:0:0:
304,332,214418,6,0,P|256:309|204:303,2,105,4|4|4,0:0|0:0|0:0,0:0:0:0:
464,276,216204,2,0,P|444:246|418:223,1,70,4|8,0:3|0:0,0:0:0:0:
256,192,217275,1,4,0:0:0:0:
