osu file format v12

[General]
AudioFilename: 01 When Can I See You Again_.mp3
AudioLeadIn: 0
PreviewTime: -1
Countdown: 1
SampleSet: None
StackLeniency: 0.7
Mode: 0
LetterboxInBreaks: 1

[Editor]
DistanceSpacing: 0.8
BeatDivisor: 4
GridSize: 8

[Metadata]
Title:When Can I See You Again?
TitleUnicode:When Can I See You Again?
Artist:Owl City
ArtistUnicode:Owl City
Creator:Origami_Munchkin
Version:Easy
Source:
Tags:
BeatmapID:266456
BeatmapSetID:100405

[Difficulty]
HPDrainRate:4
CircleSize:2
OverallDifficulty:3
ApproachRate:3
SliderMultiplier:1.4
SliderTickRate:2

[Events]
//Background and Video events
0,0,"pixel-wwod.jpg",0,0
//Break Periods
2,77374,79450
2,141090,145075
//Storyboard Layer 0 (Background)
//Storyboard Layer 1 (Fail)
//Storyboard Layer 2 (Pass)
//Storyboard Layer 3 (Foreground)
//Storyboard Sound Samples
//Background Colour Transformations
3,100,163,162,255

[TimingPoints]
17140,468.75,4,2,0,75,1,0
47140,-100,4,2,0,100,0,1
77140,-100,4,2,0,75,0,0
110890,-100,4,2,0,100,0,1
140890,-100,4,2,0,75,0,0
155655,-100,4,2,0,100,0,1
169015,-100,4,2,0,75,0,0
170890,-100,4,2,0,100,0,1
184015,-100,4,2,0,75,0,0
185890,-100,4,2,0,100,0,1
199015,-100,4,2,0,75,0,0

[Colours]
Combo1 : 255,136,172
Combo2 : 255,160,66
Combo3 : 255,255,128
Combo4 : 54,252,153
Combo5 : 128,128,255
Combo6 : 204,86,254

[HitObjects]
144,104,17140,2,0,B|192:24|256:8|320:24|368:104,1,280
256,120,18546,2,0,B|256:264,1,140
368,276,19483,2,0,B|320:356|256:372|192:356|144:276,1,280
80,192,20890,1,0,0:0:0:0:
192,192,21358,6,0,B|256:240|320:192,1,140
256,96,22296,1,0,0:0:0:0:
352,48,22765,1,0,0:0:0:0:
448,96,23233,1,0,0:0:0:0:
464,208,23702,2,0,B|452:287|373:298,1,140
328,192,24640,6,0,B|184:192,1,140
139,298,25577,2,0,B|59:286|48:207,1,140
48,96,26515,1,0,0:0:0:0:
144,40,26983,1,0,0:0:0:0:
256,56,27452,2,0,B|256:144,2,70
368,40,28390,5,0,0:0:0:0:
464,96,28858,2,0,B|336:184|472:248|344:336,1,280
256,272,30265,1,0,0:0:0:0:
163,333,30733,2,0,B|48:256|168:168|48:96,1,280
48,40,31905,6,0,B|152:16|392:136|472:88,1,420
456,208,33780,2,0,B|432:248|384:288|320:280|272:256,1,210
320,156,34952,2,0,B|292:132|212:132|188:160,1,140
240,256,35890,2,0,B|192:284|116:284|68:236|56:208,1,210
56,40,37296,5,0,0:0:0:0:
168,40,37765,1,0,0:0:0:0:
112,136,38233,2,0,B|176:152|312:112|392:128,1,280
256,192,39640,12,0,41515,0:0:0:0:
256,192,42921,12,0,45265,0:0:0:0:
320,96,45733,6,0,B|288:64|224:64|192:96,2,140
256,184,47140,1,0,0:0:0:0:
144,184,47608,1,0,0:0:0:0:
80,280,48077,2,0,B|112:312|176:312|208:280,1,140
144,184,49015,1,0,0:0:0:0:
224,104,49483,6,0,B|224:32,2,70
304,184,50421,2,0,B|304:272,2,70
376,96,51358,1,0,0:0:0:0:
480,48,51827,1,0,0:0:0:0:
256,304,53233,5,0,0:0:0:0:
168,232,53702,2,0,B|104:192|56:144,1,140
152,80,54640,1,0,0:0:0:0:
256,128,55108,1,0,0:0:0:0:
360,80,55577,1,0,0:0:0:0:
454,145,56046,2,0,B|384:208|344:232,1,140
400,328,56983,5,0,0:0:0:0:
288,328,57452,2,0,B|64:160,1,280
128,64,58858,2,0,B|144:28|216:-16|288:28|304:64,1,210
216,128,60030,2,0,B|200:160|232:240|256:304|224:336,2,210
328,108,61905,1,0,0:0:0:0:
472,192,62608,6,0,B|428:272|288:288,1,210
182,287,63780,1,0,0:0:0:0:
182,174,64249,2,0,B|225:93|366:78,2,210
40,192,66358,6,0,B|83:272|224:288,1,210
330,287,67530,1,0,0:0:0:0:
330,174,67999,2,0,B|286:93|146:78,2,210
164,204,70108,6,0,B|180:284|228:324|322:326,2,210
234,118,71983,1,0,0:0:0:0:
338,78,72452,2,0,B|418:86|450:182,1,140
256,192,73155,12,0,74796,0:0:0:0:
228,168,75265,6,0,B|200:109|129:90,2,105
284,168,76202,6,0,B|311:109|382:90,2,105
256,216,77140,5,0,0:0:0:0:
312,320,80890,6,0,B|388:368|456:334|495:260|447:184,1,280
340,208,82296,2,0,B|256:96,1,140
192,188,83233,1,0,0:0:0:0:
128,96,83702,2,0,B|44:208,1,140
96,312,84640,6,0,B|272:312|384:256,1,280
280,192,86046,2,0,B|200:216|120:212,1,140
196,116,86983,1,0,0:0:0:0:
288,52,87452,1,0,0:0:0:0:
400,52,87921,1,0,0:0:0:0:
372,160,88390,6,0,B|464:180|472:300|384:332|312:280,1,280
200,280,89796,2,0,B|130:343|27:281|52:191|136:162,1,280
256,168,91202,2,0,B|256:80,2,70
360,136,92140,1,0,0:0:0:0:
456,192,92608,5,0,0:0:0:0:
456,304,93077,2,0,B|392:384|272:224|192:312,1,280
96,256,94483,1,0,0:0:0:0:
72,144,94952,2,0,B|88:88|144:40|200:56,1,140
224,53,95655,6,0,B|368:45|440:157|432:277|360:349,1,420
296,256,97530,2,0,B|80:288,1,210
72,176,98702,2,0,B|224:176,1,140
296,96,99640,2,0,B|80:64,1,210
88,232,101046,5,0,0:0:0:0:
176,296,101515,1,0,0:0:0:0:
288,280,101983,2,0,B|367:268|378:189,1,140
272,168,102921,1,0,0:0:0:0:
256,192,103390,12,0,105265,0:0:0:0:
256,192,106671,12,0,109015,0:0:0:0:
112,192,109483,5,0,0:0:0:0:
176,104,109952,2,0,B|209:61|245:45|304:40,1,140
280,160,110890,1,0,0:0:0:0:
368,224,111358,1,0,0:0:0:0:
472,272,111827,2,0,B|438:314|402:330|344:336,1,140
256,272,112765,5,0,0:0:0:0:
160,335,113233,2,0,B|64:328|24:245,1,140
140,224,114171,2,0,B|208:100,1,140
312,56,115108,1,0,0:0:0:0:
416,100,115577,1,0,0:0:0:0:
464,200,116046,1,0,0:0:0:0:
240,184,116983,6,0,B|326:167|400:248|328:336|240:320,1,280
152,256,118390,1,0,0:0:0:0:
112,152,118858,1,0,0:0:0:0:
176,56,119327,2,0,B|352:48|440:128,1,280
352,192,120733,1,0,0:0:0:0:
440,256,121202,6,0,B|377:332|248:312|208:200,1,280
240,104,122608,1,0,0:0:0:0:
128,128,123077,2,0,B|72:248|168:320,2,210
176,24,124952,2,0,B|267:92|211:212,1,210
96,336,126358,6,0,L|192:336,1,70
272,304,127061,1,0,0:0:0:0:
320,200,127530,1,0,0:0:0:0:
432,176,127999,2,0,B|420:97|320:56|256:104,2,210
416,336,130108,6,0,L|320:336,1,70
240,304,130811,1,0,0:0:0:0:
192,200,131280,1,0,0:0:0:0:
80,176,131749,2,0,B|92:97|192:56|256:104,2,210
192,296,133858,6,0,L|280:296,1,70
228,188,134561,2,0,B|205:108|267:46|346:69,1,210
336,180,135733,1,0,0:0:0:0:
356,292,136202,2,0,B|401:292|446:246|446:201,1,140
256,192,136905,12,0,138546,0:0:0:0:
256,164,139015,6,0,B|228:105|157:86,2,105
256,220,139952,6,0,B|283:279|354:298,2,105
256,164,140890,5,0,0:0:0:0:
256,192,146515,12,0,147921,0:0:0:0:
88,188,148624,6,0,P|192:64|244:68,1,210
200,172,149796,2,0,P|228:236|320:252,1,140
308,148,150733,1,0,0:0:0:0:
328,40,151202,2,0,P|392:68|408:160,1,140
412,188,151905,1,0,0:0:0:0:
352,280,152374,6,0,P|212:312|160:280,1,210
256,216,153546,2,0,L|256:120,1,70
352,80,154249,2,0,P|212:48|160:80,1,210
152,192,155421,1,0,0:0:0:0:
128,240,155655,6,0,B|196:334|288:368|432:336|480:224,1,420
384,168,157530,2,0,P|276:216|208:168,1,210
296,100,158702,2,0,L|296:24,2,70
192,48,159640,2,0,P|116:116|96:224,1,210
256,280,161046,5,0,0:0:0:0:
256,168,161515,1,0,0:0:0:0:
304,72,161983,2,0,P|360:127|360:184,1,140
256,168,162921,1,0,0:0:0:0:
144,152,163390,2,0,L|224:352,1,210
368,264,164796,5,0,0:0:0:0:
456,192,165265,1,0,0:0:0:0:
456,80,165733,2,0,P|400:24|344:32,1,140
360,144,166671,1,0,0:0:0:0:
256,192,167140,12,0,168546,0:0:0:0:
228,192,169015,6,0,L|100:192,2,105
284,192,169952,6,0,L|412:192,2,105
256,144,170890,5,0,0:0:0:0:
164,84,171358,6,0,P|256:20|392:16,1,210
332,120,172530,1,0,0:0:0:0:
440,92,172999,2,0,P|420:202|326:301,2,210,0|0|0,0:0|0:0|0:0,0:0:0:0:
284,156,175108,6,0,L|184:156,1,70
108,192,175811,1,0,0:0:0:0:
56,292,176280,1,0,0:0:0:0:
156,344,176749,2,0,L|384:344,2,210
264,216,178858,6,0,L|320:160,1,70
328,56,179561,2,0,P|392:80|424:144,1,140
440,256,180499,2,0,P|256:336|64:256,1,420
220,196,182608,6,0,L|292:196,1,70
256,88,183311,2,0,L|112:88,1,140
400,304,185890,5,0,0:0:0:0:
400,192,186358,2,0,P|376:136|304:120,1,140
296,232,187296,1,0,0:0:0:0:
192,264,187765,1,0,0:0:0:0:
104,200,188233,6,0,L|20:73,1,140
140,90,189171,1,0,0:0:0:0:
227,166,189640,2,0,L|236:14,1,140
320,104,190577,1,0,0:0:0:0:
416,40,191046,1,0,0:0:0:0:
464,144,191515,1,0,0:0:0:0:
416,248,191983,5,0,0:0:0:0:
312,296,192452,2,0,L|240:360,2,70
312,184,193390,2,0,P|272:144|192:128,1,140
200,240,194327,2,0,P|88:184|104:40,1,280
322,45,196202,6,0,L|378:101,1,70
256,192,196905,12,0,198546,0:0:0:0:
232,176,199015,6,0,P|256:112|288:96,2,105
280,208,199952,6,0,P|256:272|224:288,2,105
336,184,200890,5,0,0:0:0:0:
