osu file format v12

[General]
AudioFilename: owl was here.mp3
AudioLeadIn: 0
PreviewTime: 45700
Countdown: 0
SampleSet: Normal
StackLeniency: 0.7
Mode: 0
LetterboxInBreaks: 0
WidescreenStoryboard: 0

[Editor]
DistanceSpacing: 1.2
BeatDivisor: 4
GridSize: 4

[Metadata]
Title:When Can I See You Again?
TitleUnicode:When Can I See You Again?
Artist:Owl City
ArtistUnicode:Owl City
Creator:Aleks719
Version:Next year!
Source:Wreck-It Ralph
Tags:adam young electronic synthpop disney pixar IceBeam Reiji-RJ
BeatmapID:266885
BeatmapSetID:100610

[Difficulty]
HPDrainRate:7
CircleSize:4
OverallDifficulty:7
ApproachRate:8
SliderMultiplier:1.7
SliderTickRate:1

[Events]
//Background and Video events
0,0,"ralph.png",0,0
//Break Periods
2,77346,79442
2,141096,146474
//Storyboard Layer 0 (Background)
//Storyboard Layer 1 (Fail)
//Storyboard Layer 2 (Pass)
//Storyboard Layer 3 (Foreground)
//Storyboard Sound Samples
//Background Colour Transformations
3,100,0,0,0

[TimingPoints]
2146,468.75,4,1,1,60,1,0
45622,-100,4,1,1,45,0,0
45856,-100,4,1,1,60,0,0
47146,-100,4,1,1,60,0,1
75153,-100,4,1,1,45,0,1
77146,-100,4,1,1,60,0,0
109372,-100,4,1,1,45,0,0
109606,-100,4,1,1,60,0,0
110896,-100,4,1,1,60,0,1
138903,-100,4,1,1,45,0,1
140896,-100,4,1,1,60,0,0
155896,-100,4,1,1,60,0,1
156013,-100,4,1,1,60,0,0
168903,-100,4,1,1,45,0,0
170896,-100,4,1,1,60,0,1
184021,-100,4,1,1,45,0,0
184138,-100,4,1,1,60,0,0
185896,-100,4,1,1,60,0,1
198786,-100,4,1,1,45,0,1
200896,-100,4,1,1,60,0,0

[Colours]
Combo1 : 62,193,160
Combo2 : 232,232,0
Combo3 : 0,128,255
Combo4 : 255,53,58

[HitObjects]
256,192,13396,12,8,16677,0:0:0:0:
96,148,17146,5,4,0:0:0:0:
192,176,17380,2,0,P|236:168|268:140,1,85
336,68,17849,2,0,P|380:76|412:104,1,85
426,206,18317,1,0,0:0:0:0:
328,233,18552,1,0,0:0:0:0:
272,147,18786,1,0,0:0:0:0:
336,68,19021,6,0,P|432:56|496:88,1,170
296,320,19958,2,0,P|200:332|136:300,1,170
284,128,20896,1,0,0:0:0:0:
248,224,21130,5,0,0:0:0:0:
152,260,21364,1,0,0:0:0:0:
52,244,21599,2,0,P|40:204|52:160,1,85
12,68,22067,2,0,L|96:56,1,85
196,40,22536,1,0,0:0:0:0:
296,24,22771,5,0,0:0:0:0:
96,56,23239,1,0,0:0:0:0:
352,104,23708,1,0,0:0:0:0:
64,136,24177,1,0,0:0:0:0:
64,136,24411,2,0,P|80:176|72:224,1,85,0|2,0:0|0:2,0:0:0:0:
48,368,24880,6,0,P|32:328|40:280,1,85,0|0,0:0|0:0,0:0:0:0:
176,268,25349,2,0,P|192:308|184:356,1,85,0|0,0:0|0:0,0:0:0:0:
132,196,25817,2,0,P|116:156|124:108,2,85
220,144,26521,5,2,0:2:0:0:
320,136,26755,1,0,0:0:0:0:
412,176,26989,1,0,0:0:0:0:
480,252,27224,1,0,0:0:0:0:
412,176,27458,6,0,P|404:136|416:88,1,85,2|0,0:2|0:0,0:0:0:0:
420,200,27927,1,0,0:0:0:0:
220,144,28161,2,0,P|228:184|216:232,1,85,2|0,0:2|0:0,0:0:0:0:
124,184,28630,5,0,0:0:0:0:
136,84,28864,1,0,0:0:0:0:
220,144,29099,1,0,0:0:0:0:
324,152,29333,1,2,0:2:0:0:
268,240,29567,2,0,P|260:280|272:324,1,85
424,356,30036,2,0,P|432:316|420:272,1,85,2|0,0:2|0:0,0:0:0:0:
372,184,30505,5,0,0:0:0:0:
356,84,30739,1,0,0:0:0:0:
384,188,30974,1,0,0:0:0:0:
272,76,31208,1,0,0:0:0:0:
396,192,31442,2,0,L|452:180,2,42.5,0|0|0,0:0|0:0|0:0,0:0:0:0:
252,168,31911,2,0,P|224:200|184:208,1,85,2|0,0:2|0:0,0:0:0:0:
72,200,32380,5,0,0:0:0:0:
72,200,32497,1,0,0:0:0:0:
72,200,32614,1,0,0:0:0:0:
0,272,32849,1,2,0:2:0:0:
100,292,33083,1,0,0:0:0:0:
188,344,33317,2,0,L|156:376,2,42.5,2|0|0,0:2|0:0|0:0,0:0:0:0:
288,308,33786,6,0,P|372:336|444:300,1,170,2|0,0:2|0:0,0:0:0:0:
480,208,34489,2,0,P|456:172|452:128,1,85
384,40,34958,1,0,0:0:0:0:
340,144,35192,2,0,L|296:152,2,42.5,2|0|0,0:2|0:0|0:0,0:0:0:0:
320,272,35661,1,0,0:0:0:0:
192,276,35896,6,0,P|152:260|108:256,1,85,2|0,0:2|0:0,0:0:0:0:
88,260,36247,1,0,0:0:0:0:
68,268,36364,1,0,0:0:0:0:
76,164,36599,1,0,0:0:0:0:
156,104,36833,1,0,0:0:0:0:
256,112,37067,1,0,0:0:0:0:
256,112,37185,1,0,0:0:0:0:
256,112,37302,1,0,0:0:0:0:
364,64,37536,6,0,P|392:140|376:228,1,170,2|0,0:2|0:0,0:0:0:0:
164,308,38239,2,0,P|156:264|168:224,1,85
336,228,38708,2,0,P|301:256|261:266,1,85
180,124,39177,2,0,P|222:139|250:169,1,85,8|0,0:0|0:0,0:0:0:0:
344,332,39646,5,4,0:0:0:0:
8,232,40349,1,2,0:2:0:0:
8,232,41052,2,0,P|48:216|76:184,1,85,0|2,0:0|0:2,0:0:0:0:
256,88,41755,1,2,0:2:0:0:
356,72,41989,1,0,0:0:0:0:
448,116,42224,2,0,P|476:196|456:276,1,170,2|0,0:2|0:0,0:0:0:0:
364,320,42927,5,0,0:0:0:0:
264,304,43161,2,0,B|212:272|152:296|100:260,1,170,2|0,0:2|0:0,0:0:0:0:
72,164,43864,1,0,0:0:0:0:
164,204,44099,2,0,B|199:254|175:314|207:366,1,170,2|0,0:2|0:0,0:0:0:0:
312,368,44802,1,0,0:0:0:0:
408,328,45036,2,0,B|376:276|400:216|364:165,1,170,2|0,0:2|0:0,0:0:0:0:
256,72,45739,5,8,0:0:0:0:
356,52,45974,1,0,3:0:0:0:
248,156,46208,1,0,3:0:0:0:
136,136,46442,1,0,3:0:0:0:
264,240,46677,1,0,3:0:0:0:
388,220,46911,1,0,3:0:0:0:
256,324,47146,6,0,P|220:344|176:340,1,85
156,328,47497,1,0,0:0:0:0:
140,308,47614,1,8,0:2:0:0:
176,212,47849,1,0,0:0:0:0:
268,168,48083,2,0,P|288:132|284:88,1,85,0|0,0:0|0:0,0:0:0:0:
272,68,48435,1,0,0:0:0:0:
252,52,48552,1,8,0:2:0:0:
148,44,48786,2,0,P|104:52|64:40,2,85,2|0|2,0:2|0:0|0:2,0:0:0:0:
252,52,49489,5,8,0:2:0:0:
336,108,49724,2,0,P|376:124|424:120,1,85,2|0,0:2|0:0,0:0:0:0:
444,228,50192,2,0,P|404:212|356:216,1,85,0|8,0:0|0:2,0:0:0:0:
384,316,50661,2,0,P|424:332|472:328,1,85
444,228,51130,5,0,0:0:0:0:
428,208,51247,1,0,0:0:0:0:
408,192,51364,1,8,0:2:0:0:
308,164,51599,1,0,0:0:0:0:
208,184,51833,1,2,0:2:0:0:
148,268,52067,2,0,L|96:280,2,42.5,0|0|8,0:0|0:0|0:2,0:0:0:0:
252,276,52536,1,2,0:2:0:0:
208,184,52771,2,0,P|176:152|168:112,1,85,0|2,0:0|0:2,0:0:0:0:
328,88,53239,5,10,0:2:0:0:
336,80,53474,1,2,0:2:0:0:
344,72,53708,2,0,L|432:52,1,85,2|2,0:2|0:2,0:0:0:0:
232,32,54177,2,0,L|144:52,1,85,10|0,0:2|0:0,0:0:0:0:
92,160,54646,5,4,0:0:0:0:
24,84,54880,1,0,0:0:0:0:
4,208,55114,2,0,P|8:248|0:292,1,85,8|0,0:2|0:0,0:0:0:0:
88,348,55583,2,0,P|84:308|92:264,1,85
132,168,56052,2,0,P|136:128|128:84,2,85,8|2|0,0:2|0:2|0:0,0:0:0:0:
196,248,56755,1,2,0:2:0:0:
296,276,56989,1,8,0:2:0:0:
396,248,57224,1,2,0:2:0:0:
456,164,57458,5,0,0:0:0:0:
416,68,57692,1,0,0:0:0:0:
396,56,57810,1,0,0:0:0:0:
376,44,57927,1,8,0:2:0:0:
300,112,58161,2,0,P|224:144|140:124,1,170,2|2,0:2|0:2,0:0:0:0:
120,112,58747,1,0,0:0:0:0:
104,92,58864,1,8,0:2:0:0:
192,36,59099,2,0,P|232:24|276:28,1,85,2|0,0:2|0:0,0:0:0:0:
368,170,59567,6,0,P|372:128|352:92,1,85,0|8,0:0|0:2,0:0:0:0:
240,160,60036,2,0,P|220:200|228:240,1,85
296,348,60505,6,0,L|208:368,1,85,0|8,0:0|0:2,0:0:0:0:
64,272,60974,2,0,L|152:288,2,85
16,128,61677,2,0,L|100:112,1,85,8|0,0:0|0:0,0:0:0:0:
212,88,62146,1,4,0:0:0:0:
500,60,62614,5,8,0:2:0:0:
500,60,62849,2,0,P|476:136|504:224,1,170
424,288,63552,2,0,P|436:328|424:372,2,85,8|0|0,0:2|0:0|0:0,0:0:0:0:
284,204,64255,6,0,P|324:208|368:200,2,85,2|8|0,0:2|0:2|0:0,0:0:0:0:
196,132,64958,2,0,P|156:124|112:136,1,85,2|0,0:2|0:0,0:0:0:0:
68,240,65427,1,8,0:2:0:0:
68,240,65661,2,0,P|110:249|150:241,1,85,0|2,0:0|0:2,0:0:0:0:
396,164,66364,5,8,0:2:0:0:
396,164,66599,2,0,P|416:96|340:96,1,170
260,160,67302,1,8,0:2:0:0:
160,144,67536,1,0,0:0:0:0:
104,60,67771,1,0,0:0:0:0:
160,144,68005,5,2,0:2:0:0:
152,244,68239,1,8,0:2:0:0:
84,320,68474,2,0,L|-4:336,1,85,2|0,0:2|0:0,0:0:0:0:
152,360,68942,2,0,L|240:344,1,85,0|8,0:0|0:2,0:0:0:0:
388,360,69411,2,0,L|300:376,1,85
340,280,69880,6,0,P|320:244|324:200,1,85,0|8,0:0|0:2,0:0:0:0:
384,116,70349,1,0,0:0:0:0:
484,112,70583,1,0,0:0:0:0:
440,204,70817,2,0,P|460:240|456:284,1,85,0|8,0:0|0:2,0:0:0:0:
388,360,71286,2,0,B|328:376|276:352|276:352|216:360,1,170,2|2,0:2|0:2,0:0:0:0:
120,336,71989,1,8,0:2:0:0:
32,284,72224,1,2,0:2:0:0:
12,184,72458,6,0,B|20:140|20:140|16:100,2,85,0|0|8,0:0|0:0|0:2,0:0:0:0:
108,216,73161,2,0,P|184:172|264:200,1,170,2|0,0:2|0:0,0:0:0:0:
192,272,73864,1,8,0:2:0:0:
100,192,74099,2,0,P|176:148|256:176,1,170,2|0,0:2|0:0,0:0:0:0:
348,244,74802,1,8,0:2:0:0:
448,232,75036,1,0,0:0:0:0:
356,196,75271,6,0,P|348:256|384:308,2,127.5,2|2|0,0:0|0:0|0:0,0:0:0:0:
448,232,76208,2,0,P|456:172|420:120,2,127.5,2|2|0,0:0|0:0|0:0,0:0:0:0:
332,368,77146,1,6,0:0:0:0:
360,60,80192,5,2,0:2:0:0:
368,68,80310,1,2,0:2:0:0:
376,76,80427,1,8,0:2:0:0:
468,124,80661,1,2,0:2:0:0:
296,120,80896,1,4,0:0:0:0:
332,216,81130,6,0,P|300:240|256:252,1,85
176,316,81599,2,0,P|132:308|100:280,1,85
86,178,82067,1,0,0:0:0:0:
184,151,82302,1,0,0:0:0:0:
240,237,82536,1,0,0:0:0:0:
176,316,82771,6,0,P|80:328|16:296,1,170,0|2,0:0|0:2,0:0:0:0:
184,152,83708,2,0,P|280:140|344:172,1,170,0|2,0:0|0:2,0:0:0:0:
384,300,84411,1,0,0:0:0:0:
344,172,84646,1,0,0:0:0:0:
248,264,84880,5,0,0:0:0:0:
44,244,85114,2,0,P|32:284|40:328,1,85
156,364,85583,2,0,L|144:276,1,85
108,184,86052,1,0,0:0:0:0:
24,108,86286,1,0,0:0:0:0:
132,72,86521,5,2,0:2:0:0:
380,312,86989,1,0,0:0:0:0:
48,116,87458,1,2,0:2:0:0:
508,324,87927,1,0,0:0:0:0:
420,256,88161,2,0,P|404:216|412:168,1,85,0|4,0:0|0:0,0:0:0:0:
452,28,88630,6,0,P|468:68|460:116,1,85,0|0,0:0|0:0,0:0:0:0:
340,124,89099,2,0,P|324:84|332:36,1,85,0|0,0:0|0:0,0:0:0:0:
384,196,89567,2,0,P|400:236|392:284,2,85
292,248,90271,5,0,0:0:0:0:
192,256,90505,1,0,0:0:0:0:
100,212,90739,1,0,0:0:0:0:
36,132,90974,1,0,0:0:0:0:
100,212,91208,6,0,P|108:252|96:300,1,85,2|0,0:2|0:0,0:0:0:0:
40,380,91677,1,2,0:2:0:0:
60,136,91911,2,0,P|100:128|148:140,1,85,0|2,0:0|0:2,0:0:0:0:
388,200,92380,5,0,0:0:0:0:
376,300,92614,1,0,0:0:0:0:
292,240,92849,1,0,0:0:0:0:
388,200,93083,1,0,0:0:0:0:
480,240,93317,2,0,P|488:200|476:156,1,85
248,72,93786,2,0,P|240:112|252:156,1,85
344,108,94255,5,2,0:2:0:0:
248,72,94489,1,0,0:0:0:0:
148,84,94724,1,0,0:0:0:0:
76,156,94958,1,2,0:2:0:0:
64,256,95192,2,0,L|24:272,2,42.5,0|0|2,0:0|0:0|0:2,0:0:0:0:
156,300,95661,2,0,B|220:272|220:272|232:248,1,85,0|2,0:0|0:2,0:0:0:0:
264,164,96130,5,0,0:0:0:0:
264,164,96247,1,0,0:0:0:0:
264,164,96364,1,0,0:0:0:0:
356,120,96599,1,0,0:0:0:0:
452,160,96833,1,0,0:0:0:0:
464,260,97067,2,0,L|512:236,2,42.5
368,300,97536,6,0,B|316:292|276:320|276:320|240:348|208:344,1,170,2|0,0:2|0:0,0:0:0:0:
108,316,98239,1,0,0:0:0:0:
44,236,98474,2,0,P|40:192|16:156,1,85,0|2,0:0|0:2,0:0:0:0:
140,176,98942,2,0,L|160:84,2,85,0|2|0,0:0|0:2|0:0,0:0:0:0:
108,316,99646,6,0,P|188:328|256:276,1,170,2|0,0:2|0:0,0:0:0:0:
300,184,100349,2,0,P|372:232|456:216,1,170,2|0,0:2|0:0,0:0:0:0:
472,208,100935,1,0,0:0:0:0:
492,192,101052,1,0,0:0:0:0:
396,120,101286,6,0,P|324:80|232:92,1,170,2|0,0:2|0:0,0:0:0:0:
224,272,101989,2,0,P|216:228|228:188,1,85,2|0,0:2|0:0,0:0:0:0:
396,192,102458,2,0,P|361:220|321:230,1,85,2|0,0:2|0:0,0:0:0:0:
240,88,102927,2,0,P|282:103|310:133,1,85,8|0,0:0|0:0,0:0:0:0:
368,308,103396,5,4,0:0:0:0:
512,128,104099,1,2,0:2:0:0:
512,128,104802,2,0,P|472:144|444:176,1,85,0|2,0:0|0:2,0:0:0:0:
256,296,105505,1,2,0:2:0:0:
156,312,105739,1,0,0:0:0:0:
64,268,105974,2,0,P|36:188|56:108,1,170,2|0,0:2|0:0,0:0:0:0:
140,48,106677,5,0,0:0:0:0:
212,120,106911,2,0,B|232:180|280:204|300:264,1,170,2|0,0:2|0:0,0:0:0:0:
376,192,107614,1,0,0:0:0:0:
300,120,107849,2,0,B|280:180|232:204|212:264,1,170,2|0,0:2|0:0,0:0:0:0:
136,192,108552,1,0,0:0:0:0:
52,112,108786,2,0,B|-4:192|50:270,1,170,2|0,0:2|0:0,0:0:0:0:
256,312,109489,5,8,0:0:0:0:
356,332,109724,1,0,3:0:0:0:
248,228,109958,1,0,3:0:0:0:
136,248,110192,1,0,3:0:0:0:
264,144,110427,1,0,3:0:0:0:
388,164,110661,1,0,3:0:0:0:
256,60,110896,6,0,P|220:40|176:44,1,85
156,56,111247,1,0,0:0:0:0:
140,76,111364,1,8,0:2:0:0:
176,172,111599,1,0,0:0:0:0:
268,216,111833,2,0,P|288:252|284:296,1,85,0|0,0:0|0:0,0:0:0:0:
272,316,112185,1,0,0:0:0:0:
252,332,112302,1,8,0:2:0:0:
148,340,112536,2,0,P|104:332|64:344,2,85,2|0|2,0:2|0:0|0:2,0:0:0:0:
252,332,113239,5,8,0:2:0:0:
340,280,113474,2,0,P|380:264|428:268,1,85,2|0,0:2|0:0,0:0:0:0:
476,352,113942,2,0,P|436:368|388:364,1,85,0|8,0:0|0:2,0:0:0:0:
292,200,114411,2,0,P|324:172|364:164,1,85
476,220,114880,5,0,0:0:0:0:
460,240,114997,1,0,0:0:0:0:
440,256,115114,1,8,0:2:0:0:
340,280,115349,1,0,0:0:0:0:
240,276,115583,2,0,B|200:260|200:260|156:264,1,85
68,308,116052,1,8,0:2:0:0:
148,368,116286,1,2,0:2:0:0:
140,224,116521,2,0,P|148:184|180:152,1,85,0|2,0:0|0:2,0:0:0:0:
292,64,116989,5,10,0:2:0:0:
300,56,117224,1,2,0:2:0:0:
308,48,117458,2,0,L|328:136,1,85,2|2,0:2|0:2,0:0:0:0:
408,328,117927,2,0,L|388:240,1,85,10|0,0:2|0:0,0:0:0:0:
284,216,118396,1,0,0:0:0:0:
208,148,118630,1,0,0:0:0:0:
115,101,118864,6,0,P|104:144|112:184,1,85,8|0,0:2|0:0,0:0:0:0:
152,358,119333,2,0,P|164:316|156:276,1,85
48,264,119802,2,0,P|37:307|45:347,2,85,8|2|0,0:2|0:2|0:0,0:0:0:0:
100,164,120505,1,2,0:2:0:0:
204,120,120739,1,8,0:2:0:0:
312,152,120974,1,2,0:2:0:0:
396,228,121208,6,0,P|436:240|480:228,1,85,0|0,0:0|0:0,0:0:0:0:
436,132,121677,1,8,0:2:0:0:
396,256,121911,2,0,P|352:324|268:336,1,170,2|2,0:2|0:2,0:0:0:0:
284,240,122614,1,8,0:2:0:0:
320,144,122849,2,0,P|280:128|240:136,1,85,2|0,0:2|0:0,0:0:0:0:
112,312,123317,6,0,P|92:276|96:232,1,85,0|8,0:0|0:2,0:0:0:0:
172,164,123786,2,0,P|192:128|188:84,1,85
28,128,124255,6,0,L|120:104,1,85,0|8,0:0|0:2,0:0:0:0:
296,52,124724,2,0,L|212:20,2,85
472,116,125427,2,0,L|388:144,1,85,8|4,0:0|0:0,0:0:0:0:
264,184,125896,1,4,0:0:0:0:
52,352,126364,5,8,0:2:0:0:
52,352,126599,2,0,P|105:293|117:201,1,170
100,104,127302,2,0,P|106:62|135:27,2,85,8|0|0,0:2|0:0|0:0,0:0:0:0:
280,144,128005,6,0,P|240:148|196:140,1,85,0|8,0:0|0:2,0:0:0:0:
248,44,128474,2,0,P|288:40|332:48,1,85
424,92,128942,1,0,0:0:0:0:
480,176,129177,2,0,B|488:200|488:200|476:236|476:236|456:252,2,85,8|0|2,0:2|0:0|0:2,0:0:0:0:
120,172,130114,5,8,0:2:0:0:
120,172,130349,2,0,P|84:236|160:224,1,170
252,224,131052,1,8,0:2:0:0:
352,240,131286,1,0,0:0:0:0:
408,324,131521,1,0,0:0:0:0:
352,240,131755,5,2,0:2:0:0:
360,140,131989,1,8,0:2:0:0:
428,64,132224,2,0,B|472:64|472:64|516:48,1,85,2|0,0:2|0:0,0:0:0:0:
360,24,132692,2,0,B|320:40|320:40|272:40,1,85,0|8,0:0|0:2,0:0:0:0:
112,40,133161,2,0,B|152:24|152:24|200:24,1,85
272,104,133630,1,0,0:0:0:0:
300,212,133864,6,0,P|292:256|260:280,1,85,8|0,0:2|0:2,0:0:0:0:
136,300,134333,1,0,0:0:0:0:
40,216,134567,2,0,L|124:164,1,85,0|8,0:0|0:2,0:0:0:0:
208,112,135036,2,0,B|264:84|316:96|316:96|380:112,1,170,2|2,0:2|0:2,0:0:0:0:
480,144,135739,1,8,0:2:0:0:
384,180,135974,1,2,0:2:0:0:
496,216,136208,6,0,B|500:260|500:260|492:300,2,85,0|0|8,0:0|0:0|0:2,0:0:0:0:
404,268,136911,2,0,P|336:312|248:288,1,170,2|0,0:2|0:0,0:0:0:0:
320,216,137614,1,8,0:2:0:0:
382,139,137849,2,0,P|300:120|232:164,1,170,2|0,0:2|0:0,0:0:0:0:
156,232,138552,1,8,0:2:0:0:
56,224,138786,1,0,0:0:0:0:
116,140,139021,6,0,P|124:80|88:28,2,127.5,2|2|0,0:0|0:0|0:0,0:0:0:0:
156,232,139958,2,0,P|148:292|184:344,2,127.5,2|2|0,0:0|0:0|0:0,0:0:0:0:
256,84,140896,1,6,0:0:0:0:
420,304,147224,5,0,0:0:0:0:
424,296,147341,1,0,0:0:0:0:
428,288,147458,1,8,0:2:0:0:
360,204,147692,1,2,0:2:0:0:
368,84,147927,1,8,0:0:0:0:
60,96,148630,5,0,0:0:0:0:
60,96,148864,1,0,0:0:0:0:
52,200,149099,1,0,0:0:0:0:
52,200,149333,1,2,0:2:0:0:
116,276,149567,2,0,P|152:256|200:252,1,85,0|0,0:0|0:0,0:0:0:0:
296,276,150036,1,0,0:0:0:0:
380,336,150271,6,0,P|456:312|472:228,2,170,2|0|0,0:2|0:0|0:0,0:0:0:0:
296,276,151442,1,0,0:0:0:0:
192,280,151677,1,0,0:0:0:0:
104,224,151911,2,0,P|116:180|108:136,1,85,2|0,0:2|0:0,0:0:0:0:
8,92,152380,6,0,P|-4:136|4:180,1,85
44,268,152849,1,0,0:0:0:0:
136,308,153083,1,0,0:0:0:0:
236,288,153317,1,0,0:0:0:0:
296,204,153552,1,0,0:0:0:0:
268,108,153786,1,2,0:2:0:0:
388,276,154255,6,0,B|432:272|432:272|468:292,2,85
288,248,154958,1,0,0:0:0:0:
198,198,155192,1,0,0:0:0:0:
218,98,155427,1,8,0:0:0:0:
319,85,155661,1,0,0:0:0:0:
364,180,155896,6,0,P|388:256|360:344,1,170,4|8,0:0|0:2,0:0:0:0:
149,340,156599,2,0,P|124:256|148:180,1,170
216,100,157302,1,8,0:2:0:0:
316,88,157536,6,0,P|343:56|355:13,1,85,0|0,0:0|0:0,0:0:0:0:
355,172,158005,2,0,P|386:199|429:211,1,85,0|8,0:0|0:2,0:0:0:0:
270,203,158474,2,0,P|242:234|230:277,1,85,0|0,0:0|0:0,0:0:0:0:
230,118,158942,1,0,0:0:0:0:
230,118,159177,2,0,P|198:90|155:78,1,85,8|0,0:2|0:0,0:0:0:0:
56,100,159646,6,0,B|48:152|66:188|66:188|88:228|80:272,1,170,0|8,0:0|0:2,0:0:0:0:
172,312,160349,2,0,P|180:224|152:144,1,170,0|0,0:0|0:0,0:0:0:0:
144,48,161052,1,8,0:2:0:0:
240,80,161286,5,0,0:0:0:0:
340,56,161521,1,0,0:0:0:0:
340,156,161755,1,2,0:2:0:0:
436,184,161989,1,8,0:2:0:0:
364,256,162224,2,0,L|440:296,1,85,2|0,0:2|0:0,0:0:0:0:
300,320,162692,2,0,L|212:320,1,85,0|8,0:0|0:2,0:0:0:0:
72,296,163161,6,0,L|148:256,1,85,2|0,0:2|0:0,0:0:0:0:
236,208,163630,2,0,P|256:168|252:128,1,85,0|8,0:0|0:2,0:0:0:0:
124,104,164099,2,0,P|104:144|108:184,1,85,0|0,0:0|0:0,0:0:0:0:
164,268,164567,1,2,0:2:0:0:
244,332,164802,2,0,B|288:336|288:336|328:328,1,85,8|2,0:2|0:2,0:0:0:0:
348,320,165505,5,2,0:2:0:0:
292,236,165739,1,8,0:2:0:0:
292,132,165974,1,2,0:2:0:0:
352,52,166208,2,0,B|396:48|396:48|436:56,2,85,0|0|8,0:0|0:0|0:2,0:0:0:0:
252,44,166911,1,0,0:0:0:0:
180,116,167146,6,0,P|188:200|136:268,1,170,2|0,0:2|0:0,0:0:0:0:
52,320,167849,2,0,P|132:288|212:304,1,170,2|0,0:2|0:0,0:0:0:0:
308,336,168552,1,8,0:2:0:0:
408,316,168786,1,0,0:0:0:0:
456,224,169021,6,0,P|448:164|484:112,2,127.5,2|2|0,0:0|0:0|0:0,0:0:0:0:
352,224,169958,2,0,P|360:164|324:112,2,127.5,2|2|0,0:0|0:0|0:0,0:0:0:0:
404,80,170896,1,6,0:0:0:0:
108,80,171364,5,8,0:2:0:0:
184,148,171599,1,0,0:0:0:0:
280,180,171833,2,0,P|276:224|244:256,1,85,0|0,0:0|0:0,0:0:0:0:
152,280,172302,1,8,0:2:0:0:
56,248,172536,2,0,P|29:218|25:174,1,85,2|0,0:2|0:0,0:0:0:0:
204,184,173005,5,2,0:2:0:0:
280,252,173239,1,8,0:2:0:0:
388,240,173474,2,0,P|428:224|476:228,1,85,2|0,0:2|0:0,0:0:0:0:
496,352,173942,2,0,P|456:368|408:364,1,85,0|8,0:0|0:2,0:0:0:0:
240,336,174411,2,0,P|280:320|328:324,1,85,2|0,0:2|0:0,0:0:0:0:
344,332,175114,5,8,0:2:0:0:
280,252,175349,1,0,0:0:0:0:
180,244,175583,2,0,B|136:248|136:248|96:232,1,85
4,192,176052,1,8,0:2:0:0:
152,132,176286,2,0,P|192:132|232:112,1,85,2|0,0:2|0:0,0:0:0:0:
172,36,176755,5,0,0:0:0:0:
76,68,176989,1,8,0:2:0:0:
52,168,177224,1,2,0:2:0:0:
104,256,177458,2,0,L|124:340,1,85,2|0,0:2|0:2,0:0:0:0:
224,348,177927,1,8,0:2:0:0:
320,312,178161,1,0,0:0:0:0:
420,328,178396,1,2,0:2:0:0:
155,97,178864,6,0,P|144:140|152:180,1,85,8|0,0:2|0:0,0:0:0:0:
224,348,179333,2,0,P|236:306|228:266,1,85
112,288,179802,2,0,P|69:299|29:291,2,85,8|2|0,0:2|0:2|0:0,0:0:0:0:
156,184,180505,5,2,0:2:0:0:
248,120,180739,1,8,0:2:0:0:
360,136,180974,1,2,0:2:0:0:
432,224,181208,1,0,0:0:0:0:
420,336,181442,2,0,L|476:364,2,42.5,0|0|8,0:0|0:0|0:2,0:0:0:0:
316,292,181911,2,0,B|272:284|232:308|232:308|192:316|152:292,1,170,2|2,0:2|0:2,0:0:0:0:
64,240,182614,5,8,0:2:0:0:
60,136,182849,2,0,P|44:96|48:52,1,85,2|0,0:2|0:0,0:0:0:0:
143,125,183317,2,0,P|139:167|160:204,1,85,0|8,0:0|0:2,0:0:0:0:
256,276,183786,2,0,P|236:240|240:196,1,85,0|4,0:0|0:2,0:0:0:0:
460,204,184255,6,0,P|388:248|312:220,1,170,2|0,0:2|3:0,0:0:0:0:
208,136,184958,1,0,3:0:0:0:
72,60,185192,1,2,3:3:0:0:
76,76,185310,1,2,3:3:0:0:
80,92,185427,1,2,3:3:0:0:
52,216,185661,1,2,3:2:0:0:
176,332,185896,5,4,0:0:0:0:
428,100,186364,1,8,0:2:0:0:
324,108,186599,1,0,0:0:0:0:
264,192,186833,2,0,P|244:228|248:272,1,85,0|0,0:0|0:0,0:0:0:0:
348,252,187302,1,8,0:2:0:0:
428,100,187536,2,0,P|460:68|468:28,2,85,2|0|2,0:2|0:0|0:2,0:0:0:0:
324,108,188239,5,8,0:2:0:0:
236,56,188474,2,0,P|196:40|148:44,1,85,2|0,0:2|0:0,0:0:0:0:
100,128,188942,2,0,P|140:144|188:140,1,85,0|8,0:0|0:2,0:0:0:0:
164,244,189411,2,0,P|124:228|76:232,1,85,2|0,0:2|0:0,0:0:0:0:
108,332,189880,5,0,0:0:0:0:
124,352,189997,1,0,0:0:0:0:
144,368,190114,1,8,0:2:0:0:
248,364,190349,1,0,0:0:0:0:
320,292,190583,2,0,B|360:284|360:284|408:292,1,85
500,324,191052,1,8,0:2:0:0:
296,300,191286,2,0,P|252:304|212:284,1,85,2|0,0:2|0:0,0:0:0:0:
128,192,191755,5,2,0:2:0:0:
124,180,191989,1,10,0:2:0:0:
120,168,192224,1,2,0:2:0:0:
116,156,192458,2,0,L|28:136,1,85,0|2,0:0|0:2,0:0:0:0:
176,304,192927,2,0,L|196:216,1,85,8|0,0:2|0:0,0:0:0:0:
220,120,193396,1,2,0:2:0:0:
477,83,193864,6,0,P|434:72|394:80,1,85,8|0,0:2|0:0,0:0:0:0:
220,120,194333,2,0,P|262:132|302:124,1,85
388,184,194802,2,0,P|399:227|391:267,2,85,8|2|0,0:2|0:2|0:0,0:0:0:0:
300,124,195505,1,2,0:2:0:0:
196,140,195739,1,8,0:2:0:0:
92,120,195974,1,2,0:2:0:0:
28,252,196208,6,0,P|52:284|96:300,2,85,0|0|8,0:0|0:0|0:2,0:0:0:0:
116,200,196911,2,0,P|204:184|272:224,1,170,2|2,0:2|0:2,0:0:0:0:
340,300,197614,1,8,0:2:0:0:
180,272,197849,2,0,P|164:196|196:104,1,170,2|2,0:2|0:2,0:0:0:0:
248,24,198552,1,8,0:2:0:0:
420,136,199021,5,2,0:0:0:0:
448,336,199372,1,2,0:0:0:0:
316,184,199724,1,0,0:0:0:0:
196,184,199958,1,2,0:0:0:0:
64,336,200310,1,2,0:0:0:0:
92,136,200661,1,0,0:0:0:0:
92,136,200896,5,6,0:0:0:0:
360,232,201364,1,0,0:0:0:0:
152,232,201833,1,0,0:0:0:0:
420,136,202302,1,0,0:0:0:0:
256,280,202771,1,0,0:0:0:0:
168,156,203005,6,0,P|184:116|176:76,1,85,2|0,0:2|0:0,0:0:0:0:
256,208,203474,1,2,0:2:0:0:
256,208,203708,2,0,L|256:120,1,85,0|2,0:0|0:2,0:0:0:0:
344,156,204177,2,0,P|328:116|336:76,1,85,0|0,0:0|0:0,0:0:0:0:
436,108,204646,5,0,0:0:0:0:
296,376,205114,1,0,0:0:0:0:
255,76,205583,1,0,0:0:0:0:
465,291,206052,1,0,0:0:0:0:
166,238,206521,1,0,0:0:0:0:
88,164,206755,6,0,P|92:120|76:80,1,85,2|0,0:2|0:0,0:0:0:0:
60,260,207224,2,0,P|56:304|72:344,1,85,2|0,0:2|0:0,0:0:0:0:
156,288,207692,1,2,0:2:0:0:
256,268,207927,1,0,0:0:0:0:
356,288,208161,1,0,0:0:0:0:
440,340,208396,1,12,0:0:0:0:
