osu file format v12

[General]
AudioFilename: owl was here.mp3
AudioLeadIn: 0
PreviewTime: 45700
Countdown: 0
SampleSet: Normal
StackLeniency: 0.7
Mode: 0
LetterboxInBreaks: 0
WidescreenStoryboard: 1

[Editor]
DistanceSpacing: 0.9
BeatDivisor: 2
GridSize: 4

[Metadata]
Title:When Can I See You Again?
TitleUnicode:When Can I See You Again?
Artist:Owl City
ArtistUnicode:Owl City
Creator:Aleks719
Version:Next week!
Source:Wreck-It Ralph
Tags:adam young electronic synthpop disney pixar IceBeam Reiji-RJ
BeatmapID:285884
BeatmapSetID:100610

[Difficulty]
HPDrainRate:4
CircleSize:3
OverallDifficulty:4
ApproachRate:5
SliderMultiplier:1.2
SliderTickRate:1

[Events]
//Background and Video events
0,0,"ralph.png",0,0
//Break Periods
2,77346,79696
2,141096,146521
//Storyboard Layer 0 (Background)
//Storyboard Layer 1 (Fail)
//Storyboard Layer 2 (Pass)
//Storyboard Layer 3 (Foreground)
//Storyboard Sound Samples
//Background Colour Transformations
3,100,0,0,0

[TimingPoints]
2146,468.75,4,1,1,60,1,0
47146,-100,4,1,1,60,0,1
75036,-100,4,1,1,45,0,1
77146,-100,4,1,1,60,0,0
110896,-100,4,1,1,60,0,1
138786,-100,4,1,1,45,0,1
140896,-100,4,1,1,60,0,0
155896,-100,4,1,1,60,0,1
156013,-100,4,1,1,60,0,0
168786,-100,4,1,1,45,0,0
170896,-100,4,1,1,60,0,1
184021,-100,4,1,1,60,0,0
185896,-100,4,1,1,60,0,1
200896,-100,4,1,1,60,0,0

[Colours]
Combo1 : 62,193,160
Combo2 : 232,232,0
Combo3 : 0,128,255
Combo4 : 255,53,58

[HitObjects]
256,192,13396,12,8,16677,0:1:0:0:
76,140,17146,6,0,P|136:120|184:144,1,120,0|0,0:0|0:0,0:0:0:0:
256,228,18083,2,0,P|304:252|364:232,1,120,0|0,0:0|0:0,0:0:0:0:
444,160,19021,2,0,P|432:100|448:40,2,120
472,264,20427,1,0,0:0:0:0:
400,344,20896,5,0,0:0:0:0:
292,336,21364,1,0,0:0:0:0:
184,348,21833,2,0,P|128:368|72:336,1,120
52,308,22536,1,0,0:0:0:0:
44,268,22771,5,0,0:0:0:0:
68,164,23239,2,0,P|80:104|72:40,2,120
152,232,24646,5,2,0:2:0:0:
220,148,25114,2,0,L|208:88,2,60
312,204,26052,1,0,0:0:0:0:
352,220,26286,1,0,0:0:0:0:
396,220,26521,5,0,0:0:0:0:
484,156,26989,1,0,0:0:0:0:
388,108,27458,2,0,P|368:84|340:72,1,60
300,68,27927,1,0,0:0:0:0:
260,84,28161,2,0,P|208:108|144:100,1,120,2|0,0:2|0:0,0:0:0:0:
108,84,28864,5,0,0:0:0:0:
48,176,29333,1,0,0:0:0:0:
92,276,29802,1,0,0:0:0:0:
92,276,30036,2,0,P|152:272|200:304,1,120,2|0,0:2|0:0,0:0:0:0:
224,340,30739,2,0,B|272:344|272:344|288:336|288:336|348:340,2,120
200,304,31911,6,0,P|188:204|284:236,1,240,2|2,0:2|0:2,0:0:0:0:
344,328,33317,1,2,0:2:0:0:
344,328,33786,6,0,P|396:356|456:340,1,120,2|0,0:2|0:0,0:0:0:0:
484,312,34489,2,0,B|496:260|496:260|488:228|496:192,2,120
396,248,35896,5,2,0:2:0:0:
364,144,36364,1,0,0:0:0:0:
364,144,36599,2,0,P|320:104|260:108,1,120,2|2,0:2|0:2,0:0:0:0:
176,168,37536,6,0,P|116:160|76:116,1,120,2|0,0:2|0:0,0:0:0:0:
52,84,38239,1,2,0:2:0:0:
156,48,38708,1,2,0:2:0:0:
264,60,39177,1,8,0:0:0:0:
304,76,39411,1,0,0:0:0:0:
348,76,39646,5,4,0:0:0:0:
256,212,40349,1,2,0:2:0:0:
164,76,41052,2,0,L|104:92,1,60,0|2,0:0|0:2,0:0:0:0:
96,200,41755,2,0,L|156:184,1,60,2|0,0:2|0:0,0:0:0:0:
196,176,42224,6,0,P|224:228|212:288,1,120,2|2,0:2|0:2,0:0:0:0:
192,320,42927,1,0,0:0:0:0:
152,336,43161,1,2,0:2:0:0:
256,192,43396,12,8,45739,0:0:0:0:
104,284,47146,5,4,0:0:0:0:
204,320,47614,1,8,0:2:0:0:
308,320,48083,1,0,0:0:0:0:
408,284,48552,1,8,0:2:0:0:
408,284,48786,2,0,P|416:220|456:180,1,120,2|2,0:2|0:2,0:0:0:0:
488,156,49489,6,0,P|452:112|392:100,1,120,8|0,0:2|0:0,0:0:0:0:
300,160,50427,1,8,0:2:0:0:
260,148,50661,1,2,0:2:0:0:
228,120,50896,1,2,0:2:0:0:
132,72,51364,1,8,0:2:0:0:
108,176,51833,6,0,P|100:240|76:292,1,120,2|8,0:2|0:2,0:0:0:0:
56,328,52536,2,0,B|96:336|144:316|180:324,1,120,2|2,0:2|0:2,0:0:0:0:
216,332,53239,5,8,0:2:0:0:
256,344,53474,1,2,0:2:0:0:
296,356,53708,2,0,P|348:324|408:328,1,120,0|8,0:0|0:2,0:0:0:0:
504,372,54646,5,0,0:0:0:0:
464,272,55114,1,8,0:2:0:0:
488,168,55583,1,0,0:0:0:0:
448,68,56052,1,8,0:2:0:0:
448,68,56286,6,0,P|392:48|328:56,1,120,2|2,0:2|0:2,0:0:0:0:
292,72,56989,2,0,P|236:92|172:84,2,120,8|0|8,0:2|0:0|0:2,0:0:0:0:
332,56,58161,6,0,P|360:140|344:228,1,180,2|8,0:2|0:2,0:0:0:0:
324,264,59099,2,0,B|284:272|256:308|256:308|216:316,2,120,0|2|2,0:0|0:2|0:2,0:0:0:0:
344,372,60505,6,0,L|404:356,2,60,2|8|2,0:2|0:2|0:2,0:0:0:0:
300,368,61208,2,0,P|244:372|180:352,1,120,2|8,0:2|0:0,0:0:0:0:
92,296,62146,5,4,0:0:0:0:
64,192,62614,1,8,0:2:0:0:
64,192,62849,2,0,P|84:136|72:72,2,120,2|0|2,0:2|0:0|0:2,0:0:0:0:
168,224,64255,5,2,0:2:0:0:
168,224,64489,2,0,B|224:248|224:248|284:240,1,120,8|0,0:2|0:0,0:0:0:0:
324,232,65192,2,0,P|368:276|372:332,1,120,2|2,0:2|0:2,0:0:0:0:
244,228,66364,5,8,0:2:0:0:
244,228,66599,2,0,P|224:172|236:108,2,120,2|0|0,0:2|0:0|0:0,0:0:0:0:
332,164,68005,5,2,0:2:0:0:
332,164,68239,2,0,P|352:220|340:284,1,120,8|0,0:2|0:0,0:0:0:0:
328,320,68942,2,0,L|204:332,1,120,2|2,0:2|0:2,0:0:0:0:
48,344,70114,5,8,0:2:0:0:
48,344,70349,2,0,P|20:292|24:232,1,120,2|0,0:2|0:0,0:0:0:0:
100,152,71286,2,0,P|160:156|216:136,2,120,2|0|0,0:2|0:0|0:0,0:0:0:0:
60,136,72458,6,0,L|0:128,2,60,0|2|8,0:0|0:2|0:2,0:0:0:0:
64,180,73161,2,0,P|56:272|120:328,1,180,2|8,0:2|0:2,0:0:0:0:
156,336,74099,2,0,B|204:312|256:320|256:320|300:328|336:316,1,180,0|8,0:0|0:2,0:0:0:0:
404,236,75271,6,0,L|504:216,2,90,2|2|0,0:0|0:0|0:0,0:0:0:0:
368,196,76208,2,0,L|388:96,2,90,2|2|0,0:0|0:0|0:0,0:0:0:0:
312,192,77146,1,6,0:0:0:0:
216,208,80896,5,4,0:0:0:0:
312,268,81364,2,0,L|368:304,1,60
400,320,81833,2,0,P|436:272|428:212,1,120
352,136,82771,6,0,P|316:184|324:244,1,120
388,328,83708,2,0,L|512:340,1,120
476,176,84880,6,0,L|484:112,2,60
468,220,85583,2,0,B|408:228|408:228|352:208,1,120
312,196,86286,1,0,0:0:0:0:
272,184,86521,6,0,P|216:172|156:196,1,120
224,284,87458,2,0,P|280:296|340:272,1,120,0|0,0:0|0:0,0:0:0:0:
420,204,88396,6,0,L|448:144,1,60
340,124,89099,2,0,L|328:64,1,60
224,92,89802,2,0,L|180:40,2,60,0|0|0,0:0|0:0|0:0,0:0:0:0:
200,204,90739,5,0,0:0:0:0:
116,280,91208,2,0,P|136:304|164:316,1,60
204,320,91677,1,0,0:0:0:0:
244,312,91911,2,0,P|300:332|356:316,1,120,2|0,0:2|0:0,0:0:0:0:
392,292,92614,5,0,0:0:0:0:
304,224,93083,2,0,P|284:168|292:104,1,120
312,72,93786,2,0,L|192:56,1,120,2|0,0:2|0:0,0:0:0:0:
152,52,94489,2,0,B|104:40|68:64|68:64|32:64,1,120
120,132,95427,1,0,0:0:0:0:
120,132,95661,6,0,P|108:244|216:276,1,240,2|2,0:2|0:2,0:0:0:0:
304,224,97067,1,2,0:2:0:0:
304,332,97536,6,0,P|268:368|200:376,1,120,2|0,0:2|0:0,0:0:0:0:
160,368,98239,2,0,B|148:316|148:316|156:284|148:248,2,120
56,340,99646,5,2,0:2:0:0:
24,236,100114,1,0,0:0:0:0:
24,236,100349,2,0,P|16:172|36:120,1,120,2|0,0:2|0:0,0:0:0:0:
144,116,101286,6,0,P|208:120|264:96,1,120,2|0,0:2|0:0,0:0:0:0:
296,80,101989,1,2,0:2:0:0:
380,12,102458,1,2,0:2:0:0:
400,120,102927,1,8,0:0:0:0:
384,160,103161,1,0,0:0:0:0:
384,204,103396,5,4,0:0:0:0:
228,240,104099,1,2,0:2:0:0:
132,104,104802,2,0,L|192:120,1,60,0|2,0:0|0:2,0:0:0:0:
184,232,105505,2,0,L|124:216,1,60,2|0,0:2|0:0,0:0:0:0:
84,208,105974,6,0,P|56:260|68:320,1,120,2|2,0:2|0:2,0:0:0:0:
92,352,106677,1,0,0:0:0:0:
132,364,106911,1,2,0:2:0:0:
256,192,107146,12,8,109489,0:0:0:0:
348,344,110896,5,4,0:0:0:0:
384,244,111364,1,8,0:2:0:0:
384,140,111833,1,0,0:0:0:0:
348,40,112302,1,8,0:2:0:0:
348,40,112536,2,0,P|296:64|232:56,1,120,2|2,0:2|0:2,0:0:0:0:
196,44,113239,6,0,P|152:80|140:140,1,120,8|0,0:2|0:0,0:0:0:0:
248,144,114177,1,8,0:2:0:0:
252,188,114411,1,2,0:2:0:0:
236,228,114646,1,2,0:2:0:0:
160,304,115114,1,8,0:2:0:0:
264,332,115583,6,0,P|324:320|384:344,1,120,2|8,0:2|0:2,0:0:0:0:
412,364,116286,2,0,B|420:324|400:276|408:240,1,120,2|2,0:2|0:2,0:0:0:0:
416,204,116989,5,8,0:2:0:0:
444,172,117224,1,2,0:2:0:0:
484,156,117458,2,0,P|496:104|464:48,1,120,0|8,0:0|0:2,0:0:0:0:
356,32,118396,5,0,0:0:0:0:
256,76,118864,1,8,0:2:0:0:
156,32,119333,1,0,0:0:0:0:
256,76,119802,1,8,0:2:0:0:
256,76,120036,6,0,P|236:132|244:196,1,120,2|2,0:2|0:2,0:0:0:0:
256,232,120739,2,0,P|276:288|268:352,2,120,8|0|8,0:2|0:0|0:2,0:0:0:0:
244,192,121911,6,0,P|324:156|416:180,1,180,2|8,0:2|0:2,0:0:0:0:
444,204,122849,2,0,B|452:252|484:272|484:272|492:316,2,120,0|2|2,0:0|0:2|0:2,0:0:0:0:
476,100,124255,6,0,L|460:40,2,60,2|8|2,0:2|0:2|0:2,0:0:0:0:
488,140,124958,2,0,P|436:160|372:152,1,120,2|8,0:2|0:0,0:0:0:0:
272,108,125896,5,4,0:0:0:0:
180,52,126364,1,8,0:2:0:0:
180,52,126599,2,0,B|128:40|128:40|96:52|60:44,2,120,2|0|2,0:2|0:0|0:2,0:0:0:0:
176,160,128005,5,2,0:2:0:0:
176,160,128239,2,0,B|152:216|152:216|160:276,1,120,8|0,0:2|0:0,0:0:0:0:
168,316,128942,2,0,P|112:336|48:324,1,120,2|2,0:2|0:2,0:0:0:0:
216,292,130114,5,8,0:2:0:0:
216,292,130349,2,0,P|272:312|336:300,2,120,2|0|2,0:2|0:0|0:2,0:0:0:0:
184,188,131755,5,2,0:2:0:0:
184,188,131989,2,0,P|128:168|64:180,1,120,8|0,0:2|0:0,0:0:0:0:
28,196,132692,2,0,L|8:72,1,120,2|2,0:2|0:2,0:0:0:0:
172,96,133864,5,8,0:2:0:0:
172,96,134099,2,0,L|296:76,1,120,2|0,0:2|0:0,0:0:0:0:
388,124,135036,2,0,P|396:60|368:4,2,120,2|0|0,0:2|0:0|0:0,0:0:0:0:
372,164,136208,6,0,L|404:224,2,60,0|2|8,0:0|0:2|0:2,0:0:0:0:
328,164,136911,2,0,P|236:172|176:232,1,180,2|8,0:2|0:2,0:0:0:0:
156,268,137849,2,0,B|132:220|140:168|140:168|148:124|136:88,1,180,2|8,0:2|0:2,0:0:0:0:
36,132,139021,6,0,L|16:32,2,90,2|2|0,0:0|0:0|0:0,0:0:0:0:
48,184,139958,2,0,L|28:284,2,90,2|2|0,0:0|0:0|0:0,0:0:0:0:
36,132,140896,1,6,0:0:0:0:
240,52,147927,5,8,0:1:0:0:
352,176,148630,6,0,L|404:132,2,60
316,200,149333,2,0,L|192:208,1,120,2|0,0:2|0:0,0:0:0:0:
204,316,150271,6,0,L|328:308,2,120,0|0|2,0:0|0:0|0:2,0:0:0:0:
160,320,151442,1,0,0:0:0:0:
116,320,151677,2,0,L|64:284,1,60,0|2,0:0|0:2,0:0:0:0:
80,180,152380,6,0,L|64:120,1,60
84,84,152849,1,0,0:0:0:0:
108,48,153083,1,2,0:2:0:0:
216,44,153552,2,0,L|280:48,1,60,0|2,0:0|0:2,0:0:0:0:
380,112,154255,6,0,L|444:116,2,60,2|0|0,0:2|0:0|0:0,0:0:0:0:
340,128,154958,2,0,P|348:188|332:248,1,120,2|8,0:2|0:0,0:0:0:0:
268,332,155896,5,4,0:0:0:0:
160,336,156364,1,0,0:0:0:0:
160,336,156599,2,0,P|104:328|72:276,1,120
68,236,157302,1,0,0:0:0:0:
76,196,157536,5,2,0:2:0:0:
120,96,158005,2,0,L|184:76,1,60,0|0,0:0|0:0,0:0:0:0:
216,64,158474,1,0,0:0:0:0:
256,52,158708,2,0,P|312:68|376:60,1,120,2|0,0:2|0:0,0:0:0:0:
364,168,159646,6,0,P|308:152|244:160,1,120,2|0,0:2|0:0,0:0:0:0:
208,176,160349,1,2,0:2:0:0:
100,308,161052,1,2,0:2:0:0:
100,308,161286,2,0,P|156:324|220:316,1,120,0|2,0:0|0:2,0:0:0:0:
256,304,161989,5,2,0:2:0:0:
296,296,162224,1,2,0:2:0:0:
336,304,162458,1,2,0:2:0:0:
372,324,162692,2,0,P|432:344|488:324,1,120,2|2,0:2|0:2,0:0:0:0:
512,296,163396,2,0,P|492:216|508:128,1,180,4|2,0:0|0:2,0:0:0:0:
372,40,164802,6,0,B|308:32,1,60,0|2,0:0|0:2,0:0:0:0:
204,56,165505,2,0,B|140:48,2,60,0|0|2,0:0|0:0|0:2,0:0:0:0:
244,72,166208,2,0,P|268:128|256:188,1,120,0|2,0:0|0:2,0:0:0:0:
232,220,166911,1,0,0:0:0:0:
192,240,167146,6,0,P|92:216|60:152,1,180,2|2,0:2|0:2,0:0:0:0:
164,140,168317,1,0,0:0:0:0:
164,140,168552,1,2,0:2:0:0:
264,184,169021,6,0,P|304:168|352:176,2,90,2|2|0,0:0|0:0|0:0,0:0:0:0:
236,216,169958,2,0,P|220:256|228:304,2,90,2|2|2,0:0|0:0|0:2,0:0:0:0:
220,176,170896,1,6,0:0:0:0:
172,80,171364,5,10,0:2:0:0:
172,80,171599,2,0,B|132:80|108:60|108:60|76:56|56:68,2,120,2|0|0,0:2|0:0|0:0,0:0:0:0:
280,96,173005,5,2,0:2:0:0:
280,96,173239,2,0,B|316:92|352:108|352:108|376:120|400:116,1,120,10|0,0:2|0:0,0:0:0:0:
436,104,173942,2,0,P|456:160|448:224,1,120,2|2,0:2|0:2,0:0:0:0:
380,364,175114,6,0,L|320:360,1,60,8|2,0:2|0:2,0:0:0:0:
220,320,175817,1,0,0:0:0:0:
112,336,176286,1,2,0:2:0:0:
8,372,176755,5,2,0:2:0:0:
8,372,176989,2,0,P|28:316|20:256,1,120,8|0,0:2|0:0,0:0:0:0:
8,216,177692,2,0,L|28:96,1,120,2|2,0:2|0:2,0:0:0:0:
188,124,178864,5,8,0:2:0:0:
188,124,179099,2,0,P|248:144|276:192,1,120,2|0,0:2|0:0,0:0:0:0:
368,248,180036,1,2,0:2:0:0:
272,300,180505,5,2,0:2:0:0:
272,300,180739,2,0,L|156:272,1,120,8|2,0:2|0:2,0:0:0:0:
116,256,181442,1,0,0:0:0:0:
84,228,181677,1,0,0:0:0:0:
60,192,181911,1,2,0:2:0:0:
204,120,182614,5,8,0:2:0:0:
204,120,182849,2,0,B|276:128|316:88,1,120,2|2,0:2|0:2,0:0:0:0:
414,82,183786,2,0,L|396:24,1,60,2|4,0:2|0:3,0:0:0:0:
98,82,185192,6,0,L|116:24,2,60,2|2|0,0:2|0:2|0:0,0:0:0:0:
84,124,185896,5,4,0:0:0:0:
100,232,186364,1,8,0:2:0:0:
180,308,186833,1,0,0:0:0:0:
284,340,187302,1,8,0:2:0:0:
284,340,187536,2,0,P|344:340|388:296,1,120,2|2,0:2|0:2,0:0:0:0:
404,264,188239,5,8,0:2:0:0:
408,224,188474,1,2,0:2:0:0:
400,184,188708,2,0,P|388:128|428:76,1,120,0|8,0:0|0:2,0:0:0:0:
464,68,189411,1,0,0:0:0:0:
504,84,189646,5,0,0:0:0:0:
500,192,190114,1,8,0:2:0:0:
492,300,190583,2,0,P|448:340|384:344,1,120,0|8,0:0|0:2,0:0:0:0:
348,332,191286,1,2,0:2:0:0:
252,280,191755,5,2,0:2:0:0:
212,268,191989,1,8,0:2:0:0:
168,268,192224,1,2,0:2:0:0:
128,276,192458,2,0,B|68:304|12:264,1,120,0|8,0:0|0:2,0:0:0:0:
80,180,193396,6,0,L|64:56,2,120,0|8|0,0:0|0:2|0:0,0:0:0:0:
188,180,194802,2,0,L|248:192,1,60,8|2,0:2|0:2,0:0:0:0:
224,84,195505,2,0,L|164:72,1,60,2|8,0:2|0:2,0:0:0:0:
64,112,196208,6,0,L|4:100,2,60,2|0|8,0:2|0:0|0:2,0:0:0:0:
256,192,196911,12,2,199021,0:1:0:0:
364,304,199958,5,2,0:0:0:0:
148,304,200896,1,6,0:0:0:0:
132,196,201364,5,0,0:0:0:0:
200,108,201833,1,0,0:0:0:0:
312,108,202302,1,0,0:0:0:0:
380,196,202771,1,0,0:0:0:0:
392,236,203005,5,2,0:2:0:0:
404,276,203239,2,0,P|444:328|500:344,2,120,0|2|0,0:0|0:2|0:0,0:0:0:0:
504,236,204646,5,0,0:0:0:0:
432,156,205114,1,0,0:0:0:0:
332,112,205583,2,0,P|376:72|368:8,2,120,2|0|0,0:2|0:0|0:0,0:0:0:0:
292,128,206755,5,0,0:0:0:0:
252,128,206989,2,0,P|192:124|136:144,1,120,2|2,0:2|0:2,0:0:0:0:
44,204,207927,1,0,0:0:0:0:
24,240,208161,1,0,0:0:0:0:
20,280,208396,1,12,0:0:0:0:
