osu file format v14

[General]
AudioFilename: 02 - Up All Night.mp3
AudioLeadIn: 0
PreviewTime: 134981
Countdown: 0
SampleSet: Soft
StackLeniency: 0.7
Mode: 0
LetterboxInBreaks: 0
WidescreenStoryboard: 1

[Editor]
DistanceSpacing: 1
BeatDivisor: 4
GridSize: 4
TimelineZoom: 2.1

[Metadata]
Title:Up All Night
TitleUnicode:Up All Night
Artist:Owl City
ArtistUnicode:Owl City
Creator:FrostxE
Version:Insane
Source:
Tags:Ultraviolet Frostmourne Adam Young
BeatmapID:676636
BeatmapSetID:301802

[Difficulty]
HPDrainRate:7
CircleSize:4
OverallDifficulty:8
ApproachRate:9
SliderMultiplier:3.4
SliderTickRate:1

[Events]
//Background and Video events
0,0,"bg.jpg",0,0
//Break Periods
2,157804,167495
//Storyboard Layer 0 (Background)
//Storyboard Layer 1 (Fail)
//Storyboard Layer 2 (Pass)
//Storyboard Layer 3 (Foreground)
//Storyboard Sound Samples

[TimingPoints]
227,655.737704918033,4,2,1,85,1,0
2849,-100,4,2,1,10,0,0
5472,-133.333333333333,4,2,1,20,0,0
6784,-133.333333333333,4,2,1,25,0,0
8095,-133.333333333333,4,2,1,45,0,0
9407,-133.333333333333,4,2,1,60,0,0
10063,-100,4,2,1,80,0,0
21374,-100,4,2,1,40,0,0
31702,-100,4,2,1,60,0,0
42194,-100,4,2,1,80,0,1
63177,-100,4,2,1,80,0,0
73669,-100,4,2,1,40,0,0
84161,-100,4,2,1,60,0,0
93997,-100,4,2,1,80,0,0
94653,-100,4,2,1,80,0,1
115636,-100,4,2,1,80,0,0
168095,-133.333333333333,4,2,1,60,0,0
177931,-100,4,2,1,80,0,0
178587,-100,4,2,1,80,0,1
199571,-100,4,2,1,60,0,0

[Colours]
Combo1 : 255,0,0
Combo2 : 143,91,253
Combo3 : 63,203,243
Combo4 : 118,192,5
Combo5 : 255,255,0
Combo6 : 249,181,23

[HitObjects]
256,192,2849,12,0,5145,0:0:0:0:
68,56,5472,6,0,L|171:157,1,127.500004863739
297,245,5964,1,0,0:0:0:0:
221,292,6128,1,0,0:0:0:0:
217,202,6292,1,0,0:0:0:0:
297,245,6456,1,0,0:0:0:0:
51,38,6784,6,0,L|154:139,1,127.500004863739
319,247,7276,1,0,0:0:0:0:
207,312,7440,1,0,0:0:0:0:
204,183,7604,1,0,0:0:0:0:
319,247,7767,1,0,0:0:0:0:
31,17,8095,6,0,L|134:118,1,127.500004863739
348,249,8587,1,0,0:0:0:0:
193,336,8751,1,0,0:0:0:0:
188,155,8915,1,0,0:0:0:0:
348,249,9079,1,0,0:0:0:0:
288,88,9407,5,2,0:0:0:0:
214,269,9571,1,8,0:0:0:0:
288,88,9735,1,0,0:0:0:0:
214,269,9899,1,2,0:0:0:0:
196,100,10063,2,0,L|160:92,14,21.25,12|0|0|0|0|0|0|0|0|0|0|0|0|0|0,0:0|0:0|0:0|0:0|0:0|0:0|0:0|0:0|0:0|0:0|0:0|0:0|0:0|0:0|0:0,0:0:0:0:
196,100,10718,6,0,L|215:271,1,170,6|2,0:0|0:0,0:0:0:0:
304,272,11210,1,2,0:0:0:0:
355,204,11374,2,0,P|383:239|383:299,1,85,8|0,0:0|0:0,0:0:0:0:
214,268,11702,5,2,0:0:0:0:
214,268,11866,1,2,0:0:0:0:
278,348,12030,2,0,B|314:320|302:264,1,85,2|0,0:0|0:0,0:0:0:0:
196,100,12358,1,2,0:0:0:0:
162,208,12522,1,2,0:0:0:0:
162,208,12686,2,0,B|68:191|25:116,1,170,8|0,0:0|0:0,0:0:0:0:
112,40,13177,5,2,0:0:0:0:
112,40,13341,2,0,L|200:16,1,85,2|0,0:0|0:0,0:0:0:0:
280,32,13669,1,2,0:0:0:0:
280,32,13833,1,2,0:0:0:0:
427,66,13997,2,0,L|344:88,1,85,8|0,0:0|0:0,0:0:0:0:
472,144,14325,5,2,0:0:0:0:
472,144,14489,1,2,0:0:0:0:
392,168,14653,2,0,L|380:272,1,85,2|0,0:0|0:0,0:0:0:0:
472,272,14981,2,0,L|460:376,1,85,2|2,0:0|0:0,0:0:0:0:
288,328,15308,2,0,L|298:243,1,85,8|0,0:0|0:0,0:0:0:0:
312,64,15636,2,0,P|356:66|405:90,1,85,0|2,0:0|0:0,0:0:0:0:
392,168,15964,6,0,L|308:157,1,85,2|0,0:0|0:0,0:0:0:0:
136,128,16292,1,2,0:0:0:0:
136,128,16456,1,2,0:0:0:0:
216,160,16620,2,0,B|252:248|188:328,1,170,8|2,0:0|0:0,0:0:0:0:
112,328,17112,1,2,0:0:0:0:
35,203,17276,2,0,L|40:288,1,85,2|0,0:0|0:0,0:0:0:0:
304,272,17604,5,2,0:0:0:0:
304,272,17767,1,2,0:0:0:0:
264,368,17931,2,0,L|349:368,1,85,8|0,0:0|0:0,0:0:0:0:
472,280,18259,2,0,L|376:280,1,85,0|2,0:0|0:0,0:0:0:0:
272,152,18587,6,0,B|218:71|125:69,1,170,2|2,0:0|0:0,0:0:0:0:
54,110,19079,1,2,0:0:0:0:
54,110,19243,2,0,B|38:302,1,170,8|2,0:0|0:0,0:0:0:0:
160,352,19735,1,2,0:0:0:0:
208,272,19899,6,0,P|173:261|112:272,1,85,2|0,0:0|0:0,0:0:0:0:
160,352,20227,1,2,0:0:0:0:
160,352,20390,1,2,0:0:0:0:
288,320,20554,2,0,P|299:285|288:224,1,85,12|0,0:0|0:0,0:0:0:0:
192,88,20882,2,0,P|181:123|192:184,1,85,0|2,0:0|0:0,0:0:0:0:
272,136,21210,1,6,0:0:0:0:
28,336,21538,6,0,B|-20:260|16:172|16:172,2,170,0|8|0,0:0|0:0|0:0,0:0:0:0:
112,348,22358,1,2,0:0:0:0:
112,348,22522,2,0,B|168:348|168:348|216:328|216:328|296:328,1,170,0|2,0:0|0:0,0:0:0:0:
500,280,23177,2,0,L|396:280,1,85,8|0,0:0|0:0,0:0:0:0:
340,236,23505,1,0,0:0:0:0:
484,196,23669,2,0,L|392:172,1,85,0|2,0:0|0:0,0:0:0:0:
307,129,23997,1,0,0:0:0:0:
248,44,24161,2,0,B|336:48|420:32,1,170,0|8,0:0|0:0,0:0:0:0:
260,144,24817,5,0,0:0:0:0:
260,144,24981,2,0,B|172:148|88:132,1,170,2|0,0:0|0:0,0:0:0:0:
40,224,25472,2,0,P|81:230|136:228,1,85,2|0,0:0|0:0,0:0:0:0:
248,240,25800,2,0,P|223:274|180:306,1,85,8|0,0:0|0:0,0:0:0:0:
337,243,26128,2,0,L|368:328,1,85
264,360,26456,1,2,0:0:0:0:
488,208,26784,6,0,B|520:120|472:40|472:40,2,170,0|8|0,0:0|0:0|0:0,0:0:0:0:
404,225,27604,1,2,0:0:0:0:
404,225,27767,2,0,L|312:189,1,85
294,274,28095,2,0,L|374:304,1,85,2|0,0:0|0:0,0:0:0:0:
240,208,28423,2,0,B|140:224|116:316|116:316,1,170,8|0,0:0|0:0,0:0:0:0:
116,312,28915,1,0,0:0:0:0:
45,359,29079,6,0,P|32:319|44:269,2,85,2|0|0,0:0|0:0|0:0,0:0:0:0:
45,359,29571,1,0,0:0:0:0:
216,360,29735,1,8,0:0:0:0:
188,90,30063,5,0,0:0:0:0:
274,86,30227,2,0,P|266:128|238:162,1,85,2|0,0:0|0:0,0:0:0:0:
108,132,30554,2,0,L|104:20,1,85,0|2,0:0|0:0,0:0:0:0:
360,96,30882,1,0,0:0:0:0:
188,90,31046,1,8,0:0:0:0:
472,20,31374,2,0,B|528:104|472:180|472:180,1,170,0|2,0:0|0:0,0:0:0:0:
256,308,32030,6,0,L|244:204,1,85
340,276,32358,2,0,L|350:360,1,85,8|0,0:0|0:0,0:0:0:0:
340,276,32686,1,0,0:0:0:0:
256,308,32849,1,2,0:0:0:0:
416,236,33013,2,0,P|384:200|332:192,1,85
449,314,33341,2,0,L|416:236,1,85,2|0,0:0|0:0,0:0:0:0:
284,72,33669,2,0,L|268:176,1,85,8|0,0:0|0:0,0:0:0:0:
284,72,33997,2,0,P|324:80|372:104,1,85
180,188,34325,6,0,L|209:4,1,170,2|0,0:0|0:0,0:0:0:0:
207,20,34817,1,2,0:0:0:0:
104,88,34981,1,8,0:0:0:0:
344,180,35308,5,0,0:0:0:0:
268,232,35472,1,2,0:0:0:0:
344,180,35636,2,0,B|356:220|356:220|355:268,1,85
448,296,35964,2,0,B|436:256|436:256|437:208,1,85,2|0,0:0|0:0,0:0:0:0:
484,140,36292,2,0,B|408:80|322:101|322:101,1,170,8|0,0:0|0:0,0:0:0:0:
60,68,36948,6,0,B|132:124|220:104,1,170,2|0,0:0|0:0,0:0:0:0:
272,36,37440,1,0,0:0:0:0:
272,36,37604,2,0,L|236:212,1,170,8|0,0:0|0:0,0:0:0:0:
238,202,38095,1,2,0:0:0:0:
152,200,38259,2,0,P|160:243|188:279,1,85
100,296,38587,2,0,P|124:333|165:354,1,85,2|0,0:0|0:0,0:0:0:0:
240,341,38915,2,0,L|408:316,1,170,8|0,0:0|0:0,0:0:0:0:
225,96,39571,6,0,B|273:92|305:124,1,85,2|0,0:0|0:0,0:0:0:0:
323,205,39899,1,0,0:0:0:0:
241,184,40063,1,2,0:0:0:0:
385,144,40227,1,8,0:0:0:0:
405,230,40390,5,0,0:0:0:0:
241,184,40554,1,0,0:0:0:0:
405,230,40718,1,2,0:0:0:0:
257,272,40882,2,0,P|249:312|261:366,1,85
257,272,41210,2,0,L|154:267,1,85,2|0,0:0|0:0,0:0:0:0:
80,224,41538,6,0,B|156:164|242:185|242:185,1,170,8|0,0:0|0:0,0:0:0:0:
344,272,42030,1,0,0:0:0:0:
408,208,42194,2,0,B|411:164|411:164|392:128,1,85,6|0,0:0|0:0,0:0:0:0:
352,56,42522,6,0,L|269:42,1,85,2|2,0:0|0:0,0:0:0:0:
168,112,42849,2,0,P|160:152|168:208,1,85,8|0,0:0|0:0,0:0:0:0:
259,276,43177,2,0,L|345:272,1,85,2|2,0:0|0:0,0:0:0:0:
328,184,43505,5,2,0:0:0:0:
168,288,43669,1,0,0:0:0:0:
328,184,43833,2,0,P|289:178|245:193,1,85,2|2,0:0|0:0,0:0:0:0:
400,232,44161,2,0,L|488:232,1,85,8|0,0:0|0:0,0:0:0:0:
432,48,44489,2,0,P|392:40|336:56,1,85,0|2,0:0|0:0,0:0:0:0:
168,112,44817,6,0,B|88:152|4:118,1,170,2|2,0:0|0:0,0:0:0:0:
80,32,45308,1,2,0:0:0:0:
184,208,45472,2,0,L|272:208,1,85,8|0,0:0|0:0,0:0:0:0:
408,144,45800,1,2,0:0:0:0:
408,144,45964,1,2,0:0:0:0:
496,312,46128,6,0,B|320:312,1,170,2|2,0:0|0:0,0:0:0:0:
168,376,46620,1,2,0:0:0:0:
168,376,46784,2,0,L|144:280,1,85,8|0,0:0|0:0,0:0:0:0:
144,120,47112,2,0,B|190:100|228:124|228:124,1,85,0|2,0:0|0:0,0:0:0:0:
304,152,47440,6,0,L|296:245,1,85,2|0,0:0|0:0,0:0:0:0:
400,64,47767,2,0,P|360:56|312:72,1,85,2|2,0:0|0:0,0:0:0:0:
319,315,48095,2,0,P|359:327|400:320,1,85,8|0,0:0|0:0,0:0:0:0:
480,152,48423,2,0,L|392:152,1,85,2|2,0:0|0:0,0:0:0:0:
64,152,48751,1,2,0:0:0:0:
64,152,48915,1,0,0:0:0:0:
152,152,49079,6,0,L|256:152,1,85,2|2,0:0|0:0,0:0:0:0:
304,200,49407,2,0,P|309:248|290:287,1,85,8|0,0:0|0:0,0:0:0:0:
192,360,49735,2,0,L|175:277,1,85,0|2,0:0|0:0,0:0:0:0:
104,72,50063,2,0,P|171:35|268:31,1,170,2|2,0:0|0:0,0:0:0:0:
384,60,50554,1,2,0:0:0:0:
384,60,50718,2,0,L|370:157,1,85,8|0,0:0|0:0,0:0:0:0:
248,152,51046,5,2,0:0:0:0:
96,224,51210,1,2,0:0:0:0:
240,312,51374,2,0,B|204:344|156:332|156:332,1,85,2|0,0:0|0:0,0:0:0:0:
128,60,51702,5,2,0:0:0:0:
248,152,51866,1,2,0:0:0:0:
96,224,52030,2,0,B|132:256|180:244|180:244,1,85,8|0,0:0|0:0,0:0:0:0:
128,60,52358,2,0,B|20:108,1,85,0|2,0:0|0:0,0:0:0:0:
128,60,52686,6,0,B|216:24|292:72|292:72,1,170,2|2,0:0|0:0,0:0:0:0:
248,152,53177,1,2,0:0:0:0:
248,152,53341,2,0,L|164:152,1,85,8|0,0:0|0:0,0:0:0:0:
96,224,53669,1,2,0:0:0:0:
96,224,53833,1,2,0:0:0:0:
42,290,53997,6,0,P|86:308|132:302,1,85,2|0,0:0|0:0,0:0:0:0:
204,280,54325,2,0,L|204:384,1,85,2|2,0:0|0:0,0:0:0:0:
288,288,54653,2,0,P|312:320|352:336,1,85,8|0,0:0|0:0,0:0:0:0:
288,288,54981,2,0,P|284:248|252:204,1,85,0|2,0:0|0:0,0:0:0:0:
140,108,55308,6,0,P|88:173|71:266,1,170,2|2,0:0|0:0,0:0:0:0:
144,328,55800,1,2,0:0:0:0:
144,328,55964,2,0,L|240:360,1,85,8|0,0:0|0:0,0:0:0:0:
328,352,56292,5,2,0:0:0:0:
264,112,56456,1,2,0:0:0:0:
208,264,56620,2,0,B|300:296|364:224,1,170,2|2,0:0|0:0,0:0:0:0:
264,112,57112,1,2,0:0:0:0:
144,328,57276,2,0,B|178:361|226:353|226:353,1,85,8|0,0:0|0:0,0:0:0:0:
328,48,57604,2,0,B|294:15|246:23|246:23,1,85,0|2,0:0|0:0,0:0:0:0:
102,95,57931,6,0,B|174:147|266:111,1,170,2|2,0:0|0:0,0:0:0:0:
318,191,58423,1,2,0:0:0:0:
318,191,58587,2,0,L|325:295,1,85,8|0,0:0|0:0,0:0:0:0:
234,231,58915,2,0,P|183:228|146:247,1,85,2|2,0:0|0:0,0:0:0:0:
74,215,59243,2,0,P|71:266|90:303,1,85,2|0,0:0|0:0,0:0:0:0:
264,112,59571,5,2,0:0:0:0:
264,112,59735,2,0,B|236:80|172:88,1,85,2|8,0:0|0:0,0:0:0:0:
96,120,60063,2,0,B|64:92|72:28,1,85
24,184,60390,1,2,0:0:0:0:
24,184,60554,2,0,L|32:280,1,85,2|0,0:0|0:0,0:0:0:0:
128,252,60882,5,2,0:0:0:0:
128,252,61046,1,2,0:0:0:0:
116,340,61210,2,0,P|158:337|198:308,1,85,8|0,0:0|0:0,0:0:0:0:
251,136,61538,5,2,0:0:0:0:
128,252,61702,1,2,0:0:0:0:
291,304,61866,1,2,0:0:0:0:
128,132,62030,5,0,0:0:0:0:
191,355,62194,1,2,0:0:0:0:
352,188,62358,1,2,0:0:0:0:
128,132,62522,1,8,0:0:0:0:
424,132,62686,6,0,P|440:172|430:224,1,85
191,355,63013,1,2,0:0:0:0:
192,76,63177,1,6,0:0:0:0:
352,188,63341,5,0,0:0:0:0:
248,268,63505,1,2,0:0:0:0:
232,140,63669,1,2,0:0:0:0:
352,188,63833,2,0,P|367:232|363:271,1,85,8|0,0:0|0:0,0:0:0:0:
171,297,64161,5,2,0:0:0:0:
348,356,64325,1,2,0:0:0:0:
171,297,64489,2,0,P|220:287|258:257,1,85,2|0,0:0|0:0,0:0:0:0:
400,194,64817,2,0,P|367:155|322:137,1,85,2|2,0:0|0:0,0:0:0:0:
197,47,65145,2,0,P|180:95|187:143,1,85,8|0,0:0|0:0,0:0:0:0:
88,268,65472,2,0,B|81:315|81:315|102:363,1,85,0|2,0:0|0:0,0:0:0:0:
288,356,65800,6,0,B|352:356|392:308|392:308|448:308,1,170,2|2,0:0|0:0,0:0:0:0:
400,194,66292,1,2,0:0:0:0:
400,194,66456,2,0,B|312:164|232:202,1,170,8|2,0:0|0:0,0:0:0:0:
152,204,66948,1,0,0:0:0:0:
72,172,67112,2,0,B|40:84|80:4,1,170,2|2,0:0|0:0,0:0:0:0:
256,36,67604,6,0,L|264:136,1,85,2|8,0:0|0:0,0:0:0:0:
216,300,67931,2,0,P|180:316|116:308,1,85
91,107,68259,2,0,P|131:109|184:145,1,85,2|2,0:0|0:0,0:0:0:0:
283,244,68587,5,0,0:0:0:0:
216,300,68751,2,0,P|199:260|210:199,1,85,2|2,0:0|0:0,0:0:0:0:
216,300,69079,2,0,P|192:338|143:369,1,85,8|0,0:0|0:0,0:0:0:0:
80,332,69407,2,0,L|70:241,1,85,2|2,0:0|0:0,0:0:0:0:
56,164,69735,2,0,P|96:149|142:154,1,85,2|0,0:0|0:0,0:0:0:0:
224,164,70063,5,2,0:0:0:0:
224,164,70227,2,0,P|229:121|221:80,1,85,2|8,0:0|0:0,0:0:0:0:
144,52,70554,2,0,L|56:52,1,85
160,244,70882,5,2,0:0:0:0:
160,244,71046,2,0,B|248:276|328:220,1,170,2|2,0:0|0:0,0:0:0:0:
408,220,71538,1,2,0:0:0:0:
408,220,71702,2,0,B|327:240|243:200,1,170,8|2,0:0|0:0,0:0:0:0:
160,164,72194,1,2,0:0:0:0:
160,164,72358,2,0,B|112:244|152:332,1,170,2|2,0:0|0:0,0:0:0:0:
232,308,72849,5,2,0:0:0:0:
268,40,73013,1,12,0:0:0:0:
268,40,73341,6,0,L|280:148,1,85,0|2,0:0|0:0,0:0:0:0:
121,98,73669,1,6,0:0:0:0:
391,98,73997,6,0,P|371:182|382:270,2,170,0|8|0,0:0|0:0|0:0,0:0:0:0:
391,98,74817,1,2,0:0:0:0:
460,44,74981,2,0,P|476:88|465:139,1,85
476,212,75308,2,0,L|460:312,1,85,2|0,0:0|0:0,0:0:0:0:
460,44,75636,2,0,B|372:4|296:48,1,170,8|0,0:0|0:0,0:0:0:0:
128,144,76128,1,0,0:0:0:0:
56,96,76292,6,0,P|88:68|144:56,1,85,2|0,0:0|0:0,0:0:0:0:
128,144,76620,1,0,0:0:0:0:
296,144,76784,1,0,0:0:0:0:
212,144,76948,5,8,0:0:0:0:
212,320,77112,1,0,0:0:0:0:
296,320,77276,6,0,P|304:280|292:236,2,85,0|2|0,0:0|0:0|0:0,0:0:0:0:
212,320,77767,2,0,P|172:324|124:312,1,85,0|2,0:0|0:0,0:0:0:0:
128,228,78095,5,0,0:0:0:0:
128,60,78259,1,8,0:0:0:0:
128,144,78423,5,0,0:0:0:0:
296,144,78587,2,0,L|400:144,1,85
456,104,78915,6,0,P|468:140|452:192,1,85,2|0,0:0|0:0,0:0:0:0:
388,236,79243,1,0,0:0:0:0:
304,236,79407,1,0,0:0:0:0:
220,236,79571,5,8,0:0:0:0:
388,236,79735,1,0,0:0:0:0:
220,236,79899,2,0,P|208:280|220:320,1,85,0|2,0:0|0:0,0:0:0:0:
464,276,80227,2,0,P|476:232|464:192,1,85
388,236,80554,1,2,0:0:0:0:
304,236,80718,5,0,0:0:0:0:
304,44,80882,1,8,0:0:0:0:
304,236,81046,1,0,0:0:0:0:
304,44,81210,2,0,P|260:36|216:48,1,85
137,237,81538,2,0,P|181:245|225:233,1,85,2|0,0:0|0:0,0:0:0:0:
236,144,81866,5,0,0:0:0:0:
152,144,82030,1,0,0:0:0:0:
184,320,82194,5,8,0:0:0:0:
137,237,82358,1,0,0:0:0:0:
276,304,82522,5,0,0:0:0:0:
394,188,82686,1,2,0:0:0:0:
236,144,82849,1,8,0:0:0:0:
276,304,83013,1,2,0:0:0:0:
336,96,83177,1,8,0:0:0:0:
276,304,83341,1,0,0:0:0:0:
248,52,83505,2,0,P|164:40|80:68,1,170
276,304,84161,6,0,P|360:316|444:288,2,170,2|0|8,0:0|0:0|0:0,0:0:0:0:
252,128,85145,1,0,0:0:0:0:
320,178,85308,1,2,0:0:0:0:
244,216,85472,2,0,L|156:212,1,85
84,256,85800,2,0,B|68:296|83:343,1,85,2|0,0:0|0:0,0:0:0:0:
159,212,86128,2,0,B|175:172|160:125,1,85,8|0,0:0|0:0,0:0:0:0:
44,92,86456,2,0,B|84:168,1,85
168,304,86784,6,0,L|344:312,1,170,2|0,0:0|0:0,0:0:0:0:
395,155,87276,1,2,0:0:0:0:
243,123,87440,1,8,0:0:0:0:
379,239,87604,5,0,0:0:0:0:
299,55,87767,1,0,0:0:0:0:
159,212,87931,1,2,0:0:0:0:
159,212,88095,2,0,L|73:198,1,85
299,55,88423,2,0,L|382:68,1,85,2|0,0:0|0:0,0:0:0:0:
243,123,88751,6,0,B|163:159|75:143,1,170,8|0,0:0|0:0,0:0:0:0:
76,143,89243,1,0,0:0:0:0:
28,220,89407,2,0,L|40:308,1,85,2|0,0:0|0:0,0:0:0:0:
208,288,89735,1,0,0:0:0:0:
124,256,89899,5,0,0:0:0:0:
208,288,90063,2,0,P|248:288|296:280,1,85,8|0,0:0|0:0,0:0:0:0:
379,239,90390,1,0,0:0:0:0:
379,239,90554,1,2,0:0:0:0:
348,344,90718,6,0,L|440:340,1,85
488,272,91046,2,0,L|504:184,1,85,2|0,0:0|0:0,0:0:0:0:
464,108,91374,2,0,P|432:136|415:186,1,85,8|0,0:0|0:0,0:0:0:0:
328,120,91702,2,0,P|360:92|377:42,1,85
290,41,92030,2,0,B|216:24|216:88|124:64,1,170,2|0,0:0|0:0,0:0:0:0:
232,348,92522,5,2,0:0:0:0:
189,220,92686,1,8,0:0:0:0:
232,348,92849,1,0,0:0:0:0:
117,276,93013,1,0,0:0:0:0:
232,348,93177,1,2,0:0:0:0:
277,188,93341,6,0,P|284:230|269:268,1,85
189,220,93669,2,0,P|184:176|201:131,1,85,2|0,0:0|0:0,0:0:0:0:
277,188,93997,2,0,B|367:176|439:256,1,170,8|8,0:0|0:0,0:0:0:0:
317,348,94489,1,8,0:0:0:0:
317,348,94653,2,0,B|213:348,1,85,6|0,0:0|0:0,0:0:0:0:
105,220,94981,6,0,B|149:212|149:212|193:220,1,85,2|2,0:0|0:0,0:0:0:0:
152,336,95308,2,0,B|114:348|114:348|70:340,1,85,8|0,0:0|0:0,0:0:0:0:
80,128,95636,2,0,L|176:112,1,85,2|2,0:0|0:0,0:0:0:0:
368,160,95964,1,2,0:0:0:0:
256,64,96128,1,0,0:0:0:0:
368,160,96292,2,0,L|276:188,1,85,2|2,0:0|0:0,0:0:0:0:
250,264,96620,2,0,B|315:318|411:290,1,170,8|0,0:0|0:0,0:0:0:0:
451,173,97112,5,2,0:0:0:0:
451,173,97276,2,0,L|359:158,1,85,2|0,0:0|0:0,0:0:0:0:
200,336,97604,1,2,0:0:0:0:
250,264,97767,1,2,0:0:0:0:
128,288,97931,2,0,P|112:332|124:380,1,85,8|0,0:0|0:0,0:0:0:0:
212,120,98259,5,2,0:0:0:0:
340,180,98423,1,2,0:0:0:0:
156,52,98587,2,0,B|120:80|124:132,1,85,2|0,0:0|0:0,0:0:0:0:
200,336,98915,1,2,0:0:0:0:
212,120,99079,1,2,0:0:0:0:
16,212,99243,2,0,B|-15:291|49:372|49:372,1,170,8|0,0:0|0:0,0:0:0:0:
200,336,99735,5,2,0:0:0:0:
200,336,99899,2,0,L|384:330,1,170,2|2,0:0|0:0,0:0:0:0:
130,115,100390,1,2,0:0:0:0:
130,115,100554,2,0,L|314:121,1,170,8|2,0:0|0:0,0:0:0:0:
458,125,101046,1,2,0:0:0:0:
317,271,101210,5,2,0:0:0:0:
373,135,101374,1,0,0:0:0:0:
465,251,101538,1,2,0:0:0:0:
317,271,101702,1,2,0:0:0:0:
373,135,101866,2,0,L|473:123,1,85,8|0,0:0|0:0,0:0:0:0:
396,356,102194,2,0,L|296:368,1,85,0|2,0:0|0:0,0:0:0:0:
232,328,102522,6,0,B|157:284|65:308,1,170,2|2,0:0|0:0,0:0:0:0:
24,232,103013,1,2,0:0:0:0:
24,232,103177,2,0,B|8:192|8:192|16:136,1,85,8|0,0:0|0:0,0:0:0:0:
80,96,103505,1,2,0:0:0:0:
80,96,103669,1,2,0:0:0:0:
152,144,103833,6,0,L|164:232,1,85,2|0,0:0|0:0,0:0:0:0:
323,349,104161,1,2,0:0:0:0:
396,160,104325,1,2,0:0:0:0:
512,324,104489,2,0,P|480:348|416:356,1,85,12|0,0:0|0:0,0:0:0:0:
244,212,104817,2,0,L|352:228,1,85,0|2,0:0|0:0,0:0:0:0:
504,96,105145,6,0,B|440:40|344:52,1,170,2|2,0:0|0:0,0:0:0:0:
262,67,105636,1,2,0:0:0:0:
184,32,105800,2,0,P|176:72|194:125,1,85,8|0,0:0|0:0,0:0:0:0:
320,248,106128,5,2,0:0:0:0:
262,67,106292,1,2,0:0:0:0:
128,200,106456,2,0,L|240:200,1,85,2|0,0:0|0:0,0:0:0:0:
400,144,106784,2,0,L|304:144,1,85,2|2,0:0|0:0,0:0:0:0:
464,216,107112,2,0,B|516:136|476:48,1,170,8|0,0:0|0:0,0:0:0:0:
400,24,107604,5,2,0:0:0:0:
368,232,107767,2,0,L|184:232,1,170,2|2,0:0|0:0,0:0:0:0:
198,232,108259,1,2,0:0:0:0:
120,264,108423,2,0,B|104:308|120:348|120:348,1,85,8|0,0:0|0:0,0:0:0:0:
400,144,108751,5,2,0:0:0:0:
400,144,108915,1,2,0:0:0:0:
400,144,109079,2,0,B|356:128|316:144|316:144,1,85,2|0,0:0|0:0,0:0:0:0:
40,148,109407,2,0,L|152:172,1,85,2|2,0:0|0:0,0:0:0:0:
472,236,109735,2,0,L|360:212,1,85,8|0,0:0|0:0,0:0:0:0:
187,106,110063,6,0,P|207:146|202:201,1,85,0|2,0:0|0:0,0:0:0:0:
325,278,110390,2,0,P|305:238|310:183,1,85,2|0,0:0|0:0,0:0:0:0:
400,144,110718,2,0,B|440:144|440:144|496:160,1,85,2|2,0:0|0:0,0:0:0:0:
432,312,111046,2,0,B|376:376|276:372,1,170,8|2,0:0|0:0,0:0:0:0:
104,304,111538,1,2,0:0:0:0:
104,304,111702,2,0,L|200:304,1,85,2|0,0:0|0:0,0:0:0:0:
325,278,112030,5,2,0:0:0:0:
325,278,112194,2,0,P|326:231|314:194,1,85,2|8,0:0|0:0,0:0:0:0:
157,118,112522,2,0,P|113:120|67:136,1,85
104,304,112849,5,2,0:0:0:0:
104,304,113013,2,0,B|176:357|269:341,1,170,2|2,0:0|0:0,0:0:0:0:
325,278,113505,1,2,0:0:0:0:
407,311,113669,2,0,P|415:266|397:226,1,85,8|0,0:0|0:0,0:0:0:0:
309,150,113997,5,2,0:0:0:0:
189,334,114161,1,2,0:0:0:0:
157,118,114325,1,2,0:0:0:0:
325,278,114489,5,0,0:0:0:0:
101,210,114653,1,2,0:0:0:0:
273,50,114817,1,2,0:0:0:0:
325,278,114981,1,12,0:0:0:0:
72,125,115145,2,0,L|173:116,1,85
413,142,115472,1,2,0:0:0:0:
413,142,115636,2,0,B|461:218|417:314,1,170,6|2,0:0|0:0,0:0:0:0:
304,245,116128,5,2,0:0:0:0:
232,204,116292,2,0,B|208:244|228:288,1,85,8|0,0:0|0:0,0:0:0:0:
284,348,116620,1,2,0:0:0:0:
128,264,116784,1,2,0:0:0:0:
200,104,116948,2,0,B|240:88|284:100,1,85,2|0,0:0|0:0,0:0:0:0:
168,308,117276,2,0,B|128:324|84:312,1,85,2|2,0:0|0:0,0:0:0:0:
112,53,117604,2,0,L|236:69,1,85,8|0,0:0|0:0,0:0:0:0:
456,344,117931,2,0,L|332:328,1,85,0|2,0:0|0:0,0:0:0:0:
224,236,118259,6,0,B|304:264|392:220,1,170,2|2,0:0|0:0,0:0:0:0:
484,92,118751,1,2,0:0:0:0:
484,92,118915,2,0,B|439:65|386:85,1,85,8|0,0:0|0:0,0:0:0:0:
168,147,119243,5,2,0:0:0:0:
305,99,119407,1,2,0:0:0:0:
200,252,119571,1,2,0:0:0:0:
213,67,119735,1,0,0:0:0:0:
352,188,119899,1,2,0:0:0:0:
200,252,120063,2,0,B|116:260,1,85,2|8,0:0|0:0,0:0:0:0:
352,188,120390,2,0,B|436:180,1,85
292,352,120718,5,2,0:0:0:0:
292,352,120882,2,0,P|336:345|383:320,1,85,2|0,0:0|0:0,0:0:0:0:
268,168,121210,1,2,0:0:0:0:
208,284,121374,1,2,0:0:0:0:
208,284,121538,2,0,P|169:295|126:290,1,85,8|0,0:0|0:0,0:0:0:0:
80,80,121866,1,2,0:0:0:0:
160,196,122030,1,2,0:0:0:0:
160,196,122194,2,0,P|204:192|253:171,1,85,2|0,0:0|0:0,0:0:0:0:
440,64,122522,6,0,P|448:107|440:160,1,85,2|2,0:0|0:0,0:0:0:0:
72,320,122849,2,0,P|64:277|72:224,1,85,8|0,0:0|0:0,0:0:0:0:
228,96,123177,2,0,L|328:96,1,85,0|2,0:0|0:0,0:0:0:0:
396,292,123505,6,0,B|336:292|336:292|284:308|284:308|224:308,1,170,2|2,0:0|0:0,0:0:0:0:
144,308,123997,1,2,0:0:0:0:
91,116,124161,2,0,B|183:104|243:176,1,170,8|2,0:0|0:0,0:0:0:0:
86,207,124653,5,2,0:0:0:0:
150,31,124817,1,2,0:0:0:0:
270,175,124981,1,0,0:0:0:0:
86,207,125145,1,2,0:0:0:0:
150,31,125308,2,0,P|191:20|235:31,1,85,2|12,0:0|0:0,0:0:0:0:
468,204,125636,2,0,P|428:214|384:203,1,85
158,102,125964,1,2,0:0:0:0:
48,120,126128,6,0,B|100:208|184:216,1,170,6|2,0:0|0:0,0:0:0:0:
224,40,126620,1,2,0:0:0:0:
236,128,126784,2,0,P|190:123|154:96,1,85,8|0,0:0|0:0,0:0:0:0:
312,24,127112,1,2,0:0:0:0:
288,216,127276,1,2,0:0:0:0:
468,204,127440,6,0,P|415:143|324:116,1,170,2|2,0:0|0:0,0:0:0:0:
32,260,127931,2,0,P|75:257|148:276,1,85,2|8,0:0|0:0,0:0:0:0:
288,216,128259,2,0,P|248:228|172:232,1,85
416,304,128587,1,2,0:0:0:0:
416,304,128751,2,0,P|374:304|300:287,1,85,2|0,0:0|0:0,0:0:0:0:
344,80,129079,5,2,0:0:0:0:
260,100,129243,1,2,0:0:0:0:
424,112,129407,2,0,B|440:68|416:28,1,85,8|0,0:0|0:0,0:0:0:0:
228,276,129735,5,2,0:0:0:0:
248,192,129899,1,2,0:0:0:0:
260,356,130063,2,0,B|216:372|176:348,1,85,2|0,0:0|0:0,0:0:0:0:
312,252,130390,5,2,0:0:0:0:
160,216,130554,1,2,0:0:0:0:
372,184,130718,1,8,0:0:0:0:
160,216,130882,2,0,L|152:112,1,85
328,16,131210,1,2,0:0:0:0:
328,16,131374,2,0,L|336:120,1,85,2|0,0:0|0:0,0:0:0:0:
92,104,131702,6,0,B|88:152|40:168,1,85,2|2,0:0|0:0,0:0:0:0:
132,216,132030,2,0,B|164:252|141:298,1,85,8|0,0:0|0:0,0:0:0:0:
72,344,132358,2,0,B|41:307|64:261,1,85,2|2,0:0|0:0,0:0:0:0:
236,280,132686,2,0,L|236:376,1,85,2|0,0:0|0:0,0:0:0:0:
236,280,133013,1,2,0:0:0:0:
312,232,133177,2,0,L|312:136,1,85,2|8,0:0|0:0,0:0:0:0:
440,256,133505,6,0,L|440:352,1,85
440,256,133833,1,2,0:0:0:0:
316,356,133997,2,0,B|233:382|148:352,1,170,2|2,0:0|0:0,0:0:0:0:
152,188,134489,1,2,0:0:0:0:
152,188,134653,2,0,B|192:172|236:184,1,85,8|0,0:0|0:0,0:0:0:0:
380,132,134981,5,2,0:0:0:0:
316,356,135145,1,2,0:0:0:0:
152,188,135308,1,2,0:0:0:0:
380,132,135472,1,0,0:0:0:0:
316,356,135636,1,2,0:0:0:0:
152,188,135800,1,0,0:0:0:0:
136,152,136128,5,0,0:0:0:0:
140,112,136456,6,0,B|152:68|188:44,2,85,0|6|0,0:0|0:0|0:0,0:0:0:0:
232,136,136948,5,2,0:0:0:0:
380,132,137112,1,2,0:0:0:0:
380,132,137276,2,0,P|395:169|391:215,1,85,8|0,0:0|0:0,0:0:0:0:
180,316,137604,5,2,0:0:0:0:
232,136,137767,1,2,0:0:0:0:
232,136,137931,2,0,L|304:184,1,85,2|0,0:0|0:0,0:0:0:0:
264,356,138259,5,2,0:0:0:0:
88,348,138423,1,2,0:0:0:0:
88,348,138587,2,0,B|36:269|80:183,1,170,8|0,0:0|0:0,0:0:0:0:
168,144,139079,5,2,0:0:0:0:
168,144,139243,2,0,L|164:244,1,85,2|0,0:0|0:0,0:0:0:0:
348,44,139571,1,2,0:0:0:0:
348,44,139735,2,0,L|360:148,1,85,2|8,0:0|0:0,0:0:0:0:
268,24,140063,1,0,0:0:0:0:
168,144,140227,5,2,0:0:0:0:
248,112,140390,1,2,0:0:0:0:
184,56,140554,1,2,0:0:0:0:
160,232,140718,5,0,0:0:0:0:
320,208,140882,1,2,0:0:0:0:
160,232,141046,1,2,0:0:0:0:
320,208,141210,2,0,P|335:247|327:288,1,85,8|0,0:0|0:0,0:0:0:0:
256,344,141538,2,0,P|240:304|248:263,1,85,0|2,0:0|0:0,0:0:0:0:
176,120,141866,6,0,L|-8:128,1,170,2|2,0:0|0:0,0:0:0:0:
88,40,142358,1,2,0:0:0:0:
192,208,142522,2,0,P|224:120|200:32,1,170,8|2,0:0|0:0,0:0:0:0:
176,120,143013,1,2,0:0:0:0:
372,224,143177,5,2,0:0:0:0:
316,288,143341,1,0,0:0:0:0:
288,208,143505,1,2,0:0:0:0:
400,304,143669,5,2,0:0:0:0:
232,276,143833,1,8,0:0:0:0:
344,144,143997,1,0,0:0:0:0:
344,144,144325,5,2,0:0:0:0:
392,352,144489,2,0,B|444:352|480:307|480:307,1,85,2|0,0:0|0:0,0:0:0:0:
344,144,144817,1,2,0:0:0:0:
344,144,144981,1,2,0:0:0:0:
292,284,145145,2,0,L|116:284,1,170,8|2,0:0|0:0,0:0:0:0:
56,336,145636,1,2,0:0:0:0:
26,223,145800,6,0,P|17:192|18:154,2,56.6666666666667,2|0|0,0:0|0:0|0:0,0:0:0:0:
96,104,146128,2,0,L|126:55,2,56.6666666666667,2|0|0,0:0|0:0|0:0,0:0:0:0:
160,184,146456,1,12,0:0:0:0:
160,184,146620,1,0,0:0:0:0:
240,127,146784,2,0,L|336:120,1,85,0|2,0:0|0:0,0:0:0:0:
432,272,147112,5,6,0:0:0:0:
432,272,147276,2,0,L|324:264,1,85,0|2,0:0|0:0,0:0:0:0:
152,224,147604,1,2,0:0:0:0:
76,264,147767,2,0,P|53:301|54:354,1,85,8|0,0:0|0:0,0:0:0:0:
224,288,148095,5,2,0:0:0:0:
300,224,148259,1,2,0:0:0:0:
224,288,148423,1,2,0:0:0:0:
268,140,148587,5,0,0:0:0:0:
280,368,148751,1,2,0:0:0:0:
76,264,148915,1,2,0:0:0:0:
268,140,149079,2,0,B|176:160,1,85,8|0,0:0|0:0,0:0:0:0:
424,284,149407,2,0,B|332:304,1,85,0|2,0:0|0:0,0:0:0:0:
440,160,149735,5,2,0:0:0:0:
290,47,149899,1,0,0:0:0:0:
254,223,150063,1,2,0:0:0:0:
440,160,150227,1,2,0:0:0:0:
290,47,150390,2,0,B|382:67,1,85,8|0,0:0|0:0,0:0:0:0:
139,121,150718,2,0,B|231:141,1,85,2|2,0:0|0:0,0:0:0:0:
440,160,151046,6,0,P|450:190|448:229,2,56.6666666666667,2|0|0,0:0|0:0|0:0,0:0:0:0:
378,259,151374,2,0,L|348:308,2,56.6666666666667,2|0|0,0:0|0:0|0:0,0:0:0:0:
330,183,151702,2,0,L|314:121,2,56.6666666666667,8|0|0,0:0|0:0|0:0,0:0:0:0:
274,259,152030,2,0,P|242:286|199:307,1,85,0|2,0:0|0:0,0:0:0:0:
120,360,152358,6,0,L|16:348,1,85,2|0,0:0|0:0,0:0:0:0:
136,184,152686,1,2,0:0:0:0:
220,360,152849,1,2,0:0:0:0:
332,200,153013,2,0,L|236:184,1,85,8|0,0:0|0:0,0:0:0:0:
292,24,153341,1,2,0:0:0:0:
292,24,153505,1,2,0:0:0:0:
392,24,153669,6,0,L|496:36,1,85,2|0,0:0|0:0,0:0:0:0:
376,200,153997,1,2,0:0:0:0:
292,24,154161,1,2,0:0:0:0:
180,184,154325,2,0,L|276:200,2,85,8|0|0,0:0|0:0|0:0,0:0:0:0:
96,168,154817,5,2,0:0:0:0:
168,84,154981,2,0,P|204:99|268:104,1,85,2|0,0:0|0:0,0:0:0:0:
360,116,155308,1,2,0:0:0:0:
360,116,155472,1,2,0:0:0:0:
264,288,155636,2,0,P|228:273|164:268,1,85,8|0,0:0|0:0,0:0:0:0:
44,268,155964,1,2,0:0:0:0:
44,268,156128,1,2,0:0:0:0:
260,248,156292,6,0,P|268:216|268:179,2,56.6666666666667,2|0|0,0:0|0:0|0:0,0:0:0:0:
248,96,156620,1,2,0:0:0:0:
248,96,156784,1,2,0:0:0:0:
332,296,156948,2,0,B|304:336|256:336,1,85,12|0,0:0|0:0,0:0:0:0:
180,364,157276,1,0,0:0:0:0:
104,324,157440,1,2,0:0:0:0:
176,278,157604,1,6,0:0:0:0:
216,276,168095,6,0,L|231:149,1,127.500004863739,4|0,0:0|0:0,0:0:0:0:
276,80,168587,2,0,P|277:44|268:8,2,63.7500024318696,0|8|0,0:0|0:0|0:0,0:0:0:0:
192,76,169079,1,0,0:0:0:0:
332,144,169243,1,0,0:0:0:0:
332,144,169407,2,0,P|393:129|448:96,1,127.500004863739
472,180,169899,6,0,L|460:250,1,63.7500024318696,0|8,0:0|0:0,0:0:0:0:
417,313,170227,2,0,P|381:315|353:313,1,63.7500024318696
276,288,170554,2,0,L|273:223,1,63.7500024318696
128,320,171046,6,0,P|160:328|214:325,2,63.7500024318696,0|0|8,0:0|0:0|0:0,0:0:0:0:
128,320,171538,1,0,0:0:0:0:
60,272,171702,1,0,0:0:0:0:
132,232,171866,1,0,0:0:0:0:
216,244,172030,6,0,P|249:235|292:216,1,63.7500024318696
176,132,172358,1,0,0:0:0:0:
176,132,172522,2,0,L|101:125,1,63.7500024318696,0|8,0:0|0:0,0:0:0:0:
260,28,172849,2,0,L|253:103,1,63.7500024318696
332,124,173177,2,0,L|338:60,1,63.7500024318696
408,320,173669,5,0,0:0:0:0:
128,344,173997,1,8,0:0:0:0:
104,64,174325,1,0,0:0:0:0:
384,40,174653,2,0,P|378:111|369:175,1,127.500004863739
280,188,175145,6,0,P|282:230|292:291,1,63.7500024318696,0|8,0:0|0:0,0:0:0:0:
196,156,175472,2,0,P|194:114|184:53,1,63.7500024318696
119,201,175800,2,0,P|87:199|56:192,1,63.7500024318696
412,224,176456,6,0,L|224:260,1,191.250007295609
148,296,177112,1,0,0:0:0:0:
216,344,177276,1,0,0:0:0:0:
224,168,177440,5,8,0:0:0:0:
68,252,177604,1,0,0:0:0:0:
216,344,177767,1,2,0:0:0:0:
208,80,177931,1,12,0:0:0:0:
208,80,178587,6,0,B|297:41|369:97,1,170,6|2,0:0|0:0,0:0:0:0:
216,344,179079,1,2,0:0:0:0:
216,344,179243,2,0,B|127:383|55:327,1,170,8|2,0:0|0:0,0:0:0:0:
64,104,179735,5,2,0:0:0:0:
177,258,179899,1,2,0:0:0:0:
256,84,180063,1,0,0:0:0:0:
64,104,180227,2,0,P|56:144|64:200,1,85,2|2,0:0|0:0,0:0:0:0:
268,252,180554,2,0,P|276:212|268:156,1,85,8|0,0:0|0:0,0:0:0:0:
172,36,180882,2,0,P|164:76|172:132,1,85,0|2,0:0|0:0,0:0:0:0:
312,332,181210,6,0,B|409:346|470:270,1,170,2|2,0:0|0:0,0:0:0:0:
228,176,181702,1,2,0:0:0:0:
228,176,181866,2,0,L|220:360,1,170,8|2,0:0|0:0,0:0:0:0:
360,232,182358,1,2,0:0:0:0:
176,104,182522,2,0,P|146:139|140:189,1,85,2|0,0:0|0:0,0:0:0:0:
360,232,182849,5,2,0:0:0:0:
228,176,183013,1,2,0:0:0:0:
320,52,183177,2,0,P|344:84|352:148,1,85,8|0,0:0|0:0,0:0:0:0:
200,324,183505,2,0,L|104:316,1,85,0|2,0:0|0:0,0:0:0:0:
32,104,183833,6,0,P|70:115|115:161,1,85,2|0,0:0|0:0,0:0:0:0:
100,228,184161,2,0,L|-12:228,1,85,2|2,0:0|0:0,0:0:0:0:
176,104,184489,2,0,P|217:91|268:100,1,85,8|0,0:0|0:0,0:0:0:0:
348,337,184817,5,2,0:0:0:0:
151,361,184981,1,2,0:0:0:0:
228,176,185145,1,2,0:0:0:0:
348,337,185308,1,0,0:0:0:0:
151,361,185472,6,0,P|154:320|179:276,1,85,2|2,0:0|0:0,0:0:0:0:
304,256,185800,2,0,L|392:248,1,85,8|0,0:0|0:0,0:0:0:0:
468,96,186128,2,0,P|428:88|384:96,1,85,0|2,0:0|0:0,0:0:0:0:
142,237,186456,2,0,B|212:292|304:256,1,170,2|2,0:0|0:0,0:0:0:0:
235,91,186948,5,2,0:0:0:0:
235,91,187112,2,0,L|224:209,1,85,8|0,0:0|0:0,0:0:0:0:
208,352,187440,1,2,0:0:0:0:
208,352,187604,1,2,0:0:0:0:
320,172,187767,2,0,B|363:180|391:215,1,85,2|0,0:0|0:0,0:0:0:0:
360,296,188095,5,2,0:0:0:0:
208,352,188259,1,0,0:0:0:0:
140,112,188423,1,0,0:0:0:0:
140,112,188751,6,0,B|168:52|236:56|236:56|268:96,1,170,0|6,0:0|0:0,0:0:0:0:
360,296,189243,1,0,0:0:0:0:
288,248,189407,2,0,P|273:287|278:329,1,85,2|2,0:0|0:0,0:0:0:0:
288,248,189735,2,0,B|204:212|124:260|124:260,1,170,8|2,0:0|0:0,0:0:0:0:
76,348,190227,5,2,0:0:0:0:
76,348,190390,2,0,L|161:348,1,85,2|0,0:0|0:0,0:0:0:0:
124,259,190718,2,0,L|39:261,1,85,2|2,0:0|0:0,0:0:0:0:
36,176,191046,2,0,P|44:140|73:100,1,85,8|0,0:0|0:0,0:0:0:0:
220,48,191374,2,0,L|135:48,1,85,0|2,0:0|0:0,0:0:0:0:
56,256,191702,6,0,B|112:256|112:256|168:276|168:276|224:276,1,170,2|2,0:0|0:0,0:0:0:0:
308,276,192194,1,2,0:0:0:0:
384,312,192358,2,0,P|392:267|384:228,1,85,8|0,0:0|0:0,0:0:0:0:
340,156,192686,5,2,0:0:0:0:
264,348,192849,1,2,0:0:0:0:
144,180,193013,2,0,L|231:181,1,85,2|0,0:0|0:0,0:0:0:0:
448,176,193341,2,0,P|455:134|440:92,1,85,2|2,0:0|0:0,0:0:0:0:
233,23,193669,2,0,B|153:-9|65:39,1,170,8|0,0:0|0:0,0:0:0:0:
56,256,194161,1,2,0:0:0:0:
56,256,194325,2,0,L|148:272,1,85,2|0,0:0|0:0,0:0:0:0:
292,288,194653,6,0,B|324:260|316:196,1,85,2|2,0:0|0:0,0:0:0:0:
260,144,194981,2,0,B|228:172|236:236,1,85,8|0,0:0|0:0,0:0:0:0:
136,188,195308,2,0,B|168:160|160:96,1,85,2|2,0:0|0:0,0:0:0:0:
49,171,195636,2,0,L|57:271,1,85,2|0,0:0|0:0,0:0:0:0:
49,171,195964,1,2,0:0:0:0:
72,340,196128,6,0,P|113:354|169:338,1,85,2|8,0:0|0:0,0:0:0:0:
316,312,196456,2,0,P|275:302|219:314,1,85
400,356,196784,1,2,0:0:0:0:
400,356,196948,2,0,B|439:278|399:190,1,170,2|2,0:0|0:0,0:0:0:0:
316,176,197440,1,2,0:0:0:0:
316,176,197604,2,0,L|209:181,1,85,8|0,0:0|0:0,0:0:0:0:
60,328,197931,5,2,0:0:0:0:
228,296,198095,1,2,0:0:0:0:
116,168,198259,5,2,0:0:0:0:
400,128,198423,1,0,0:0:0:0:
231,179,198587,1,2,0:0:0:0:
302,27,198751,6,0,P|344:28|392:48,1,85,2|12,0:0|0:0,0:0:0:0:
210,325,199079,2,0,P|168:324|120:304,1,85,0|8,0:0|0:0,0:0:0:0:
138,37,199407,1,8,0:0:0:0:
138,37,199571,2,0,B|222:-11|318:33,1,170,6|2,0:0|0:0,0:0:0:0:
368,212,200063,6,0,P|394:252|401:302,2,85,2|8|0,0:0|0:0|0:0,0:0:0:0:
310,282,200554,1,2,0:0:0:0:
400,128,200718,1,2,0:0:0:0:
310,282,200882,1,2,0:0:0:0:
104,272,201210,6,0,P|159:264|208:280,2,85,2|2|8,0:0|0:0|0:0,0:0:0:0:
52,356,201702,1,0,0:0:0:0:
92,180,201866,1,0,0:0:0:0:
52,356,202030,1,2,0:0:0:0:
92,180,202194,1,2,0:0:0:0:
345,161,202522,6,0,P|400:153|449:169,2,85,2|2|8,0:0|0:0|0:0,0:0:0:0:
297,237,203013,1,0,0:0:0:0:
256,48,203177,1,2,0:0:0:0:
297,237,203341,1,2,0:0:0:0:
222,199,203505,5,2,0:0:0:0:
149,241,203669,1,0,0:0:0:0:
221,285,203833,1,2,0:0:0:0:
148,156,203997,5,2,0:0:0:0:
297,237,204161,1,8,0:0:0:0:
148,328,204325,1,0,0:0:0:0:
148,156,204489,2,0,P|179:123|220:112,1,85,0|2,0:0|0:0,0:0:0:0:
380,200,204817,5,2,0:0:0:0:
452,155,204981,1,0,0:0:0:0:
452,155,205145,2,0,P|464:195|452:243,1,85,2|2,0:0|0:0,0:0:0:0:
310,319,205472,2,0,B|230:367|146:327,1,170,8|2,0:0|0:0,0:0:0:0:
29,208,205964,1,2,0:0:0:0:
29,208,206128,2,0,B|109:160|193:200,1,170,2|2,0:0|0:0,0:0:0:0:
211,309,206620,5,2,0:0:0:0:
297,237,206784,1,8,0:0:0:0:
192,200,206948,1,0,0:0:0:0:
211,309,207112,1,0,0:0:0:0:
280,128,207276,1,2,0:0:0:0:
280,128,207440,2,0,P|289:85|277:45,1,85,2|0,0:0|0:0,0:0:0:0:
192,32,207767,6,0,L|104:44,1,85,2|2,0:0|0:0,0:0:0:0:
111,186,208095,2,0,P|151:202|200:198,1,85,8|0,0:0|0:0,0:0:0:0:
165,119,208423,5,2,0:0:0:0:
211,309,208587,1,2,0:0:0:0:
350,170,208751,2,0,P|316:139|273:126,1,85,2|0,0:0|0:0,0:0:0:0:
126,309,209079,6,0,L|226:309,1,85,2|2,0:0|0:0,0:0:0:0:
436,336,209407,2,0,B|476:250|436:172,1,170,12|0,0:0|0:0,0:0:0:0:
256,192,209899,1,2,0:0:0:0:
256,192,210063,1,6,0:0:0:0:
