osu file format v9

[General]
AudioFilename: Owl City - To the Sky.mp3
AudioLeadIn: 0
PreviewTime: 46867
Countdown: 1
SampleSet: Normal
StackLeniency: 0.7
Mode: 0
LetterboxInBreaks: 0

[Editor]
DistanceSpacing: 0.9
BeatDivisor: 3
GridSize: 8

[Metadata]
Title:To the Sky
Artist:Owl City
Creator:NoHItter
Version:Normal
Source:The Legend of Guardians: The Owls of Ga'Hoole
Tags:

[Difficulty]
HPDrainRate:4
CircleSize:3
OverallDifficulty:4
ApproachRate:5
SliderMultiplier:1.2
SliderTickRate:1

[Events]
//Background and Video events
0,0,"ground.jpg"
//Break Periods
2,74573,84144
2,134915,144487
//Storyboard Layer 0 (Background)
//Storyboard Layer 1 (Fail)
//Storyboard Layer 2 (Pass)
//Storyboard Layer 3 (Foreground)
//Storyboard Sound Samples
//Background Colour Transformations
3,100,163,162,255

[TimingPoints]
316,342.857142857143,4,1,1,51,1,0
46944,-100,4,1,1,71,0,1
74372,-100,4,1,1,71,0,0
74373,-100,4,1,1,91,0,1
74374,-100,4,1,1,71,0,0
85459,-100,4,1,1,51,0,0
107287,-100,4,1,1,71,0,1
134715,-100,4,1,1,51,0,0
134716,-100,4,1,1,91,0,1
134717,-100,4,1,1,51,0,0
146030,-166.666666666667,4,2,0,40,0,0
153916,-166.666666666667,4,2,0,60,0,0
155973,-100,4,1,1,50,0,0
156659,-100,4,1,1,71,0,1
184087,-100,4,1,1,91,0,0

[Colours]
Combo1 : 5,47,243
Combo2 : 4,183,4

[HitObjects]
56,80,14030,2,0,B|88:48|136:48|168:88,1,120,2|0
232,80,14601,2,0,B|264:112|312:112|344:72,1,120,0|0
472,32,15401,6,0,B|504:64|504:112|464:144,1,120,2|0
470,210,15973,2,0,B|438:242|438:290|478:322,1,120
311,311,16773,6,0,B|279:343|231:343|207:309,1,120,2|0
175,237,17344,2,0,B|124:167|207:77|303:77|386:168|343:237,1,360,0|0
256,350,18830,1,0
256,241,19173,1,0
346,299,19515,6,0,B|418:299|426:219,1,120,2|0
426,153,20087,1,0
426,44,20430,1,0
288,48,20887,6,0,B|232:72|168:48,1,120,2|0
96,40,21458,1,0
32,128,21801,1,0
256,192,22258,12,0,24315
456,320,25344,5,8
376,264,25687,1,0
312,336,26030,2,0,B|256:360|192:336,2,120,8|0|8
312,336,26944,1,2
256,224,27401,1,8
176,88,27973,6,0,B|256:48|329:88,1,160,2|0
256,152,28773,1,8
168,184,29115,2,0,B|128:240|168:296,2,120,0|8|0
432,72,30830,5,8
344,112,31173,1,0
256,72,31515,1,8
168,112,31858,2,0,B|146:152|167:190,1,80,0|0
72,242,32430,2,0,B|128:298|64:354,1,120,2|0
256,224,33458,6,0,B|240:144|256:64,1,160,2|0
404,222,34601,1,0
402,329,34944,1,8
402,329,35173,1,8
143,109,36316,6,0,B|207:53|311:165|375:109,1,240,8|8
295,35,37344,1,0
403,36,37687,1,8
458,82,37916,1,0
459,190,38258,1,2
167,85,39058,6,0,B|112:130|112:212|168:261,1,200,8|0
257,148,40087,1,0
256,256,40430,1,8
256,328,40658,1,2
464,48,41801,6,0,B|408:56|336:48,2,120,8|0|8
424,136,42830,1,0
464,224,43173,2,0,B|464:352|336:344,1,200,8|2
256,96,44544,5,8
256,192,44887,1,2
256,288,45230,1,8
256,192,45573,12,6,46944
352,192,47630,5,2
160,192,48316,1,6
504,360,49687,5,2
427,283,50030,1,8
488,193,50373,1,0
447,92,50716,2,0,B|391:68|311:92,1,120,8|0
329,159,51287,1,0
185,159,51744,1,2
254,75,52087,1,8
368,328,53116,6,0,B|296:312|288:392|224:392|216:312|144:328,1,240
256,144,54487,1,2
256,32,54830,1,8
176,104,55173,2,0,B|128:192|208:256|304:256|392:192|328:88,2,360
256,32,57573,1,0
144,32,57916,5,4
256,192,58601,1,2
368,352,59287,1,4
352,104,60201,5,8
256,16,60658,1,2
160,72,61001,2,0,B|120:80|80:72,1,80,8|0
160,192,61687,5,8
256,152,62030,1,0
352,192,62373,2,0,B|392:200|432:192,1,80,8|0
416,336,63058,5,8
256,352,63630,2,0,B|222:309|296:240|254:200,1,160
154,166,64430,1,8
203,70,64773,1,0
311,71,65116,1,8
311,71,65344,1,0
358,166,65687,1,0
256,268,66144,5,2
144,80,66830,1,2
368,80,67516,1,2
8,360,68887,5,2
64,280,69230,1,8
32,176,69573,2,0,B|88:104,1,80
200,32,70258,1,0
312,32,70601,2,0,B|256:96,1,80
256,240,71287,5,8
200,336,71630,2,0,B|258:370|314:335,1,120,2|8
313,335,72201,1,0
256,184,72658,1,8
256,192,73001,12,4,74373
256,336,85344,5,4
304,256,85687,1,8
208,256,86030,1,0
160,176,86373,1,8
256,176,86716,1,0
352,176,87058,2,0,B|392:192|432:176,1,80,8|2
432,72,87630,1,0
216,48,88315,6,0,B|136:24|56:48,1,160,2|0
32,152,89115,1,8
32,264,89458,1,0
120,328,89801,2,0,B|176:360|240:328,1,120,8|2
256,32,91173,5,8
224,120,91515,1,2
296,120,91744,1,2
217,240,92201,2,0,B|169:296|225:352,1,120,0|8
292,347,92773,2,0,B|340:291|284:235,1,120,0|2
432,56,93915,6,0,B|496:80|480:184,1,120,8|0
295,263,94944,2,0,B|255:255|215:263,1,80,2|2
256,162,95515,1,8
400,344,96658,5,8
328,264,97001,1,2
256,344,97344,1,8
184,264,97687,1,0
112,264,97915,1,2
24,336,98258,2,0,B|-24:264|24:184,1,160,0|8
256,32,99287,6,0,B|208:72|304:136|255:178,1,160,0|2
312,272,100087,1,8
200,272,100430,2,0,B|144:312|88:272,2,120,0|8|0
416,48,102144,6,0,B|480:72|472:152,1,120,8|0
384,192,102830,1,8
472,240,103173,2,0,B|478:312|410:336,2,120,0|8|0
384,192,104201,1,8
288,192,104544,1,2
112,120,105230,5,2
48,192,105573,1,8
112,264,105915,1,2
256,192,106144,12,4,107287
160,192,107973,5,2
352,192,108658,1,6
8,360,110030,5,2
85,283,110373,1,8
24,193,110715,1,0
65,92,111058,2,0,B|121:68|201:92,1,120,8|0
183,159,111630,1,0
327,159,112087,1,2
258,75,112430,1,8
144,328,113458,6,0,B|216:312|224:392|288:392|296:312|368:328,1,240
256,144,114830,1,2
256,32,115173,1,8
336,104,115515,2,0,B|384:192|304:256|208:256|120:192|184:88,2,360
256,32,117915,1,0
368,32,118258,5,4
256,192,118944,1,2
144,352,119630,1,4
160,104,120544,5,8
256,16,121001,1,2
352,72,121344,2,0,B|392:80|432:72,1,80,8|0
352,192,122030,5,8
256,152,122373,1,0
160,192,122715,2,0,B|120:200|80:192,1,80,8|0
96,336,123401,5,8
256,352,123973,2,0,B|290:309|216:240|258:200,1,160
358,166,124773,1,8
309,70,125115,1,0
201,71,125458,1,8
201,71,125687,1,0
154,166,126030,1,0
256,268,126487,5,2
368,80,127173,1,2
144,80,127858,1,2
504,360,129230,5,2
448,280,129573,1,8
480,176,129915,2,0,B|424:104,1,80
312,32,130601,1,0
200,32,130944,2,0,B|256:96,1,80
256,240,131630,5,8
312,336,131973,2,0,B|254:370|198:335,1,120,2|8
199,335,132544,1,0
256,184,133001,1,8
256,192,133344,12,4,134715
256,64,145687,5,4
159,127,146373,6,0,B|116:193|160:263,1,144.000003433228,2|2
256,328,147744,1,0
320,232,148430,2,0,B|386:275|456:231,1,144.000003433228,2|4
384,136,149801,5,2
312,48,150487,1,2
200,48,151173,1,2
128,136,151858,6,0,B|104:176|152:232|128:288,2,144.000003433228,4|0|2
48,48,153915,1,2
256,192,154944,12,4,156658
256,96,157344,5,2
256,288,158030,1,6
32,40,159401,5,2
88,120,159744,2,0,B|120:104|176:104|208:120,1,120,8|0
219,225,160430,1,8
291,225,160658,2,0,B|323:241|379:241|411:225,1,120
307,329,161458,1,2
203,329,161801,1,8
328,56,162830,6,0,B|326:136|256:161|188:134|183:54,1,240
56,232,164201,1,0
24,128,164544,1,8
120,128,164887,2,0,B|144:256|368:256|392:128,2,360
16,160,167287,1,0
64,256,167630,5,6
256,256,168315,1,2
448,256,169001,1,6
256,336,169915,5,2
408,288,170373,1,2
360,192,170715,2,0,B|368:152|408:160|408:128,1,80,8|0
256,104,171401,1,8
256,216,171744,1,2
152,192,172087,2,0,B|144:152|104:160|104:128,1,80,8|0
256,48,172773,5,8
360,200,173344,2,0,B|408:216|408:312|360:336,1,160,2|0
256,288,174144,1,8
149,334,174487,1,0
120,232,174830,2,0,B|80:224|40:232,1,80,8|2
32,336,175401,1,2
152,336,175858,5,2
256,144,176544,1,2
360,336,177230,1,2
64,56,178601,5,2
160,104,178944,1,8
256,56,179287,1,0
256,272,179973,2,0,B|312:264|376:272,1,120,0|8
448,272,180544,1,0
312,352,181001,5,8
200,352,181344,1,0
88,352,181687,1,8
40,304,181915,2,0,B|0:274|0:192|40:160,1,160,2|8
256,192,182715,12,4,184087
