osu file format v9

[General]
AudioFilename: Owl City - To the Sky.mp3
AudioLeadIn: 0
PreviewTime: 46867
Countdown: 1
SampleSet: Normal
StackLeniency: 0.7
Mode: 0
LetterboxInBreaks: 0

[Editor]
DistanceSpacing: 0.9
BeatDivisor: 3
GridSize: 8

[Metadata]
Title:To the Sky
Artist:Owl City
Creator:NoHItter
Version:Hard
Source:The Legend of Guardians: The Owls of Ga'Hoole
Tags:

[Difficulty]
HPDrainRate:7
CircleSize:4
OverallDifficulty:6
ApproachRate:7
SliderMultiplier:1.44
SliderTickRate:1

[Events]
//Background and Video events
0,0,"ground.jpg"
//Break Periods
2,74573,84444
2,134915,144787
//Storyboard Layer 0 (Background)
//Storyboard Layer 1 (Fail)
//Storyboard Layer 2 (Pass)
//Storyboard Layer 3 (Foreground)
//Storyboard Sound Samples
//Background Colour Transformations
3,100,163,162,255

[TimingPoints]
316,342.857142857143,4,1,1,51,1,0
46944,-100,4,1,1,71,0,1
74372,-100,4,1,1,71,0,0
74373,-100,4,1,1,91,0,1
74374,-100,4,1,1,71,0,0
85459,-100,4,1,1,51,0,0
107287,-100,4,1,1,71,0,1
134715,-100,4,1,1,51,0,0
134716,-100,4,1,1,91,0,1
134717,-100,4,1,1,51,0,0
146030,-166.666666666667,4,2,0,40,0,0
153916,-166.666666666667,4,2,0,60,0,0
155973,-100,4,1,1,50,0,0
156659,-100,4,1,1,71,0,1
184087,-100,4,1,1,91,0,0

[Colours]
Combo1 : 5,47,243
Combo2 : 4,183,4

[HitObjects]
448,48,14030,2,0,B|424:120|472:120|448:192,1,144,2|0
448,272,14601,1,0
376,160,14944,1,0
324,312,15401,6,0,B|292:344|220:344|188:312,1,144,2|0
256,256,15973,1,0
256,128,16315,1,0
64,48,16773,6,0,B|88:120|40:120|64:192,1,144,2|0
144,160,17344,1,0
192,40,17687,1,0
320,40,18030,1,2
368,160,18373,1,0
256,224,18715,1,0
256,224,18830,1,0
190,336,19173,6,0,B|222:304|294:304|326:336,2,144,0|2|0
104,360,20087,1,0
128,232,20430,1,0
256,112,20887,6,0,B|344:112|344:16,1,144,2|0
432,40,21458,1,0
376,160,21801,1,0
256,192,22258,12,0,24315
256,344,25344,6,0,B|232:272|280:272|256:200,1,144,8|0
328,96,26030,1,8
416,96,26258,1,0
416,96,26373,1,0
370,169,26601,1,0
488,232,26944,2,0,B|488:344|360:344,1,192,2|8
256,168,27973,5,0
256,40,28315,1,2
256,40,28430,1,0
128,24,28773,1,8
32,112,29115,1,0
32,240,29458,2,0,B|32:336|112:336,2,144,8|2|8
440,192,30830,5,8
344,120,31173,1,0
256,192,31515,1,8
298,314,31858,2,0,B|284:339|227:339|213:313,1,96,0|0
163,194,32430,2,0,B|131:154|67:154|35:194,1,144,2|2
256,48,33458,5,2
256,176,33801,1,2
256,176,33915,1,2
184,360,34487,1,0
184,360,34601,2,0,B|256:336|256:384|328:360,1,144,2|8
296,280,35173,1,8
40,328,36316,5,8
104,272,36544,1,2
104,272,36658,1,2
212,342,37001,1,8
300,342,37230,1,0
300,342,37344,1,0
432,328,37687,1,8
480,256,37916,2,0,B|520:224|520:160|480:128,1,144,2|0
209,34,38944,5,0
209,34,39058,1,8
297,34,39287,1,2
303,163,39630,2,0,B|279:227|231:227|207:163,1,144
207,164,40087,1,2
208,291,40430,2,0,B|256:283|304:291,1,96,8|2
32,48,41687,5,2
32,48,41801,2,0,B|32:136|136:136,1,144,8|0
176,72,42373,1,0
176,72,42487,1,8
312,48,42830,2,0,B|312:136|416:136,1,144,2|8
456,72,43401,1,0
456,200,43744,1,2
256,312,44430,5,0
256,312,44544,1,8
184,224,44887,1,2
256,192,45116,1,2
256,192,45230,1,8
328,224,45458,1,2
256,192,45573,12,6,46944
48,48,47630,5,2
464,344,48316,1,6
256,32,49573,5,2
256,32,49687,1,2
176,136,50030,2,0,B|136:168|136:232|176:264,2,144,8|0|8
224,200,50944,1,2
336,136,51287,2,0,B|376:168|376:232|336:264,1,144,0|2
337,262,51744,1,2
256,360,52087,1,8
72,344,53116,6,0,B|160:320|136:368|216:352,1,144,2|8
296,352,53687,1,0
296,352,53801,2,0,B|365:368|357:320|442:344,1,144,2|8
432,256,54373,1,2
432,256,54487,2,0,B|472:224|472:160|432:128,1,144,0|8
328,56,55173,1,0
256,104,55401,1,0
256,104,55516,1,8
160,192,55858,2,0,B|128:152|64:152|32:192,1,144
184,328,56544,5,0
256,280,56773,1,0
256,280,56887,1,8
352,192,57230,2,0,B|384:232|448:232|480:192,1,144
464,48,57916,5,6
256,344,58601,1,2
48,48,59287,1,6
256,182,60201,5,2
255,53,60544,1,0
255,53,60658,1,2
227,179,61001,2,0,B|179:179|187:219|139:219,1,96,8|2
192,53,61687,1,8
321,54,62030,1,2
283,179,62373,2,0,B|331:179|323:219|371:219,1,96,8|2
256,344,63058,5,8
152,208,63630,2,0,B|192:176|192:112|152:80,1,144
153,82,64087,1,2
256,159,64430,1,8
360,208,64773,2,0,B|320:176|320:112|360:80,1,144,0|8
400,144,65344,1,2
256,159,65687,1,2
256,320,66144,5,2
80,56,66830,1,2
432,56,67516,1,2
128,344,68773,5,2
128,344,68887,1,2
256,344,69230,2,0,B|288:304|352:304|384:344,1,144,8|0
382,342,69801,1,2
256,223,70258,2,0,B|232:151|280:151|256:79,1,144,0|8
257,82,70830,1,2
136,176,71173,5,0
136,176,71287,1,8
256,184,71630,1,2
376,176,71973,1,8
376,176,72201,1,0
256,304,72658,2,0,B|256:360,3,48,8|0|0|0
256,192,73344,12,4,74373
256,32,85344,5,0
301,153,85687,1,8
213,153,85916,1,2
213,153,86030,2,0,B|173:185|173:241|213:281,1,144,0|8
307,367,86716,1,2
409,287,87058,2,0,B|439:319|465:319|495:286,1,96,8|2
453,166,87630,1,0
192,24,88315,5,2
320,24,88658,1,0
320,24,88773,2,0,B|360:56|360:120|320:152,1,144,0|8
192,96,89458,2,0,B|152:128|152:192|192:224,2,144,0|8|2
376,168,91058,5,2
376,168,91173,1,8
256,168,91515,1,2
256,248,91744,1,2
128,248,92087,1,0
128,248,92201,2,0,B|88:216|88:152|128:120,1,144,0|8
190,62,92773,2,0,B|222:22|286:22|318:62,1,144,2|2
256,344,93801,5,0
256,344,93915,1,8
256,257,94144,1,0
256,257,94258,2,0,B|232:185|280:185|256:113,2,144,2|8|2
330,212,95173,2,0,B|354:180|436:180|463:216,1,144,2|2
464,336,96658,5,8
376,336,96887,1,0
376,336,97001,1,2
328,216,97344,2,0,B|256:240|256:192|184:216,1,144,8|2
224,296,97915,1,2
94,284,98258,2,0,B|30:268|30:145|96:133,1,192,0|8
256,16,99287,5,2
256,168,99630,1,2
256,168,99744,1,2
192,280,100087,1,8
320,280,100430,2,0,B|352:320|416:320|448:280,2,144,0|8|2
96,80,102030,5,0
96,80,102144,1,8
184,80,102373,1,0
184,80,102487,1,2
256,184,102830,2,0,B|280:256|232:256|256:328,2,144,8|0|8
328,80,103858,2,0,B|360:40|424:40|456:80,2,144,2|8|2
256,336,105230,5,2
256,192,105573,1,8
256,48,105915,1,2
256,192,106030,12,6,107287
464,48,107973,5,2
48,344,108658,1,6
256,32,109915,5,2
256,32,110030,1,2
336,136,110373,2,0,B|376:168|376:232|336:264,2,144,8|0|8
288,200,111287,1,2
176,136,111630,2,0,B|136:168|136:232|176:264,1,144,0|2
175,262,112087,1,2
256,360,112430,1,8
440,344,113458,6,0,B|352:320|376:368|296:352,1,144,2|8
216,352,114030,1,0
216,352,114144,2,0,B|147:368|155:320|70:344,1,144,2|8
80,256,114715,1,2
80,256,114830,2,0,B|40:224|40:160|80:128,1,144,0|8
184,56,115515,1,0
256,104,115744,1,0
256,104,115858,1,8
352,192,116201,2,0,B|384:152|448:152|480:192,1,144
328,328,116887,5,0
256,280,117115,1,0
256,280,117230,1,8
160,192,117573,2,0,B|128:232|64:232|32:192,1,144
48,48,118258,5,6
256,344,118944,1,2
464,48,119630,1,6
256,182,120544,5,2
257,53,120887,1,0
257,53,121001,1,2
285,179,121344,2,0,B|333:179|325:219|373:219,1,96,8|2
320,53,122030,1,8
191,54,122373,1,2
229,179,122715,2,0,B|181:179|189:219|141:219,1,96,8|2
256,344,123401,5,8
360,208,123973,2,0,B|320:176|320:112|360:80,1,144
359,82,124430,1,2
256,159,124773,1,8
152,208,125115,2,0,B|192:176|192:112|152:80,1,144,0|8
112,144,125687,1,2
256,159,126030,1,2
256,320,126487,5,2
432,56,127173,1,2
80,56,127858,1,2
384,344,129115,5,2
384,344,129230,1,2
256,344,129573,2,0,B|224:304|160:304|128:344,1,144,8|0
130,342,130144,1,2
256,223,130601,2,0,B|280:151|232:151|256:79,1,144,0|8
255,82,131173,1,2
376,176,131515,5,0
376,176,131630,1,8
256,184,131973,1,2
136,176,132315,1,8
136,176,132544,1,0
256,304,133001,2,0,B|256:360,3,48,8|0|0|0
256,192,133687,12,4,134715
256,40,145687,5,4
128,96,146373,5,2
88,152,146715,1,0
128,208,147058,1,2
207,310,147630,2,0,B|223:274|288:274|304:312,1,115.200002746582,2|0
256,376,148430,1,2
440,192,149458,5,0
392,136,149801,1,2
344,192,150144,1,0
296,136,150487,2,0,B|280:120|232:120|216:136,2,86.4000020599366,2|0|2
344,232,151515,5,0
292,293,151858,1,4
220,293,152201,1,0
168,232,152544,1,2
256,104,153230,2,0,B|240:56|272:56|256:16,2,86.4000020599366,2|0|2
256,192,154944,12,6,156658
32,192,157344,5,2
480,192,158030,1,6
256,336,159287,5,2
256,336,159401,1,0
256,208,159744,2,0,B|288:136|224:136|256:64,1,144,0|2
184,176,160430,1,8
96,176,160658,1,0
128,72,161001,2,0,B|160:32|224:32|256:72,1,144,2|0
254,69,161458,2,0,B|286:109|350:109|382:69,1,144,2|8
192,363,162830,6,0,B|232:331|232:267|192:235,1,144,2|8
320,264,163515,2,0,B|280:232|280:168|320:136,1,144,2|8
404,138,164087,1,0
404,138,164201,2,0,B|444:170|444:234|404:266,1,144,0|8
314,314,164887,1,2
227,314,165115,1,0
227,314,165230,1,8
104,272,165573,2,0,B|133:232|74:178|106:132,1,144,0|2
198,70,166258,5,2
285,70,166487,1,0
285,70,166601,1,8
408,112,166944,2,0,B|379:152|438:206|406:252,1,144,0|2
488,352,167630,5,6
256,192,168315,1,2
24,32,169001,1,6
62,345,169915,6,0,B|22:313|22:249|62:217,1,144,2|2
60,218,170373,1,8
171,284,170715,1,2
257,285,170944,1,2
450,345,171401,6,0,B|490:313|490:249|450:217,1,144,2|8
344,286,172087,1,0
256,286,172315,1,2
256,24,172773,5,8
257,239,173344,1,2
257,368,173687,1,2
257,369,173801,1,0
144,304,174144,2,0,B|104:272|104:208|144:176,1,144,8|0
256,120,174830,1,8
320,184,175058,1,2
192,184,175401,1,2
256,40,175858,5,2
256,352,176544,1,2
256,40,177230,1,2
448,360,178487,5,0
448,360,178601,1,2
328,360,178944,1,8
320,232,179287,2,0,B|288:192|224:192|192:232,1,144,2|8
192,360,179973,1,0
64,360,180315,1,8
64,360,180544,1,2
128,248,180887,5,0
128,248,181001,1,8
184,136,181344,2,0,B|256:104|256:168|328:136,1,144,2|8
288,64,181915,1,2
256,232,182373,2,0,B|256:288,3,48,8|0|0|0
256,192,183058,12,4,184087
