osu file format v9

[General]
AudioFilename: Owl City - To the Sky.mp3
AudioLeadIn: 0
PreviewTime: 46867
Countdown: 1
SampleSet: Normal
StackLeniency: 0.7
Mode: 0
LetterboxInBreaks: 0

[Editor]
DistanceSpacing: 0.8
BeatDivisor: 3
GridSize: 8

[Metadata]
Title:To the Sky
Artist:Owl City
Creator:NoHItter
Version:Easy
Source:The Legend of Guardians: The Owls of Ga'Hoole
Tags:

[Difficulty]
HPDrainRate:1
CircleSize:3
OverallDifficulty:1
ApproachRate:2
SliderMultiplier:1.02
SliderTickRate:1

[Events]
//Background and Video events
0,0,"ground.jpg"
//Break Periods
2,74573,83784
2,134915,144127
//Storyboard Layer 0 (Background)
//Storyboard Layer 1 (Fail)
//Storyboard Layer 2 (Pass)
//Storyboard Layer 3 (Foreground)
//Storyboard Sound Samples
//Background Colour Transformations
3,100,163,162,255

[TimingPoints]
316,342.857142857143,4,1,1,51,1,0
46944,-100,4,1,1,71,0,1
74372,-100,4,1,1,71,0,0
74373,-100,4,1,1,91,0,1
74374,-100,4,1,1,71,0,0
85459,-100,4,1,1,51,0,0
107287,-100,4,1,1,71,0,1
134715,-100,4,1,1,51,0,0
134716,-100,4,1,1,91,0,1
134717,-100,4,1,1,51,0,0
146030,-166.666666666667,4,2,0,40,0,0
153916,-166.666666666667,4,2,0,60,0,0
155973,-100,4,1,1,50,0,0
156659,-100,4,1,1,71,0,1
184087,-100,4,1,1,91,0,0

[Colours]
Combo1 : 5,47,243
Combo2 : 4,183,4

[HitObjects]
256,40,14030,1,2
152,128,14601,2,0,B|128:176|152:232,1,102
256,192,15401,5,2
360,280,15973,2,0,B|384:328|360:384,1,102,0|0
256,352,16773,5,2
150,278,17344,2,0,B|86:238|87:140|152:106,2,204,0|0|2
216,192,19173,1,0
296,192,19515,5,2
384,88,20087,2,0,B|384:24|304:24,1,102
256,112,20887,5,2
120,136,21458,2,0,B|120:200|200:200,1,102
256,192,22258,12,0,24315
256,192,25344,5,8
256,272,25687,1,2
256,352,26030,2,0,B|144:352|176:176,2,204,8|8|8
256,192,28087,5,8
256,112,28430,1,2
256,32,28773,2,0,B|368:32|336:208,2,204,8|8|8
128,128,30830,5,8
72,192,31173,1,2
128,248,31515,1,8
184,192,31858,2,0,B|216:136|296:248|336:192,1,170,0|2
416,192,32773,1,2
320,352,33458,6,0,B|256:336|184:352,1,136,2|8
256,200,34601,1,0
256,120,34944,2,0,B|256:96|256:72|256:48,1,68,8|8
488,192,36316,5,8
421,145,36658,1,2
405,225,37001,1,8
391,304,37344,2,0,B|256:336|119:303,1,272,0|2
24,104,39058,5,8
104,104,39401,1,0
88,184,39744,1,8
168,184,40087,2,0,B|256:218|337:187,1,170,0|2
256,32,41801,5,8
256,120,42144,1,2
256,208,42487,1,8
171,208,42830,2,0,B|157:261|219:320|299:320|363:264|338:179,1,272,0|2
210,42,44544,5,8
301,42,44887,1,2
256,120,45230,1,8
256,192,45573,12,4,46944
256,280,47630,5,2
256,104,48316,1,6
459,328,49687,6,0,B|408:320|357:327,2,102,2|8|0
459,240,50716,1,8
459,152,51058,2,0,B|358:168|251:152,1,204,0|2
255,60,52087,1,8
256,336,53116,6,0,B|136:336|136:200,1,204,2|2
256,64,54487,1,0
256,152,54830,1,8
256,240,55173,2,0,B|360:240|344:80,2,204,2|2|0
112,168,57230,1,0
72,328,57916,5,4
256,328,58601,1,2
432,328,59287,1,6
256,160,60201,6,0,B|240:112|272:80|256:24,1,136,2|0
176,64,61001,2,0,B|136:128,1,68,8|2
256,160,61687,1,8
256,248,62030,1,0
336,208,62373,2,0,B|376:272,1,68,8|2
256,336,63058,5,2
144,232,63630,2,0,B|80:248|8:232,1,136,2|0
35,144,64430,1,8
123,144,64773,1,0
102,54,65116,2,0,B|190:38|271:54,1,170,8|2
373,60,66144,5,2
256,200,66830,1,2
139,340,67516,1,2
344,32,68887,5,2
256,72,69230,1,8
168,32,69573,1,2
176,200,70258,2,0,B|259:178|344:200,1,170,0|2
378,327,71287,5,8
290,327,71630,1,0
202,327,71973,2,0,B|130:327,1,68,8|2
256,248,72658,1,8
256,192,73001,12,4,74373
256,40,85344,5,4
176,88,85687,2,0,B|192:136|255:141,1,102,8|0
336,88,86373,1,8
416,136,86716,2,0,B|512:168|512:320|416:352,1,272,2|2
256,256,88315,6,0,B|232:216|280:152|256:120,1,136,2|0
168,96,89115,1,8
96,152,89458,2,0,B|40:184|40:304|96:328,1,204,2|2
256,144,91173,5,8
256,56,91515,1,0
432,106,92201,2,0,B|512:240|432:368,1,272,2|2
256,240,93915,5,8
256,328,94258,1,0
96,280,94944,2,0,B|33:203|96:124,1,170,2|2
392,72,96658,5,8
464,128,97001,1,2
392,184,97344,1,8
320,127,97687,2,0,B|256:31|187:127,1,170,2|2
65,126,98715,1,8
120,312,99401,5,8
48,256,99744,1,2
120,200,100087,1,8
190,259,100430,2,0,B|254:402|323:259,1,204,2|2
344,32,102144,5,8
256,32,102487,1,2
168,32,102830,1,8
209,113,103173,2,0,B|202:218|314:219|305:105,2,204,2|2|2
256,288,105230,5,2
210,367,105573,1,8
298,367,105915,1,2
256,192,106144,12,4,107287
256,280,107973,5,2
256,104,108658,1,6
53,328,110030,6,0,B|104:320|155:327,2,102,2|8|0
53,240,111058,1,8
53,152,111401,2,0,B|154:168|261:152,1,204,0|2
257,60,112430,1,8
256,336,113458,6,0,B|376:336|376:200,1,204,2|2
256,64,114830,1,0
256,152,115173,1,8
256,240,115515,2,0,B|152:240|168:80,2,204,0|2|0
400,168,117573,1,0
440,328,118258,5,4
256,328,118944,1,2
80,328,119630,1,6
256,160,120544,6,0,B|272:112|240:80|256:24,1,136,2|0
336,64,121344,2,0,B|376:128,1,68,8|2
256,160,122030,1,8
256,248,122373,1,0
176,208,122715,2,0,B|136:272,1,68,8|2
256,336,123401,5,2
368,232,123973,2,0,B|432:248|504:232,1,136,2|0
477,144,124773,1,8
389,144,125115,1,0
410,54,125458,2,0,B|322:38|241:54,1,170,8|2
139,60,126487,5,2
256,200,127173,1,2
373,340,127858,1,2
168,32,129230,5,2
256,72,129573,1,8
344,32,129916,1,2
336,200,130601,2,0,B|253:178|168:200,1,170,0|2
134,327,131630,5,8
222,327,131973,1,0
310,327,132315,2,0,B|382:327,1,68,8|2
256,248,133001,1,8
256,192,133344,12,4,134715
256,48,145687,5,4
144,64,146373,6,0,B|120:120|144:192,1,122.400002918243,2|2
197,279,147744,2,0,B|237:255|285:295|316:278,2,122.400002918243,2|2|4
256,184,149801,6,0,B|240:128|272:112|256:56,1,122.400002918243,2|2
352,120,151173,2,0,B|408:144|480:120,1,122.400002918243,2|4
464,232,152544,5,2
424,336,153230,1,2
312,344,153915,1,2
256,192,154944,12,4,156658
168,192,157344,5,2
352,192,158030,1,6
36,243,159401,6,0,B|27:191|36:139,2,102,2|8|0
96,312,160430,1,8
181,345,160773,2,0,B|280:329|384:345,1,204,2|0
480,344,161801,1,8
215,241,162830,6,0,B|191:185|255:109|328:184|295:245,1,204,2|2
184,96,164201,1,0
256,40,164544,1,8
328,96,164887,2,0,B|416:152|384:280,2,204
256,240,166944,1,0
200,88,167630,5,6
256,240,168315,1,2
312,88,169001,1,6
256,328,169915,6,0,B|192:320|120:328,1,136,0|2
104,240,170715,2,0,B|72:176,1,68,8|2
184,136,171401,1,8
184,224,171744,1,0
264,240,172087,2,0,B|296:176,1,68,8|2
344,80,172773,5,8
480,128,173344,2,0,B|496:192|480:264,1,136,2|0
408,320,174144,1,8
320,336,174487,1,0
344,248,174830,2,0,B|256:264|175:248,1,170,8|2
56,216,175858,5,2
232,168,176544,1,2
176,344,177230,1,2
256,24,178601,5,2
212,104,178944,1,8
300,104,179287,1,2
440,192,179973,2,0,B|463:277|440:360,1,170,0|2
318,347,181001,5,8
258,277,181344,1,0
201,348,181687,2,0,B|129:348,1,68,8|2
258,278,182373,1,8
256,192,182715,12,4,184087
