osu file format v6

[General]
AudioFilename: Owl City - The Tip of the Iceberg [0438].mp3
AudioLeadIn: 0
PreviewTime: -1
Countdown: 1
SampleSet: Soft
StackLeniency: 0.7
Mode: 0
LetterboxInBreaks: 1

[Editor]
DistanceSpacing: 2
BeatDivisor: 4
GridSize: 8

[Metadata]
Title:The Tip of the Iceberg
Artist:Owl City
Creator:wyaeiga
Version:Hard
Source:
Tags:

[Difficulty]
HPDrainRate:7
CircleSize:5
OverallDifficulty:7
SliderMultiplier:1.4
SliderTickRate:2

[Events]
//Background and Video events
0,0,"iceberg.jpg"
//Break Periods
2,79805,85371
2,117579,130701
//Storyboard Layer 0 (Background)
//Storyboard Layer 1 (Fail)
//Storyboard Layer 2 (Pass)
//Storyboard Layer 3 (Foreground)
//Storyboard Sound Samples
//Background Colour Transformations
3,100,0,0,0

[TimingPoints]
56,444.411525072217,4,2,0,100,1,0
30275,-100,4,2,0,100,0,1
44441,-100,4,2,0,100,0,0
44497,-100,4,2,0,100,0,1
44997,-100,4,2,0,100,0,0
72939,-100,4,2,0,100,0,1
79605,-100,4,2,0,100,0,0
100937,-100,4,2,0,0,0,0
101159,-100,4,2,0,100,0,0
101381,-100,4,2,0,100,0,1
117380,-100,4,2,0,100,0,0
145826,-100,4,2,0,100,0,1
186486,-200,4,2,0,100,0,0
188486,-200,4,2,0,100,0,1
188708,-100,4,2,0,0,0,1

[Colours]
Combo1 : 34,34,255
Combo2 : 75,220,245

[HitObjects]
256,80,1833,2,0,B|256:272,1,140,2|8
256,288,2500,1,0
400,288,2944,1,0
328,288,3166,1,8
328,144,3611,6,0,B|136:144,1,140,2|8
120,144,4277,1,0
120,0,4722,1,0
120,72,4944,1,8
256,72,5388,6,0,B|296:72|336:88|344:176,1,140,2|8
272,160,6055,2,0,B|272:200|288:240|376:248,1,140
432,248,6722,1,8
320,336,7166,6,0,B|320:296|304:256|216:248,1,140,2|8
232,320,7833,2,0,B|192:320|152:304|144:216,1,140
144,160,8499,1,8
208,32,8944,5,2
328,104,9388,2,0,B|416:104,1,70,8|0
256,104,10055,2,0,B|168:104,1,70,0|8
256,240,10721,5,2
392,224,11166,1,8
344,168,11388,1,0
344,304,11832,1,0
392,256,12055,1,8
256,240,12499,5,2
120,224,12943,1,8
168,168,13166,1,0
168,304,13610,1,0
120,256,13832,1,8
256,240,14277,5,2
256,168,14499,1,0
328,168,14721,1,2
296,104,14943,1,0
256,40,15165,1,2
216,104,15388,1,0
184,168,15610,1,2
256,168,15832,1,0
256,240,16054,1,4
328,360,16499,5,8
184,360,16943,1,0
256,328,17165,1,0
184,296,17388,1,8
328,360,17832,5,2
184,360,18276,1,8
328,360,18721,1,0
256,328,18943,1,0
328,296,19165,1,8
256,176,19610,5,2
160,80,20054,1,8
160,216,20498,1,0
88,200,20721,1,0
88,128,20943,1,8
224,128,21387,5,2
88,128,21832,1,8
224,128,22276,1,0
296,128,22498,1,0
368,128,22720,1,8
368,264,23165,5,2
368,128,23609,1,8
224,128,24054,1,0
224,128,24276,1,0
224,128,24498,1,8
224,264,24943,6,0,B|128:264|128:168,1,140,2|8
192,56,25831,1,0
256,72,26054,1,0
296,128,26276,1,8
296,264,26720,1,0
296,128,27165,1,8
296,264,27609,1,0
296,264,27831,1,0
296,264,28053,1,8
224,128,28498,5,0
224,264,28942,1,8
224,128,29387,1,0
224,128,29609,1,0
224,128,29831,1,8
224,264,30275,1,4
360,264,30720,5,8
360,124,31164,2,0,B|360:316,1,140,2|8
296,232,31831,1,0
192,328,32275,1,0
192,256,32498,1,8
328,144,32942,6,0,B|136:144,1,140,2|8
120,144,33609,1,0
120,72,33831,1,0
120,0,34053,1,0
120,72,34275,1,8
192,72,34497,1,0
264,72,34720,6,0,B|304:72|344:88|352:176,1,140,2|8
272,160,35386,2,0,B|272:200|288:240|376:248,1,140
432,248,36053,1,8
432,176,36275,1,0
432,104,36497,6,0,B|432:64|416:24|328:16,1,140,2|8
264,136,37386,1,4
120,136,37830,1,8
192,256,38275,5,10
152,200,38497,1,0
120,136,38719,2,0,B|208:136,1,70,8|0
264,136,39164,1,8
336,136,39386,2,0,B|424:136,1,70,0|8
472,136,39830,1,0
472,208,40053,5,10
400,208,40275,2,2,B|320:208,1,70,0|8
192,208,40941,6,0,B|24:208,1,140,8|8
120,88,41830,5,10
168,136,42052,1,0
192,72,42275,1,8
192,0,42497,1,0
192,72,42719,1,8
216,136,42941,1,0
264,80,43163,1,8
192,200,43608,2,0,B|192:360,1,140,8|12
264,200,44497,6,0,B|264:392,1,140,2|8
328,320,45163,1,0
376,264,45385,1,0
376,192,45608,1,0
328,144,45830,1,8
328,144,46274,6,0,B|136:144,1,140,2|8
120,144,46941,1,0
120,216,47163,1,0
160,272,47385,1,0
200,216,47608,1,8
240,272,47830,1,0
281,216,48052,6,0,B|320:216|360:232|366:306,1,140,2|8
366,305,48719,2,0,B|373:231|413:215|453:215,1,140,0|0
472,144,49385,1,8
472,144,49830,6,0,B|472:104|456:64|368:56,1,140,2|8
312,72,50496,1,0
272,128,50718,1,0
328,160,50941,1,0
296,216,51163,1,8
224,216,51385,1,0
176,160,51607,5,2
104,160,51829,1,0
136,96,52052,2,0,B|224:96,1,70,8|0
280,96,52496,1,0
304,32,52718,2,0,B|216:32,1,70,0|8
160,32,53163,1,0
136,96,53385,5,2
208,96,53607,1,0
280,96,53829,1,8
344,128,54052,1,0
280,96,54274,1,0
320,192,54496,1,0
280,96,54718,1,8
272,232,54940,1,0
280,96,55163,5,2
160,168,55607,1,8
88,168,55829,1,0
88,96,56051,1,0
232,96,56496,1,8
160,96,56718,1,0
160,168,56940,2,0,B|160:360,1,140,2|8
224,344,57607,1,0
224,272,57829,1,0
272,224,58051,1,0
320,272,58273,1,8
320,344,58496,1,0
320,272,58718,6,0,B|512:272,1,140,2|8
424,208,59384,1,0
360,80,59829,1,0
288,88,60051,1,8
240,136,60273,1,0
288,88,60495,6,0,B|328:88|368:104|376:192,1,140,2|8
304,176,61162,1,0
240,136,61384,1,0
176,176,61606,1,0
240,208,61829,1,8
304,176,62051,1,0
240,136,62273,6,0,B|240:96|224:56|136:48,1,140,2|8
160,120,62940,2,0,B|120:120|80:104|72:16,1,140
16,72,63606,1,8
104,176,64051,5,2
168,200,64273,1,0
232,176,64495,2,0,B|320:176,1,70,8|0
368,176,64940,1,0
368,248,65162,2,0,B|280:248,1,70,0|8
232,248,65606,1,0
232,176,65828,5,2
264,112,66051,1,0
296,48,66273,1,8
296,56,66495,1,0
296,64,66717,1,0
296,72,66939,1,0
296,80,67162,1,8
296,152,67384,1,0
296,224,67606,5,2
360,256,67829,1,0
424,288,68051,1,8
416,288,68273,1,0
408,288,68495,1,0
400,288,68717,1,0
392,288,68940,1,8
320,288,69161,1,0
320,216,69384,2,0,B|320:24,1,140,2|8
256,40,70050,1,0
224,104,70273,1,0
160,136,70495,1,0
208,184,70717,1,8
348,184,71161,6,0,B|156:184,1,140,2|8
136,200,71828,1,0
160,136,72050,1,0
224,104,72272,1,0
256,40,72495,1,8
256,40,72939,6,0,B|296:40|336:56|344:144,1,140,2|8
344,280,73828,2,0,B|344:376,2,70,0|0|8
344,208,74494,1,0
272,208,74717,2,0,B|192:208,1,70,2|0
128,208,75161,1,8
128,136,75383,2,0,B|200:80,1,70
320,96,76050,1,8
183,93,76494,5,2
320,96,76939,2,0,B|408:96,1,70,8|0
448,136,77383,1,0
448,208,77605,2,0,B|360:208,1,70,0|8
304,208,78050,1,0
232,208,78272,5,2
232,136,78494,1,0
168,168,78716,1,10
168,96,78939,1,0
104,136,79161,1,2
104,168,79272,1,0
104,200,79383,1,2
104,232,79494,1,0
104,264,79605,1,12
256,208,86271,12,0,87605
72,216,88049,5,8
120,168,88271,1,0
136,232,88493,1,8
184,184,88716,2,0,B|336:184,1,140
376,234,89382,1,8
392,170,89604,1,0
440,218,89827,1,8
440,80,90271,1,8
296,128,90715,1,8
224,264,91160,5,8
160,224,91382,1,0
192,160,91604,1,8
192,88,91826,1,0
192,160,92049,1,8
256,192,92271,1,0
320,224,92493,1,8
376,176,92715,1,0
328,120,92938,1,8
328,48,93160,1,0
256,48,93382,1,10
224,48,93493,1,0
192,56,93604,1,2
168,80,93715,1,0
160,112,93826,1,4
232,248,94271,1,8
104,160,94715,5,8
168,280,95160,1,8
168,208,95382,1,0
168,136,95604,1,8
232,104,95826,1,0
296,144,96048,1,8
360,104,96271,1,0
296,64,96493,1,8
232,104,96715,1,0
296,144,96937,1,8
360,104,97159,1,0
296,64,97382,2,8,B|296:216,1,140
232,232,98048,5,0
152,232,98270,1,8
112,168,98493,1,0
192,168,98715,1,8
152,232,98937,1,0
112,168,99159,1,8
152,104,99381,1,0
232,104,99604,1,8
368,104,100048,1,8
232,104,100493,5,2
256,80,100604,1,2
288,64,100715,1,2
320,56,100826,1,2
352,64,100937,1,2
384,80,101048,1,0
408,104,101159,1,2
416,136,101270,1,2
416,168,101381,1,6
304,256,101826,5,8
176,192,102270,1,8
216,136,102492,1,0
248,192,102715,1,8
288,136,102937,1,0
320,192,103159,1,8
288,136,103381,1,0
248,192,103603,1,8
248,328,104048,1,8
248,192,104492,1,8
248,48,104937,1,8
112,96,105381,5,8
80,160,105603,1,0
152,160,105825,1,8
224,160,106048,1,0
192,224,106270,1,8
264,224,106492,1,0
336,224,106714,1,8
304,288,106936,1,0
376,288,107159,1,8
448,288,107381,1,0
448,216,107603,5,2
448,184,107714,1,0
448,152,107825,1,2
448,120,107936,1,0
448,88,108048,1,4
320,144,108492,5,12
160,144,108936,5,8
320,144,109381,1,8
280,216,109603,1,0
240,144,109825,1,8
280,80,110047,1,0
320,144,110270,1,12
280,216,110492,1,0
240,144,110714,1,8
280,80,110936,1,0
320,144,111158,1,12
280,288,111603,1,8
136,288,112047,5,12
208,288,112269,1,0
280,288,112492,1,8
352,288,112714,1,0
280,288,112936,1,12
280,216,113158,1,0
280,144,113380,1,8
280,72,113603,1,0
280,144,113825,1,12
208,144,114047,1,0
136,144,114269,1,8
64,144,114491,1,0
136,144,114714,1,12
136,216,114936,1,0
136,288,115158,5,8
136,360,115380,1,0
136,288,115602,2,0,B|248:288|304:128|344:328,2,280,4|0|4
128,248,131601,5,0
384,136,132046,1,8
160,312,132490,5,0
328,88,132935,1,8
216,352,133379,5,0
256,72,133823,1,8
288,352,134268,5,0
184,88,134712,1,8
352,312,135157,5,0
128,136,135601,1,8
384,248,136045,5,0
384,104,136268,1,0
352,240,136490,1,8
352,96,136712,1,0
320,232,136934,1,2
320,88,137156,1,2
288,88,137268,1,0
256,96,137379,1,10
232,120,137490,1,0
224,152,137601,1,2
88,216,137823,1,2
376,216,138267,1,12
88,216,138712,5,0
376,216,139156,1,8
88,144,139601,5,0
376,144,140045,1,8
88,72,140490,5,0
376,72,140934,1,8
88,144,141378,5,0
376,216,141823,1,8
88,144,142267,5,0
376,144,142712,1,8
88,216,143156,5,2
224,216,143378,1,0
88,288,143600,1,2
224,288,143823,1,2
88,216,144045,1,2
224,216,144267,1,2
256,216,144378,1,0
288,200,144489,1,2
320,184,144600,1,0
344,168,144711,1,2
224,216,144934,1,2
456,56,145378,1,12
176,56,145822,5,0
96,192,146045,1,0
96,32,146267,1,8
336,56,146711,5,0
416,192,146934,1,8
416,32,147156,1,8
336,328,147600,5,0
416,192,147822,1,0
416,352,148045,1,8
176,328,148489,5,0
96,192,148712,1,0
96,352,148934,1,8
176,224,149156,1,8
312,224,149378,6,0,B|264:272|312:312|360:304|368:256|360:200,1,140,0|8
200,224,150267,6,0,B|248:272|200:312|152:304|144:256|152:200,1,140,0|8
360,64,151155,6,0,B|312:112|360:152|408:144|416:96|408:40,1,140,0|8
152,64,152044,6,0,B|200:112|152:152|104:144|96:96|104:40,1,140,0|8
256,192,152933,5,0
200,288,153155,1,0
56,192,153377,1,8
256,192,153822,5,0
312,288,154044,1,8
456,192,154266,1,8
256,192,154711,5,0
200,96,154933,1,0
56,192,155155,1,8
256,192,155600,5,0
312,96,155822,1,0
456,192,156044,1,8
312,160,156266,1,8
176,192,156488,6,0,B|176:272|104:176|80:264,1,140,0|8
336,192,157377,6,0,B|336:272|408:176|432:264,1,140,0|8
176,192,158266,6,0,B|176:112|104:208|80:120,1,140,0|8
336,192,159155,6,0,B|336:112|408:208|432:120,1,140,0|8
136,104,160044,5,0
24,32,160266,1,0
136,104,160488,1,8
376,104,160932,5,0
488,32,161154,1,8
376,104,161376,1,8
136,280,161821,5,0
24,352,162044,1,0
136,280,162265,1,8
376,280,162709,5,0
488,352,162931,1,0
376,280,163153,1,8
256,208,163377,1,8
256,208,163599,6,2,B|256:88,2,105
112,208,164488,6,2,B|112:88,2,105
256,208,165377,6,2,B|256:88,2,105,2|2|2
392,208,166265,6,2,B|392:192|392:192|376:192|376:192|392:176|392:176|408:168|408:168|392:160|392:80,1,140
120,192,167154,5,0
184,64,167376,1,0
320,64,167599,1,8
120,192,168043,5,0
184,320,168265,1,8
320,320,168488,1,8
120,192,168932,5,0
256,192,169154,1,0
392,192,169376,1,8
392,192,169821,5,0
256,192,170043,1,0
120,192,170265,1,8
256,192,170487,1,8
256,48,170710,5,0
112,48,170932,1,2
112,48,171043,1,2
256,112,171265,1,2
256,112,171376,1,2
112,176,171598,5,0
256,176,171821,1,2
256,176,171932,1,2
112,240,172154,1,2
112,240,172265,1,2
256,304,172487,5,0
112,304,172709,1,2
112,304,172820,1,2
256,368,173043,1,2
256,368,173154,1,2
392,368,173376,5,2
408,336,173487,1,0
408,304,173598,1,2
392,272,173709,1,0
368,240,173820,1,2
368,200,173932,1,0
392,176,174043,1,2
392,104,174265,6,2,B|392:56,2,35
296,208,174709,6,0,B|256:248,2,35
320,72,175154,6,2,B|272:120,2,35
232,176,175598,6,0,B|192:216,2,35
256,40,176043,6,2,B|208:88,2,35
168,144,176486,6,0,B|128:192,2,35,0|0|0
176,0,176931,6,2,B|120:8|112:32|112:72|187:77,1,140
312,88,177598,1,2
312,88,177709,1,2
312,88,177820,1,2
440,136,178042,6,0,B|392:200|304:208,1,140,0|0
392,328,178709,2,0,B|360:272|256:272|280:280,2,105,0|0|2
392,328,179487,1,2
392,328,179598,2,0,B|384:272|448:224,2,105,6|0|4
352,192,180487,2,0,B|251:275|153:184,1,210,4|4
162,192,181375,6,2,B|210:144,2,35
258,80,181818,6,0,B|298:40,2,35
234,216,182263,6,2,B|282:168,2,35
322,112,182707,6,0,B|362:72,2,35
298,248,183152,6,2,B|346:200,2,35
386,144,183595,6,0,B|426:96,2,35,0|0|0
378,288,184040,6,2,B|434:280|442:256|442:216|367:211,1,140
280,160,184708,1,2
280,160,184820,1,2
280,160,184931,1,2
152,160,185153,5,0
216,32,185375,1,2
280,160,185597,1,0
216,280,185820,1,2
184,280,185931,1,0
152,280,186042,1,0
120,280,186153,1,0
88,280,186264,1,2
88,208,186486,2,0,B|19:107|128:32|168:80|184:136|136:152|88:152|0:128,1,315,0|6
256,208,188708,12,0,190264
