osu file format v9

[General]
AudioFilename: Owl-City_ChristmasSong.mp3
AudioLeadIn: 0
PreviewTime: 132973
Countdown: 0
SampleSet: Soft
StackLeniency: 0.7
Mode: 0
LetterboxInBreaks: 0

[Editor]
DistanceSpacing: 1
BeatDivisor: 4
GridSize: 8

[Metadata]
Title:The Christmas Song
Artist:Owl City
Creator:JauiPlaY
Version:Hard
Source:
Tags:xmas

[Difficulty]
HPDrainRate:5
CircleSize:4
OverallDifficulty:6
ApproachRate:6
SliderMultiplier:1.8
SliderTickRate:1

[Events]
//Background and Video events
0,0,"bg.jpg"
//Break Periods
2,93013,112334
//Storyboard Layer 0 (Background)
//Storyboard Layer 1 (Fail)
//Storyboard Layer 2 (Pass)
//Storyboard Layer 3 (Foreground)
//Storyboard Sound Samples
//Background Colour Transformations
3,100,0,0,0

[TimingPoints]
242,428.571428571429,3,2,0,60,1,0
27242,-100,3,2,0,45,0,0
28527,-100,3,2,2,30,0,0
31099,-100,3,2,0,60,0,0
51670,-200,3,2,0,30,0,0
72242,-100,3,2,1,60,0,1
92813,-100,3,2,0,60,0,0
133956,-100,3,2,1,60,0,1
154527,-200,3,2,0,60,0,0
154670,-200,3,2,0,30,0,0
175099,-100,3,2,1,60,0,1
195563,-100,3,2,1,60,0,0
195670,-100,3,2,1,60,0,1
195777,-100,3,2,1,60,0,0

[Colours]
Combo1 : 0,204,204
Combo2 : 0,128,0
Combo3 : 0,35,174
Combo4 : 181,0,0
Combo5 : 123,0,247
SliderBorder : 0,0,0

[HitObjects]
328,96,10099,1,0
400,192,10384,1,0
400,192,10527,2,0,B|372:252|284:253|256:193,1,180,0|2
152,136,11242,1,0
152,136,11384,2,0,B|113:191|153:247,1,120
152,248,11813,1,0
329,216,12242,2,0,B|349:231|349:231|329:336,1,120,2|0
331,324,12670,1,0
437,268,12956,6,0,B|431:330,1,60
487,156,13527,2,0,B|425:180|362:117|384:56,1,180,2|0
264,64,14242,1,0
264,64,14384,2,0,B|236:3|146:4|122:66,2,180,0|2|0
136,192,15670,6,0,B|48:280,1,120
64,336,16099,2,0,B|119:375|175:335,1,120,2|0
192,280,16527,2,0,B|248:239|303:278,1,120
303,278,16956,1,0
467,350,17384,1,2
448,172,17813,1,0
382,339,18242,6,0,B|437:303|426:215|361:198,2,180,0|2|0
130,45,19527,2,0,B|74:80|84:169|150:185,2,180,0|2|0
312,64,20813,6,0,B|208:128,1,120,0|0
209,126,21241,1,2
312,192,21527,1,0
312,192,21670,2,0,B|432:192,1,120
432,192,22099,1,0
312,328,22527,2,0,B|288:304|288:304|272:304|272:304|288:288|288:288|272:288|272:288|248:264,1,120,2|0
249,265,22956,2,0,B|199:296,2,60
249,265,23384,6,0,B|186:286|138:240,1,120
138,240,23813,1,2
216,149,24099,1,0
216,149,24241,2,0,B|150:140|127:79,1,120
161,29,24670,2,0,B|137:91|72:99,1,120
72,100,25099,1,2
40,215,25384,1,0
40,215,25527,2,0,B|28:278|80:321,1,120
80,321,25956,5,0
165,126,26384,1,2
290,295,26813,1,0
88,282,27241,5,0
193,150,27670,1,2
253,308,28099,1,0
100,256,28527,5,0
210,176,28956,1,2
224,310,29384,1,0
178,247,29670,5,0
178,247,29813,1,4
178,247,31099,6,0,B|240:265|286:215,1,120
316,162,31527,2,0,B|269:209|289:271,1,120,2|0
371,229,31956,2,0,B|415:181|396:118,1,120,0|0
396,118,32384,1,0
316,28,32670,2,0,B|257:40,3,60,0|2|0|0
256,40,33241,2,0,B|220:95|155:93,1,120,2|0
133,39,33670,6,0,B|44:133,1,120
33,184,34099,2,0,B|29:247|85:285,1,120,2|0
177,304,34527,2,0,B|180:240|124:202,1,120
124,202,34956,1,0
228,144,35241,2,0,B|244:200,3,60,0|2|0|0
244,200,35813,2,0,B|279:146|346:150,1,120,2|0
368,208,36241,6,0,B|360:264|416:300|472:264|464:208,2,180,0|2|0
416,96,37384,1,0
416,96,37527,2,0,B|424:40|368:4|312:40|320:96,2,180,0|2|0
246,35,38813,6,0,B|214:94|247:149,1,120
148,219,39241,2,0,B|179:159|146:104,1,120,2|0
146,104,39670,1,0
70,198,39956,2,0,B|53:255,1,60
209,345,40527,1,2
376,278,40956,2,0,B|412:324,2,60,2|0|0
376,278,41384,6,0,B|434:170,1,120
326,190,41813,2,0,B|330:67,1,120,2|0
243,135,42241,2,0,B|193:22,1,120
194,25,42670,1,0
96,96,42956,2,0,B|148:132,3,60,0|2|0|0
145,130,43527,2,0,B|125:193|63:209,1,120,2|0
41,266,43956,6,0,B|132:342,1,120
160,262,44384,2,0,B|278:277,1,120,2|0
265,193,44813,2,0,B|371:140,1,120
372,140,45242,1,0
475,200,45527,2,0,B|432:241,3,60,0|2|0|0
431,241,46099,2,0,B|413:305|351:322,1,120,2|0
350,322,46527,6,0,B|236:265,1,120
242,268,46956,1,2
124,242,47242,2,0,B|175:206,1,60
79,136,47670,1,0
79,136,47813,2,0,B|204:110,1,120
196,112,48242,1,2
296,46,48527,1,0
296,46,48670,2,0,B|276:109|318:157,1,120
319,157,49099,5,0
319,319,49527,1,2
178,238,49956,1,0
319,157,50384,2,0,B|261:188,2,60
319,319,50813,2,0,B|261:288,2,60,2|0|0
178,238,51242,1,2
178,238,51670,6,0,B|237:278|214:361|148:388|74:344|88:273,1,270,0|8
304,144,53813,5,0
304,144,54242,2,0,B|343:84|291:16|219:16|167:84|207:144,1,270,0|8
423,274,56384,5,0
423,274,56813,2,0,B|437:344|363:388|297:361|274:278|334:238,1,270,0|8
256,64,58956,5,0
152,188,59384,2,0,B|160:156,2,30
200,260,59813,2,0,B|208:292,2,30,2|0|0
256,192,60242,2,0,B|256:152,2,30,2|0|0
312,260,60670,2,0,B|304:292,2,30,8|0|0
360,188,61099,2,0,B|352:156,2,30,2|0|0
360,188,61527,1,2
360,188,61956,6,0,B|429:207|477:135|454:67|372:40|328:97,1,270,0|8
304,348,64099,5,0
304,348,64527,2,0,B|343:288|291:220|219:220|167:288|207:348,1,270,0|8
183,97,66670,5,0
183,97,67099,2,0,B|139:40|57:67|34:135|82:207|152:188,1,270,0|8
320,236,69242,5,0
372,160,69670,1,0
324,84,70099,1,2
256,144,70527,1,2
188,84,70956,1,8
140,160,71384,1,2
192,236,71813,1,2
256,300,72242,6,0,B|318:312|364:264,1,120,6|0
364,263,72670,1,8
408,88,73099,2,0,B|444:40,2,60,0|0|2
416,148,73527,2,0,B|354:174|301:139,1,120,2|0
301,139,73956,1,8
132,80,74384,1,0
44,236,74813,6,0,B|80:356,1,120,2|0
78,350,75242,1,8
252,312,75670,2,0,B|296:360,2,60,0|0|2
196,292,76099,2,0,B|188:223|268:184|320:224,2,180,2|8|8
260,124,77384,6,0,B|376:88,1,120,2|0
374,88,77813,1,8
445,254,78242,2,0,B|485:302,2,60,0|0|2
445,254,78670,2,0,B|409:310|344:305,1,120,2|0
373,358,79099,2,0,B|326:311|343:243|343:243|317:259|290:251,1,180,8|0
308,72,79956,5,2
204,72,80384,1,8
323,160,80813,1,0
188,160,81242,1,2
338,248,81670,1,8
174,248,82099,2,0,B|124:218,2,60,8|0|0
182,307,82527,6,0,B|218:363|283:358,1,120,2|0
283,357,82956,1,8
456,309,83384,1,0
438,314,83527,1,0
420,311,83670,1,2
404,301,83813,2,0,B|396:234|450:197,1,120,2|0
498,235,84242,2,0,B|449:176|369:182|369:182|394:155,1,180,8|0
256,40,85099,6,0,B|307:14|358:56|341:121|286:131,1,180,2|8
120,60,85956,2,0,B|164:20,2,60,0|0|2
68,92,86384,2,0,B|32:148|64:205,1,120,2|0
124,192,86813,2,0,B|159:248|127:305,1,120,8|0
127,305,87242,1,8
295,333,87670,6,0,B|287:152,1,180,2|8
395,297,88527,2,0,B|452:284,3,60,0|0|2|2
445,165,89242,2,0,B|386:178,1,60,0|8
378,59,89670,2,0,B|435:46,1,60
256,192,90242,12,4,92813
256,192,113384,6,0,B|320:296,1,120,0|0
364,255,113813,2,0,B|429:268|470:218,1,120,2|0
425,177,114242,2,0,B|470:65,1,120
469,65,114670,1,0
356,106,114956,2,0,B|362:47,3,60,0|2|0|0
363,47,115527,2,0,B|306:12|250:45,1,120,2|0
249,46,115956,5,0
129,56,116242,2,0,B|84:100,1,60,0|2
103,216,116670,2,0,B|145:174,1,60
263,199,117099,2,0,B|218:243,1,60
237,359,117527,2,0,B|279:317,3,60,0|2|0|0
279,317,118099,2,0,B|335:350|392:316,1,120,2|0
449,335,118527,6,0,B|380:340|343:258|386:208,2,180,0|2|0
490,222,119670,1,0
490,222,119813,2,0,B|482:104,1,120
482,102,120242,1,2
390,24,120527,2,0,B|379:84,1,60
218,163,121099,6,0,B|286:168|323:86|280:36,2,180,0|2|0
80,46,122384,2,0,B|122:112,2,60
61,180,122813,2,0,B|28:129,2,60,2|0|0
61,180,123242,1,2
137,342,123670,6,0,B|131:220,1,120
207,242,124099,2,0,B|255:129,1,120,2|0
312,184,124527,2,0,B|404:104,1,120
402,105,124956,1,0
495,231,125242,2,0,B|436:213,3,60,0|2|0|0
437,213,125813,2,0,B|394:263|420:325,1,120,2|0
420,325,126242,6,0,B|304:364,1,120
303,285,126670,2,0,B|181:269,1,120,2|0
219,200,127099,2,0,B|116:133,1,120
119,134,127527,1,0
197,43,127813,2,0,B|234:92,3,60,0|2|0|0
233,90,128384,2,0,B|275:39|340:53,1,120,2|0
340,53,128813,6,0,B|306:98|339:156|405:151|424:98,2,180,0|2|0
471,288,130099,2,0,B|504:242|471:184|405:189|386:242,2,180,0|2|0
296,242,131384,6,0,B|342:194|322:131,1,120,0|0
238,171,131813,2,0,B|191:218|211:281,1,120,2|0
245,331,132242,2,0,B|123:328,1,120
84,254,132670,2,0,B|23:252,2,60
57,173,133099,2,0,B|118:171,2,60,2|0|0
57,173,133527,1,2
56,176,133956,6,0,B|81:120|129:77|186:58,2,180,6|8|0
158,238,135099,1,2
158,238,135242,2,0,B|214:218|262:175|287:120,2,180,2|8|0
305,340,136527,6,0,B|284:276|331:229,1,120,2|0
384,258,136956,2,0,B|431:210|410:147,1,120,8|0
410,147,137384,1,0
350,43,137670,2,0,B|328:102,1,60,2|2
219,148,138099,2,0,B|197:207,1,60,0|8
88,253,138527,2,0,B|66:312,1,60,0|8
53,129,139099,6,0,B|95:84|155:60|215:62,2,180,2|8|0
151,197,140242,1,2
151,197,140384,2,0,B|193:241|253:265|313:263,2,180,2|8|0
257,341,141670,6,0,B|387:350,1,120,2|0
421,308,142099,2,0,B|400:244|447:197,1,120,8|0
446,197,142527,1,0
384,95,142813,5,2
357,87,142956,1,2
331,79,143099,1,0
303,72,143242,1,0
277,64,143384,1,8
249,56,143527,1,0
222,49,143670,1,0
195,41,143813,1,8
153,216,144242,6,0,B|191:158|139:85|74:97,2,180,2|8|0
32,214,145384,1,2
32,214,145527,2,0,B|-6:271|45:344|110:332,2,180,2|8|0
190,298,146813,6,0,B|256:287|295:341,1,120,2|0
352,358,147241,2,0,B|458:292,1,120,8|0
453,294,147670,1,0
370,208,147956,2,0,B|410:163,1,60,2|2
289,155,148384,2,0,B|249:199,1,60,0|8
210,86,148813,2,0,B|249:41,1,60,0|8
150,191,149384,6,0,B|83:170|76:81|134:49,2,180,2|8|0
33,219,150527,1,2
33,219,150670,2,0,B|99:239|106:328|48:360,2,180,2|8|0
173,331,151956,6,0,B|197:269|265:265,1,120,2|0
314,302,152384,2,0,B|252:278|244:211,1,120,8|0
245,211,152813,1,0
292,100,153099,1,2
292,100,153241,2,0,B|344:70,2,60,2|0|0
408,134,153670,2,0,B|356:163,2,60,8|0|0
408,134,154099,1,8
408,134,154527,6,0,B|466:165|499:230|499:230|439:273|373:273,1,270,4|8
184,104,156670,5,0
184,104,157099,2,0,B|200:168|256:216|256:216|312:168|328:104,1,270,0|8
139,273,159241,5,0
139,273,159670,2,0,B|72:273|12:230|12:230|45:165|104:134,1,270,0|8
256,288,161813,5,0
336,248,162241,2,0,B|365:234,2,30
327,162,162670,2,0,B|344:135,2,30,2|0|0
256,112,163099,2,0,B|256:80,2,30,2|0|0
185,162,163527,2,0,B|167:135,2,30,8|0|0
176,248,163956,2,0,B|146:234,2,30,2|0|0
176,248,164384,1,2
176,248,164813,6,0,B|231:271|255:351|255:351|279:271|335:247,1,270,0|8
320,72,166956,5,0
320,72,167384,2,0,B|355:8|440:22|474:86|437:164|365:157,1,270,0|8
146,157,169527,5,0
146,157,169956,2,0,B|76:164|39:86|73:22|158:8|192:72,1,270,0|8
320,148,172099,5,0
372,224,172527,1,0
324,300,172956,1,2
256,240,173384,1,2
188,300,173813,1,8
140,224,174241,1,2
192,148,174670,1,2
256,84,175099,6,0,B|289:140|358:130,1,120,6|0
358,129,175527,1,8
462,274,175956,1,0
449,261,176099,1,0
441,245,176241,1,2
443,227,176384,2,0,B|412:284|343:278,1,120,2|0
343,278,176813,1,8
167,316,177241,1,0
128,140,177670,6,0,B|208:252,1,120,2|0
197,237,178099,1,8
43,144,178527,1,0
43,144,178670,1,0
43,144,178813,1,2
43,144,178956,2,0,B|68:199|69:264|46:319,2,180,2|8|8
200,55,180241,6,0,B|140:26|87:67,1,120,2|0
87,67,180670,1,8
260,117,181099,1,0
260,117,181241,1,0
260,117,181384,1,2
260,117,181527,2,0,B|319:145|372:104,1,120,2|0
372,104,181956,1,8
464,181,182241,2,0,B|410:214,1,60
256,304,182813,5,2
159,136,183241,1,8
352,136,183670,1,0
159,248,184099,1,2
256,80,184527,1,8
352,248,184956,1,8
352,248,185099,1,0
352,248,185241,1,0
352,248,185384,6,0,B|440:336,1,120,2|0
437,333,185813,1,8
441,153,186241,2,0,B|419:96,3,60,0|0|2|2
306,136,186956,1,0
306,136,187099,1,8
200,79,187384,1,0
200,79,187527,1,0
51,180,187956,6,0,B|99:135|81:71,1,120,2|0
81,70,188384,1,8
122,244,188813,2,0,B|79:289,2,60,0|0|2
122,244,189241,2,0,B|132:312|220:331|260:279,2,180,2|8|8
233,102,190527,6,0,B|184:146|202:210,1,120,2|0
202,210,190956,1,8
369,144,191384,2,0,B|317:174,2,60,0|0|2
369,144,191813,2,0,B|428:173|428:240,1,120,2|0
428,240,192241,1,8
420,360,192527,2,0,B|379:315,1,60
256,192,193099,12,4,195670
