osu file format v9

[General]
AudioFilename: Owl-City_ChristmasSong.mp3
AudioLeadIn: 0
PreviewTime: 132973
Countdown: 0
SampleSet: Soft
StackLeniency: 0.7
Mode: 0
LetterboxInBreaks: 0

[Editor]
DistanceSpacing: 1.1
BeatDivisor: 4
GridSize: 4

[Metadata]
Title:The Christmas Song
Artist:Owl City
Creator:JauiPlaY
Version:Easy
Source:
Tags:xmas

[Difficulty]
HPDrainRate:2
CircleSize:3
OverallDifficulty:2
ApproachRate:3
SliderMultiplier:0.8
SliderTickRate:1

[Events]
//Background and Video events
0,0,"bg.jpg"
//Break Periods
2,93013,111944
//Storyboard Layer 0 (Background)
//Storyboard Layer 1 (Fail)
//Storyboard Layer 2 (Pass)
//Storyboard Layer 3 (Foreground)
//Storyboard Sound Samples
//Background Colour Transformations
3,100,0,0,0

[TimingPoints]
242,428.571428571429,3,2,0,60,1,0
29813,-100,3,2,2,50,0,0
31099,-100,3,2,0,60,0,0
51670,-100,3,2,0,30,0,0
72242,-100,3,2,0,60,0,1
92813,-100,3,2,0,60,0,0
133956,-100,3,2,0,60,0,1
154527,-100,3,2,0,60,0,0
154670,-100,3,2,0,30,0,0
175099,-100,3,2,0,60,0,1
195563,-100,3,2,0,60,0,0
195670,-100,3,2,0,60,0,1
195777,-100,3,2,0,60,0,0

[Colours]
Combo1 : 0,204,204
Combo2 : 0,128,0
Combo3 : 0,35,174
Combo4 : 181,0,0
Combo5 : 123,0,247
SliderBorder : 0,0,0

[HitObjects]
256,248,10099,5,0
336,284,10527,2,0,B|328:356|256:388|184:356|176:284,1,240,2|0
88,128,12670,5,0
160,72,13099,2,0,B|220:88|256:140|256:140|292:88|352:72,1,240,2|0
424,128,14813,1,0
300,252,15670,6,0,B|348:320,2,80,2|0|0
212,252,16956,2,0,B|164:320,2,80
168,176,18242,2,0,B|188:136|188:136|256:76|324:136|324:136|344:176,1,240,2|0
352,352,20384,5,0
352,352,20813,2,0,B|292:336|256:284|256:284|220:336|160:352,1,240,2|0
256,204,22956,5,0
176,164,23384,2,0,B|183:92|255:60|327:92|335:164,2,240,2|0|2
256,320,26813,5,0
256,320,27241,1,0
412,240,28099,1,0
336,196,28527,6,0,B|176:196,1,160,2|0
100,240,29813,1,4
256,32,31099,6,0,B|256:116,1,80,2|0
416,192,32384,2,0,B|332:192,1,80,2|0
256,352,33670,6,0,B|256:268,1,80,2|0
96,192,34956,2,0,B|180:192,1,80,2|0
200,16,36241,6,0,B|216:40|216:40|192:96|256:136|320:96|296:40|296:40|312:16,2,240,2|2|2
256,184,39670,2,0,B|256:272,1,80,0|2
416,328,40956,5,0
416,328,41384,2,0,B|330:317|327:223|408:177|462:244,1,240,2|2
208,168,43956,6,0,B|175:87|255:39|335:87|304:166,1,240,2|2
49,243,46527,2,0,B|103:177|184:223|181:317|96:328,1,240,2|2
212,92,49099,6,0,B|144:52,2,80,2|0|0
300,92,50384,2,0,B|368:52,2,80,2|0|0
364,152,51670,6,0,B|407:168|407:168|445:153|497:193|462:248|421:247|421:247|386:278,1,240,2|8
148,152,54242,2,0,B|104:168|104:168|66:153|14:193|49:248|90:247|90:247|125:278,1,240,2|8
304,84,56813,2,0,B|228:156|256:272|284:156|208:84,1,240,2|8
328,320,59384,5,2
256,372,59813,1,0
184,320,60242,1,0
256,268,60670,2,0,B|256:180,2,80,8|0|0
328,320,61956,6,0,B|362:399|453:376|475:286|396:252,1,240,2|8
208,68,64527,2,0,B|175:148|255:196|335:148|304:69,1,240,2|8
115,252,67099,2,0,B|36:286|58:376|149:399|184:320,1,240,2|8
256,160,69242,5,0
344,148,69670,2,0,B|300:304,1,160
211,301,70956,2,0,B|168:148,1,160,8|0
256,160,72242,6,0,B|256:80,1,80,6|8
392,192,73527,2,0,B|343:255,1,80,2|8
168,255,74813,6,0,B|120:192,1,80,2|8
168,24,76099,2,0,B|188:104,1,80,2|8
256,44,76956,1,8
344,24,77384,6,0,B|324:104,1,80,2|8
256,264,78670,2,0,B|256:348,1,80,2|8
300,172,79956,6,0,B|364:224,2,80,2|8|0
212,172,81242,2,0,B|148:224,2,80,2|8|8
256,96,82527,5,2
256,96,82956,1,8
432,88,83813,2,0,B|400:160,1,80,2|8
300,308,85099,5,2
212,308,85527,1,8
112,161,86384,2,0,B|80:88,2,80,2|8|8
168,96,87670,5,2
168,96,88099,1,8
344,96,88956,1,2
344,96,89384,1,8
256,192,90242,12,4,92813
256,352,113384,6,0,B|256:268,1,80,2|0
96,192,114670,2,0,B|180:192,1,80,2|0
256,32,115956,6,0,B|256:116,1,80,2|0
416,192,117242,2,0,B|332:192,1,80,2|0
312,368,118527,6,0,B|296:344|296:344|320:288|256:248|192:288|216:344|216:344|200:368,2,240,2|2|2
256,200,121956,2,0,B|256:112,1,80,0|2
96,56,123242,5,0
96,56,123670,2,0,B|182:67|185:161|104:207|50:140,1,240,2|2
304,216,126242,6,0,B|337:297|257:345|177:297|208:218,1,240,2|2
463,141,128813,2,0,B|409:207|328:161|331:67|416:56,1,240,2|2
300,292,131384,6,0,B|368:332,2,80,2|0|0
212,292,132670,2,0,B|144:332,2,80,2|0|0
164,220,133956,6,0,B|188:140,1,80,6|8
348,220,135242,2,0,B|324:140,1,80,2|8
256,304,136527,6,0,B|256:216,2,80,2|8|0
176,264,137813,2,0,B|116:320,2,80,2|8|8
112,200,139099,6,0,B|130:126|203:119|203:119|211:91,1,160,2|8
300,91,140384,2,0,B|308:119|308:119|381:126|400:200,1,160,2|8
336,264,141670,2,0,B|396:320,2,80,2|0|8
304,180,142956,6,0,B|332:124|288:68|224:68|180:124|208:180,1,240,2|2
256,256,144670,1,8
408,344,145527,6,0,B|400:264,1,80,2|8
468,104,146813,2,0,B|396:156,1,80,2|8
376,68,147670,2,0,B|296:44,1,80,0|2
212,45,148527,6,0,B|136:68,1,80,8|8
108,150,149384,2,0,B|43:103,1,80,2|8
111,264,150670,2,0,B|104:344,1,80,2|8
256,192,151956,12,0,153241
148,232,154527,6,0,B|105:216|105:216|67:231|15:191|50:136|91:137|91:137|126:106,1,240,6|8
364,232,157099,2,0,B|408:216|408:216|446:231|498:191|463:136|422:137|422:137|387:106,1,240,2|8
208,300,159670,2,0,B|284:228|256:112|228:228|304:300,1,240,2|8
184,64,162241,5,2
256,116,162670,1,0
328,64,163099,1,0
256,116,163527,2,0,B|256:204,2,80,8|0|0
184,64,164813,6,0,B|150:-15|59:8|37:98|116:132,1,240,2|8
304,316,167384,2,0,B|337:236|257:188|177:236|208:315,1,240,2|8
397,132,169956,2,0,B|476:98|454:8|363:-15|328:64,1,240,2|8
256,224,172099,5,0
168,236,172527,2,0,B|212:80,1,160
301,83,173813,2,0,B|344:236,1,160,8|0
256,224,175099,6,0,B|256:304,1,80,6|8
120,192,176384,2,0,B|169:129,1,80,2|8
344,129,177670,6,0,B|392:192,1,80,2|8
344,360,178956,2,0,B|324:280,1,80,2|8
256,340,179813,1,8
168,360,180241,6,0,B|188:280,1,80,2|8
256,120,181527,2,0,B|256:36,1,80,2|8
212,212,182813,6,0,B|148:160,2,80,2|8|0
300,212,184099,2,0,B|364:160,2,80,2|8|8
256,288,185384,5,2
256,288,185813,1,8
80,296,186670,2,0,B|112:224,1,80,2|8
212,76,187956,5,2
300,76,188384,1,8
400,223,189241,2,0,B|432:296,2,80,2|8|8
344,288,190527,5,2
344,288,190956,1,8
168,288,191813,1,2
168,288,192241,1,8
256,192,193099,12,4,195670
