osu file format v9

[General]
AudioFilename: Owl City - Shy Violet.mp3
AudioLeadIn: 0
PreviewTime: 44246
Countdown: 0
SampleSet: Soft
StackLeniency: 0.7
Mode: 0
LetterboxInBreaks: 1

[Editor]
DistanceSpacing: 0.8
BeatDivisor: 4
GridSize: 8

[Metadata]
Title:Shy Violet
Artist:Owl City
Creator:MoodyRPG
Version:Easy
Source:
Tags:eldnl all things bright and beautiful

[Difficulty]
HPDrainRate:1
CircleSize:3
OverallDifficulty:1
ApproachRate:3
SliderMultiplier:0.9
SliderTickRate:2

[Events]
//Background and Video events
0,0,"NewMoon.jpg"
//Break Periods
2,79355,86442
2,114264,125715
//Storyboard Layer 0 (Background)
//Storyboard Layer 1 (Fail)
//Storyboard Layer 2 (Pass)
//Storyboard Layer 3 (Foreground)
//Storyboard Sound Samples
//Background Colour Transformations
3,100,163,162,255

[TimingPoints]
610,545.454545454546,4,2,0,80,1,0
166428,-100,4,2,0,100,0,1
201337,-100,4,2,0,100,0,0

[Colours]
Combo1 : 0,128,64
Combo2 : 51,95,174
Combo3 : 121,227,185
Combo4 : 88,95,167

[HitObjects]
101,147,26791,6,0,B|130:235,2,90,0|2|0
142,87,28428,1,2
213,87,28973,2,0,B|254:60|316:94,2,90,0|2|0
212,159,30609,1,2
210,231,31155,6,0,B|298:280|396:230,1,180
393,163,32791,1,2
393,90,33337,2,0,B|305:67|207:92,1,180
149,60,34973,1,2
100,113,35519,6,0,B|40:199,1,90,0|2
88,246,36610,2,0,B|159:316,1,90,0|2
224,310,37700,2,0,B|291:246,1,90,0|2
322,183,38791,2,0,B|261:112,1,90,0|2
256,192,39882,12,2,42064
60,147,44246,6,0,B|142:221|238:137,1,180,4|0
278,102,45882,1,8
378,194,46973,1,8
319,284,47791,2,0,B|274:284,1,45,0|8
201,282,48610,6,0,B|132:206|197:107,1,180
257,88,50246,1,8
321,119,50791,2,0,B|381:209|312:285,1,180,0|0
255,325,52428,1,8
192,288,52973,6,0,B|143:303|93:285,1,90,0|8
77,221,54064,2,0,B|61:171|78:129,1,90,0|8
124,78,55155,2,0,B|172:60|219:80,1,90,0|8
261,129,56246,1,0
316,83,56791,1,8
369,131,57337,6,0,B|433:214|374:313,1,180,0|2
323,257,58973,1,8
271,206,59519,2,0,B|188:161|81:215,1,180,0|2
67,141,61155,1,8
101,77,61700,6,0,B|189:116|284:76,1,180,4|0
348,81,63337,1,8
276,206,64428,1,8
211,292,65246,2,0,B|162:292,1,45,0|8
112,243,66064,6,0,B|112:124|222:106,1,180
259,58,67700,1,8
307,111,68246,2,0,B|402:126|402:245,1,180,0|2
401,315,69882,1,8
328,315,70428,6,0,B|312:266|242:254,1,90,0|8
224,319,71519,2,0,B|172:321|147:251,1,90,0|8
102,220,72610,2,8,B|57:182|112:128,1,90,0|8
131,76,73700,1,0
203,77,74246,1,8
274,78,74791,6,0,B|316:165|276:258,1,180,0|2
217,214,76428,1,8
160,169,76973,2,0,B|118:256|158:349,1,180,0|2
216,304,78610,1,8
256,244,79155,5,4
165,138,87882,6,0,B|215:52,1,90,0|8
318,58,89246,2,0,B|378:58,1,45,0|8
407,114,90064,2,0,B|351:195,1,90,0|8
300,280,91428,2,0,B|244:280,1,45,0|8
206,226,92246,6,0,B|148:151,1,90,0|8
112,93,93337,2,8,B|197:49,1,90,0|8
263,52,94428,1,0
387,110,95519,1,2
306,229,96610,6,0,B|221:286|137:228,1,180,0|0
90,174,98246,1,2
138,119,98791,2,0,B|222:61|310:121,1,180,0|0
347,59,100428,1,2
388,117,100973,6,0,B|451:190|384:289,1,180
320,252,102610,1,2
259,284,103155,2,0,B|163:247|119:154,1,180,0|2
257,41,105337,5,4
367,133,106428,1,8
256,225,107519,1,0
146,131,108609,1,8
143,274,109700,6,0,B|232:318|335:273,1,180,0|2
390,161,111882,2,0,B|307:120|208:156,1,180,0|2
149,122,113519,1,0
84,154,114064,1,2
256,192,127155,12,2,129337
207,329,131519,6,0,B|143:251|195:152,1,180,4|0
157,96,133155,1,8
297,70,134246,1,8
400,38,135064,2,0,B|400:89,1,45,0|8
400,155,135882,6,0,B|400:250,2,90,0|8|0
353,103,137519,1,8
294,60,138064,2,0,B|252:47|202:63,2,90,0|8|0
353,101,139700,1,8
394,163,140246,6,0,B|421:252|325:328,1,180,4|0
273,269,141882,1,8
156,183,142973,1,8
71,115,143791,2,0,B|106:79,1,45,0|8
174,89,144609,5,0
318,89,145700,1,2
367,225,146791,2,0,B|240:314|104:217,1,270,2|8
113,153,148973,5,4
172,112,149519,1,8
224,161,150064,2,0,B|333:162,1,90,2|8
386,161,151155,5,0
348,222,151700,1,8
311,283,152246,2,8,B|211:283,1,90,2|8
165,236,153337,5,0
105,195,153882,1,8
105,122,154428,1,2
237,66,155519,5,0
237,137,156064,1,8
289,186,156610,1,2
405,101,157700,6,0,B|462:179|403:281,1,180,4|0
336,268,159337,1,8
260,145,160428,1,8
134,143,161246,2,0,B|77:143,1,45,0|8
44,199,162064,5,0
164,277,163155,1,2
285,199,164246,1,2
400,108,165337,2,0,B|306:75|219:108,1,180,0|4
162,144,166973,5,8
110,194,167519,1,0
163,241,168064,1,8
214,291,168610,6,0,B|300:333|405:287,1,180,0|2
438,241,170246,1,8
388,194,170791,6,0,B|298:166|194:197,2,180
379,122,173519,1,8
289,79,174337,2,0,B|239:79,1,45,0|8
167,76,175155,6,0,B|89:139,2,90,4|8|0
220,124,176791,1,8
272,174,177337,2,0,B|197:236,2,90,0|8|0
324,223,178973,1,8
371,168,179519,5,0
256,80,180610,1,2
143,169,181700,1,2
186,306,182791,2,0,B|269:348|269:348|346:307,1,180,0|4
350,234,184428,5,8
256,124,185519,1,8
156,228,186610,1,8
256,189,187428,2,0,B|256:128,1,45,0|8
256,71,188246,6,0,B|364:90|408:177,1,180
403,237,189882,1,8
258,259,190973,1,8
116,233,192064,1,8
178,197,192610,6,0,B|261:137|364:206,2,180,4|0|0
126,146,195337,1,8
85,85,195882,1,0
157,86,196428,1,8
228,86,196973,5,4
331,189,198064,1,4
256,192,199155,12,4,201337
