osu file format v12

[General]
AudioFilename: Shooting Star Lyrics Owl City Short D.mp3
AudioLeadIn: 0
PreviewTime: 78554
Countdown: 0
SampleSet: Soft
StackLeniency: 0.6
Mode: 3
LetterboxInBreaks: 0
SpecialStyle: 0
WidescreenStoryboard: 0

[Editor]
DistanceSpacing: 1
BeatDivisor: 4
GridSize: 8

[Metadata]
Title:Shooting Star
TitleUnicode:Shooting Star
Artist:Owl City
ArtistUnicode:Owl City
Creator:NaxelCL
Version:7K HD
Source:
Tags:Synthpop Mikkel S. Eriksen Tor Erik Hermansen Matthew Thiessen Dan Omelio Stargate Adam Young Christian Songs f The Star-Ledger PiraTom Simple_Star Remillion Cross Skalim Hinagikatsura
BeatmapID:354995
BeatmapSetID:142600

[Difficulty]
HPDrainRate:7
CircleSize:7
OverallDifficulty:8
ApproachRate:5
SliderMultiplier:1.4
SliderTickRate:1

[Events]
//Background and Video events
0,0,"x.jpg",0,0
//Break Periods
//Storyboard Layer 0 (Background)
//Storyboard Layer 1 (Fail)
//Storyboard Layer 2 (Pass)
//Storyboard Layer 3 (Foreground)
//Storyboard Sound Samples
//Background Colour Transformations
3,100,163,162,255

[TimingPoints]
1135,483.870967741935,4,2,1,40,1,0
47586,-100,4,2,2,20,0,1
63070,-100,4,2,2,20,0,0
74683,-100,4,2,1,25,0,0
78554,-100,4,2,1,25,0,1
92102,-100,4,2,1,25,0,0

[HitObjects]
182,192,16618,1,2,0:0:0:0:
329,192,16618,1,2,0:0:0:0:
475,192,16860,128,0,17344:0:0:0:0:
256,192,16860,1,0,0:0:0:0:
109,192,17102,1,2,0:0:0:0:
329,192,17102,1,0,0:0:0:0:
36,192,17223,1,0,0:0:0:0:
402,192,17344,128,0,17586:0:0:0:0:
182,192,17586,128,2,18312:0:0:0:0:
109,192,17949,1,0,0:0:0:0:
402,192,18070,1,2,0:0:0:0:
36,192,18070,1,0,0:0:0:0:
256,192,18312,128,0,19038:0:0:0:0:
402,192,18312,1,0,0:0:0:0:
329,192,18675,1,0,0:0:0:0:
475,192,19038,128,2,19280:0:0:0:0:
402,192,19038,1,2,0:0:0:0:
182,192,19038,1,0,0:0:0:0:
329,192,19401,1,0,0:0:0:0:
109,192,19522,1,2,0:0:0:0:
36,192,19522,1,0,0:0:0:0:
182,192,19643,128,0,20005:0:0:0:0:
329,192,19764,1,0,0:0:0:0:
36,192,20005,128,2,20247:0:0:0:0:
475,192,20005,1,2,0:0:0:0:
256,192,20247,128,0,20489:0:0:0:0:
329,192,20247,1,0,0:0:0:0:
36,192,20489,1,2,0:0:0:0:
402,192,20489,1,0,0:0:0:0:
109,192,20731,128,0,20973:0:0:0:0:
182,192,20731,1,0,0:0:0:0:
475,192,20973,128,2,21457:0:0:0:0:
402,192,20973,1,2,0:0:0:0:
36,192,21094,1,0,0:0:0:0:
182,192,21457,128,2,21820:0:0:0:0:
329,192,21457,1,2,0:0:0:0:
256,192,21457,1,0,0:0:0:0:
402,192,21820,128,0,22425:0:0:0:0:
329,192,21941,1,2,0:0:0:0:
109,192,21941,1,2,0:0:0:0:
256,192,22062,1,0,0:0:0:0:
36,192,22183,1,0,0:0:0:0:
182,192,22425,1,2,0:0:0:0:
475,192,22425,1,2,0:0:0:0:
109,192,22546,1,0,0:0:0:0:
256,192,22909,1,2,0:0:0:0:
36,192,22909,1,2,0:0:0:0:
329,192,23151,128,0,23393:0:0:0:0:
182,192,23151,1,0,0:0:0:0:
109,192,23272,1,0,0:0:0:0:
402,192,23393,1,2,0:0:0:0:
36,192,23393,128,2,24118:0:0:0:0:
475,192,23634,1,0,0:0:0:0:
256,192,23876,1,2,0:0:0:0:
475,192,23876,1,2,0:0:0:0:
182,192,24118,128,0,24360:0:0:0:0:
109,192,24118,1,0,0:0:0:0:
329,192,24360,1,2,0:0:0:0:
402,192,24360,1,2,0:0:0:0:
256,192,24602,128,0,24965:0:0:0:0:
109,192,24602,1,0,0:0:0:0:
36,192,24844,1,2,0:0:0:0:
475,192,24844,1,2,0:0:0:0:
182,192,24965,1,0,0:0:0:0:
329,192,24965,128,0,25328:0:0:0:0:
109,192,25328,1,2,0:0:0:0:
402,192,25328,128,2,25812:0:0:0:0:
256,192,25691,1,0,0:0:0:0:
182,192,25812,1,2,0:0:0:0:
475,192,25812,1,2,0:0:0:0:
109,192,25933,1,0,0:0:0:0:
36,192,26054,128,0,26659:0:0:0:0:
182,192,26054,1,0,0:0:0:0:
402,192,26175,1,0,0:0:0:0:
329,192,26296,1,2,0:0:0:0:
256,192,26296,1,2,0:0:0:0:
402,192,26417,1,0,0:0:0:0:
182,192,26659,1,0,0:0:0:0:
109,192,26780,1,2,0:0:0:0:
475,192,26780,1,2,0:0:0:0:
402,192,27022,128,0,27505:0:0:0:0:
256,192,27022,1,0,0:0:0:0:
36,192,27143,1,0,0:0:0:0:
182,192,27264,1,2,0:0:0:0:
329,192,27264,1,2,0:0:0:0:
109,192,27505,1,0,0:0:0:0:
36,192,27505,128,0,27626:0:0:0:0:
475,192,27626,128,0,27747:0:0:0:0:
182,192,27747,1,2,0:0:0:0:
329,192,27989,128,0,28473:0:0:0:0:
109,192,27989,1,0,0:0:0:0:
36,192,28231,1,2,0:0:0:0:
475,192,28231,1,2,0:0:0:0:
182,192,28473,1,0,0:0:0:0:
109,192,28715,1,2,0:0:0:0:
402,192,28715,1,2,0:0:0:0:
475,192,28836,1,0,0:0:0:0:
256,192,28957,1,0,0:0:0:0:
36,192,28957,128,0,29441:0:0:0:0:
329,192,29078,1,0,0:0:0:0:
182,192,29199,1,2,0:0:0:0:
475,192,29199,1,2,0:0:0:0:
329,192,29441,1,0,0:0:0:0:
475,192,29562,1,0,0:0:0:0:
182,192,29562,128,0,29925:0:0:0:0:
402,192,29683,1,2,0:0:0:0:
256,192,29683,1,2,0:0:0:0:
109,192,29804,1,0,0:0:0:0:
475,192,29925,128,0,30651:0:0:0:0:
329,192,29925,1,0,0:0:0:0:
402,192,30167,1,2,0:0:0:0:
36,192,30167,1,2,0:0:0:0:
256,192,30409,1,0,0:0:0:0:
182,192,30651,1,2,0:0:0:0:
402,192,30651,1,2,0:0:0:0:
109,192,30893,1,0,0:0:0:0:
256,192,31134,1,2,0:0:0:0:
36,192,31134,1,2,0:0:0:0:
182,192,31376,1,0,0:0:0:0:
475,192,31497,1,0,0:0:0:0:
329,192,31618,1,2,0:0:0:0:
109,192,31618,1,2,0:0:0:0:
256,192,31739,128,0,32102:0:0:0:0:
182,192,31860,1,0,0:0:0:0:
402,192,32102,1,2,0:0:0:0:
36,192,32344,128,0,32707:0:0:0:0:
329,192,32344,1,0,0:0:0:0:
182,192,32586,1,2,0:0:0:0:
475,192,32586,1,2,0:0:0:0:
402,192,32707,1,0,0:0:0:0:
109,192,32707,128,0,33070:0:0:0:0:
402,192,32949,1,0,0:0:0:0:
329,192,33070,1,2,0:0:0:0:
182,192,33070,1,2,0:0:0:0:
475,192,33070,128,0,33796:0:0:0:0:
36,192,33433,1,0,0:0:0:0:
182,192,33554,1,2,0:0:0:0:
329,192,33554,1,2,0:0:0:0:
109,192,33675,1,0,0:0:0:0:
256,192,33796,1,0,0:0:0:0:
402,192,33796,128,0,34522:0:0:0:0:
36,192,34038,1,2,0:0:0:0:
182,192,34038,1,2,0:0:0:0:
329,192,34159,1,0,0:0:0:0:
182,192,34401,1,0,0:0:0:0:
109,192,34522,1,2,0:0:0:0:
329,192,34522,1,0,0:0:0:0:
36,192,34764,128,0,35489:0:0:0:0:
182,192,34764,1,0,0:0:0:0:
475,192,34884,1,0,0:0:0:0:
256,192,35005,1,2,0:0:0:0:
109,192,35005,1,2,0:0:0:0:
329,192,35247,1,0,0:0:0:0:
256,192,35489,1,2,0:0:0:0:
475,192,35489,1,2,0:0:0:0:
402,192,35489,128,0,35973:0:0:0:0:
182,192,35610,1,0,0:0:0:0:
109,192,35973,1,2,0:0:0:0:
256,192,35973,1,2,0:0:0:0:
182,192,36215,128,0,36457:0:0:0:0:
36,192,36215,1,0,0:0:0:0:
109,192,36457,1,2,0:0:0:0:
329,192,36457,128,2,36699:0:0:0:0:
36,192,36578,1,0,0:0:0:0:
475,192,36699,128,0,36941:0:0:0:0:
36,192,36941,1,2,0:0:0:0:
256,192,36941,1,2,0:0:0:0:
402,192,36941,128,0,37304:0:0:0:0:
182,192,37304,1,0,0:0:0:0:
329,192,37304,128,0,37667:0:0:0:0:
109,192,37425,1,2,0:0:0:0:
256,192,37425,1,2,0:0:0:0:
36,192,37667,128,0,38393:0:0:0:0:
256,192,37909,1,2,0:0:0:0:
475,192,37909,1,2,0:0:0:0:
182,192,38030,1,0,0:0:0:0:
329,192,38393,1,2,0:0:0:0:
109,192,38393,1,2,0:0:0:0:
475,192,38634,128,0,39118:0:0:0:0:
256,192,38755,5,0,0:0:0:0:
182,192,38876,1,2,0:0:0:0:
329,192,38876,1,2,0:0:0:0:
109,192,38997,1,0,0:0:0:0:
182,192,39360,128,0,39844:0:0:0:0:
329,192,39360,1,2,0:0:0:0:
256,192,39360,1,2,0:0:0:0:
475,192,39602,128,0,39844:0:0:0:0:
109,192,39844,5,10,0:0:0:0:
36,192,39844,1,0,0:0:0:0:
402,192,40086,128,0,40328:0:0:0:0:
475,192,40086,1,0,0:0:0:0:
182,192,40328,1,0,0:0:0:0:
256,192,40328,1,0,0:0:0:0:
109,192,40570,128,0,40812:0:0:0:0:
256,192,40570,1,0,0:0:0:0:
475,192,40812,1,2,0:0:0:0:
36,192,40812,128,0,41296:0:0:0:0:
402,192,40812,1,0,0:0:0:0:
256,192,41296,1,0,0:0:0:0:
329,192,41296,1,0,0:0:0:0:
329,192,41538,1,0,0:0:0:0:
402,192,41659,1,0,0:0:0:0:
109,192,41780,1,10,0:0:0:0:
182,192,41780,1,0,0:0:0:0:
402,192,41901,1,0,0:0:0:0:
36,192,42143,1,0,0:0:0:0:
329,192,42264,1,10,0:0:0:0:
256,192,42264,1,10,0:0:0:0:
402,192,42264,128,0,42505:0:0:0:0:
182,192,42505,1,0,0:0:0:0:
475,192,42505,128,0,42989:0:0:0:0:
36,192,42747,1,10,0:0:0:0:
109,192,42747,1,10,0:0:0:0:
182,192,42989,128,0,43231:0:0:0:0:
402,192,43110,1,0,0:0:0:0:
329,192,43231,128,10,43473:0:0:0:0:
256,192,43231,1,2,0:0:0:0:
109,192,43473,1,0,0:0:0:0:
402,192,43473,128,0,43957:0:0:0:0:
109,192,43715,1,10,0:0:0:0:
36,192,43715,1,10,0:0:0:0:
182,192,43957,1,10,0:0:0:0:
256,192,43957,1,10,0:0:0:0:
36,192,44199,1,10,0:0:0:0:
109,192,44199,1,0,0:0:0:0:
256,192,44441,1,10,0:0:0:0:
182,192,44441,1,10,0:0:0:0:
329,192,44441,128,0,44925:0:0:0:0:
109,192,44683,1,10,0:0:0:0:
36,192,44683,1,0,0:0:0:0:
109,192,44925,1,10,0:0:0:0:
402,192,44925,1,10,0:0:0:0:
475,192,45046,128,0,46134:0:0:0:0:
256,192,45167,1,10,0:0:0:0:
182,192,45167,1,10,0:0:0:0:
182,192,45409,1,10,0:0:0:0:
402,192,45409,1,2,0:0:0:0:
329,192,45409,1,0,0:0:0:0:
36,192,45651,1,10,0:0:0:0:
109,192,45651,1,10,0:0:0:0:
329,192,45772,1,10,0:0:0:0:
256,192,45893,1,10,0:0:0:0:
402,192,46014,1,10,0:0:0:0:
182,192,46134,1,10,0:0:0:0:
109,192,46134,1,2,0:0:0:0:
36,192,46255,1,10,0:0:0:0:
329,192,46255,1,0,0:0:0:0:
256,192,46376,1,10,0:0:0:0:
402,192,46376,1,0,0:0:0:0:
329,192,46497,1,10,0:0:0:0:
109,192,46497,1,0,0:0:0:0:
256,192,46618,1,10,0:0:0:0:
182,192,46618,1,10,0:0:0:0:
402,192,46739,1,10,0:0:0:0:
36,192,46860,128,10,47344:0:0:0:0:
109,192,46860,1,0,0:0:0:0:
329,192,46860,1,0,0:0:0:0:
256,192,46981,1,10,0:0:0:0:
182,192,47102,1,8,0:0:0:0:
329,192,47102,1,0,0:0:0:0:
475,192,47102,1,0,0:0:0:0:
402,192,47344,128,0,47586:0:0:0:0:
109,192,47586,128,8,48070:0:0:0:0:
182,192,47586,1,0,0:0:0:0:
475,192,47828,1,0,0:0:0:0:
256,192,47828,128,0,48070:0:0:0:0:
329,192,48070,128,8,48312:0:0:0:0:
109,192,48312,1,0,0:0:0:0:
402,192,48312,128,0,48554:0:0:0:0:
182,192,48312,128,0,48554:0:0:0:0:
36,192,48554,1,8,0:0:0:0:
475,192,48554,128,8,48796:0:0:0:0:
109,192,48554,1,0,0:0:0:0:
256,192,48796,128,0,49038:0:0:0:0:
182,192,48796,1,0,0:0:0:0:
109,192,49038,1,8,0:0:0:0:
36,192,49038,128,0,49280:0:0:0:0:
329,192,49280,128,0,49522:0:0:0:0:
402,192,49522,1,8,0:0:0:0:
182,192,49522,1,0,0:0:0:0:
475,192,49522,128,0,49764:0:0:0:0:
256,192,49764,1,0,0:0:0:0:
109,192,49764,1,0,0:0:0:0:
36,192,49764,128,0,50247:0:0:0:0:
182,192,50005,1,8,0:0:0:0:
329,192,50005,1,0,0:0:0:0:
256,192,50247,128,0,50731:0:0:0:0:
109,192,50489,1,8,0:0:0:0:
402,192,50489,1,0,0:0:0:0:
475,192,50731,128,0,51215:0:0:0:0:
182,192,50973,1,8,0:0:0:0:
329,192,50973,1,0,0:0:0:0:
36,192,50973,128,0,51215:0:0:0:0:
402,192,51215,128,0,51699:0:0:0:0:
256,192,51457,1,8,0:0:0:0:
109,192,51457,1,8,0:0:0:0:
182,192,51699,128,0,52183:0:0:0:0:
329,192,51941,1,8,0:0:0:0:
475,192,51941,1,0,0:0:0:0:
36,192,52183,128,0,52909:0:0:0:0:
402,192,52425,1,8,0:0:0:0:
256,192,52425,1,0,0:0:0:0:
329,192,52909,1,8,0:0:0:0:
475,192,52909,1,0,0:0:0:0:
109,192,52909,128,0,53634:0:0:0:0:
402,192,53393,1,8,0:0:0:0:
256,192,53393,1,8,0:0:0:0:
329,192,53514,1,0,0:0:0:0:
402,192,53634,1,0,0:0:0:0:
182,192,53876,1,0,0:0:0:0:
36,192,53876,1,0,0:0:0:0:
109,192,54118,1,0,0:0:0:0:
475,192,54239,128,0,55086:0:0:0:0:
256,192,54239,1,0,0:0:0:0:
182,192,54360,1,8,0:0:0:0:
329,192,54360,1,8,0:0:0:0:
182,192,54602,1,0,0:0:0:0:
329,192,54602,1,0,0:0:0:0:
36,192,54844,1,8,0:0:0:0:
402,192,54844,1,8,0:0:0:0:
182,192,55086,1,0,0:0:0:0:
329,192,55086,128,0,56780:0:0:0:0:
109,192,55328,1,8,0:0:0:0:
256,192,55328,1,0,0:0:0:0:
36,192,55570,1,0,0:0:0:0:
182,192,55812,1,8,0:0:0:0:
402,192,55812,1,0,0:0:0:0:
475,192,56054,1,0,0:0:0:0:
256,192,56296,1,8,0:0:0:0:
109,192,56296,1,0,0:0:0:0:
36,192,56538,1,0,0:0:0:0:
182,192,56780,1,8,0:0:0:0:
36,192,56780,1,8,0:0:0:0:
402,192,56780,128,0,57505:0:0:0:0:
256,192,57022,1,0,0:0:0:0:
109,192,57264,1,8,0:0:0:0:
256,192,57264,1,0,0:0:0:0:
475,192,57505,1,0,0:0:0:0:
182,192,57747,1,8,0:0:0:0:
36,192,57747,1,8,0:0:0:0:
256,192,57989,1,0,0:0:0:0:
329,192,57989,128,0,58715:0:0:0:0:
109,192,58231,1,8,0:0:0:0:
256,192,58231,1,8,0:0:0:0:
475,192,58473,1,0,0:0:0:0:
182,192,58715,1,8,0:0:0:0:
36,192,58715,1,8,0:0:0:0:
402,192,58715,128,0,59199:0:0:0:0:
256,192,58957,1,0,0:0:0:0:
475,192,59199,1,8,0:0:0:0:
36,192,59199,128,8,59925:0:0:0:0:
256,192,59441,1,0,0:0:0:0:
182,192,59683,1,8,0:0:0:0:
329,192,59683,1,0,0:0:0:0:
109,192,59925,128,0,60651:0:0:0:0:
402,192,59925,1,0,0:0:0:0:
256,192,60167,1,8,0:0:0:0:
475,192,60167,1,0,0:0:0:0:
329,192,60409,1,0,0:0:0:0:
256,192,60651,1,8,0:0:0:0:
402,192,60651,1,8,0:0:0:0:
182,192,60651,128,0,61618:0:0:0:0:
475,192,60893,1,0,0:0:0:0:
329,192,61134,1,8,0:0:0:0:
36,192,61134,1,0,0:0:0:0:
402,192,61376,1,0,0:0:0:0:
329,192,61618,1,8,0:0:0:0:
109,192,61618,1,8,0:0:0:0:
256,192,61860,1,0,0:0:0:0:
402,192,62102,1,8,0:0:0:0:
475,192,62102,1,0,0:0:0:0:
329,192,62344,128,0,63312:0:0:0:0:
109,192,62344,1,0,0:0:0:0:
182,192,62586,1,8,0:0:0:0:
36,192,62586,1,8,0:0:0:0:
256,192,62828,1,0,0:0:0:0:
182,192,63070,1,8,0:0:0:0:
402,192,63070,1,8,0:0:0:0:
109,192,63312,1,0,0:0:0:0:
475,192,63312,128,0,63796:0:0:0:0:
256,192,63554,1,8,0:0:0:0:
402,192,63554,1,0,0:0:0:0:
182,192,63796,1,0,0:0:0:0:
36,192,63796,128,0,64280:0:0:0:0:
109,192,64038,1,8,0:0:0:0:
402,192,64038,1,8,0:0:0:0:
182,192,64280,1,0,0:0:0:0:
256,192,64280,128,0,64522:0:0:0:0:
329,192,64522,1,8,0:0:0:0:
402,192,64522,128,0,64764:0:0:0:0:
109,192,64764,1,0,0:0:0:0:
475,192,64764,128,0,65489:0:0:0:0:
182,192,65005,1,8,0:0:0:0:
36,192,65005,1,0,0:0:0:0:
256,192,65247,1,0,0:0:0:0:
109,192,65489,1,8,0:0:0:0:
329,192,65489,1,0,0:0:0:0:
182,192,65731,128,0,66215:0:0:0:0:
36,192,65731,1,0,0:0:0:0:
256,192,65973,1,8,0:0:0:0:
402,192,65973,1,0,0:0:0:0:
329,192,66215,1,0,0:0:0:0:
109,192,66215,128,0,66699:0:0:0:0:
402,192,66457,1,8,0:0:0:0:
256,192,66457,1,0,0:0:0:0:
36,192,66699,128,0,67183:0:0:0:0:
475,192,66699,1,0,0:0:0:0:
329,192,66941,1,8,0:0:0:0:
475,192,66941,1,0,0:0:0:0:
182,192,67183,128,0,67667:0:0:0:0:
256,192,67183,1,0,0:0:0:0:
329,192,67425,1,8,0:0:0:0:
109,192,67425,1,0,0:0:0:0:
402,192,67667,1,0,0:0:0:0:
475,192,67667,128,0,68393:0:0:0:0:
256,192,67909,1,8,0:0:0:0:
36,192,67909,1,8,0:0:0:0:
329,192,68151,1,0,0:0:0:0:
109,192,68393,1,8,0:0:0:0:
402,192,68393,1,0,0:0:0:0:
182,192,68393,128,0,69118:0:0:0:0:
329,192,68634,1,0,0:0:0:0:
256,192,68876,1,8,0:0:0:0:
36,192,68876,1,8,0:0:0:0:
109,192,69118,1,0,0:0:0:0:
36,192,69360,1,8,0:0:0:0:
402,192,69360,1,8,0:0:0:0:
329,192,69602,1,0,0:0:0:0:
475,192,69723,128,0,70086:0:0:0:0:
36,192,69723,1,0,0:0:0:0:
256,192,69844,1,8,0:0:0:0:
402,192,69844,1,8,0:0:0:0:
182,192,70086,1,0,0:0:0:0:
109,192,70086,128,0,70812:0:0:0:0:
329,192,70328,1,8,0:0:0:0:
36,192,70328,1,0,0:0:0:0:
402,192,70570,1,0,0:0:0:0:
256,192,70812,128,8,71538:0:0:0:0:
475,192,70812,1,0,0:0:0:0:
182,192,70812,1,0,0:0:0:0:
329,192,71054,1,0,0:0:0:0:
36,192,71296,1,8,0:0:0:0:
475,192,71296,1,8,0:0:0:0:
402,192,71538,128,0,72264:0:0:0:0:
109,192,71538,1,0,0:0:0:0:
182,192,71780,1,8,0:0:0:0:
329,192,71780,1,0,0:0:0:0:
109,192,72022,1,0,0:0:0:0:
475,192,72264,128,0,73231:0:0:0:0:
256,192,72264,1,8,0:0:0:0:
36,192,72264,1,0,0:0:0:0:
182,192,72505,1,0,0:0:0:0:
256,192,72747,1,8,0:0:0:0:
109,192,72747,1,8,0:0:0:0:
329,192,72989,1,0,0:0:0:0:
182,192,73231,1,8,0:0:0:0:
402,192,73231,1,0,0:0:0:0:
109,192,73473,1,0,0:0:0:0:
36,192,73473,128,0,73715:0:0:0:0:
256,192,73715,1,8,0:0:0:0:
329,192,73715,128,8,74199:0:0:0:0:
402,192,73957,1,0,0:0:0:0:
182,192,74199,1,8,0:0:0:0:
475,192,74199,1,8,0:0:0:0:
109,192,74199,128,0,74683:0:0:0:0:
402,192,74441,1,0,0:0:0:0:
256,192,74683,1,8,0:0:0:0:
36,192,74683,1,0,0:0:0:0:
475,192,74683,128,0,75167:0:0:0:0:
329,192,74925,1,8,0:0:0:0:
182,192,75167,1,8,0:0:0:0:
402,192,75167,1,0,0:0:0:0:
36,192,75167,128,0,76134:0:0:0:0:
109,192,75409,1,8,0:0:0:0:
182,192,75651,1,8,0:0:0:0:
402,192,75651,1,0,0:0:0:0:
109,192,75893,1,8,0:0:0:0:
475,192,76134,1,8,0:0:0:0:
256,192,76134,1,0,0:0:0:0:
329,192,76134,128,0,77102:0:0:0:0:
182,192,76376,1,8,0:0:0:0:
109,192,76618,1,10,0:0:0:0:
402,192,76618,1,2,0:0:0:0:
182,192,76739,1,8,0:0:0:0:
36,192,76739,1,0,0:0:0:0:
256,192,76860,1,8,0:0:0:0:
475,192,76860,1,0,0:0:0:0:
182,192,76981,1,8,0:0:0:0:
402,192,76981,1,0,0:0:0:0:
109,192,77102,1,10,0:0:0:0:
475,192,77102,1,2,0:0:0:0:
36,192,77223,1,8,0:0:0:0:
402,192,77223,1,0,0:0:0:0:
109,192,77344,1,8,0:0:0:0:
475,192,77344,1,0,0:0:0:0:
256,192,77465,1,8,0:0:0:0:
402,192,77465,1,0,0:0:0:0:
36,192,77586,1,10,0:0:0:0:
329,192,77586,1,2,0:0:0:0:
182,192,77707,1,8,0:0:0:0:
475,192,77828,1,8,0:0:0:0:
329,192,77828,1,8,0:0:0:0:
36,192,77949,1,8,0:0:0:0:
109,192,78070,1,0,0:0:0:0:
256,192,78070,1,0,0:0:0:0:
402,192,78070,128,0,78554:0:0:0:0:
329,192,78312,1,0,0:0:0:0:
182,192,78554,1,8,0:0:0:0:
475,192,78554,1,2,0:0:0:0:
36,192,78796,1,0,0:0:0:0:
256,192,78796,1,0,0:0:0:0:
182,192,79038,1,8,0:0:0:0:
329,192,79038,1,2,0:0:0:0:
256,192,79280,1,0,0:0:0:0:
402,192,79280,1,0,0:0:0:0:
475,192,79280,128,0,80005:0:0:0:0:
182,192,79522,1,8,0:0:0:0:
329,192,79522,1,2,0:0:0:0:
256,192,79764,1,0,0:0:0:0:
36,192,80005,1,2,0:0:0:0:
402,192,80005,1,8,0:0:0:0:
109,192,80005,128,2,80489:0:0:0:0:
182,192,80247,1,0,0:0:0:0:
329,192,80247,1,0,0:0:0:0:
256,192,80489,1,2,0:0:0:0:
402,192,80489,1,8,0:0:0:0:
256,192,80731,1,0,0:0:0:0:
475,192,80731,1,0,0:0:0:0:
182,192,80973,1,8,0:0:0:0:
329,192,80973,1,2,0:0:0:0:
402,192,81215,128,0,81941:0:0:0:0:
256,192,81215,1,0,0:0:0:0:
36,192,81215,1,0,0:0:0:0:
109,192,81457,1,0,0:0:0:0:
182,192,81457,1,0,0:0:0:0:
475,192,81941,128,2,82425:0:0:0:0:
256,192,81941,1,0,0:0:0:0:
329,192,81941,1,0,0:0:0:0:
109,192,82425,1,0,0:0:0:0:
36,192,82425,1,0,0:0:0:0:
329,192,82667,1,0,0:0:0:0:
182,192,82667,1,0,0:0:0:0:
256,192,82909,1,8,0:0:0:0:
402,192,82909,1,2,0:0:0:0:
36,192,83151,128,0,84360:0:0:0:0:
329,192,83151,1,0,0:0:0:0:
182,192,83151,1,0,0:0:0:0:
402,192,83393,1,0,0:0:0:0:
475,192,83393,1,0,0:0:0:0:
182,192,83876,1,0,0:0:0:0:
109,192,83876,1,0,0:0:0:0:
402,192,84360,1,0,0:0:0:0:
329,192,84360,1,0,0:0:0:0:
256,192,84602,1,0,0:0:0:0:
475,192,84602,1,0,0:0:0:0:
329,192,84844,1,2,0:0:0:0:
109,192,84844,1,8,0:0:0:0:
402,192,85086,1,0,0:0:0:0:
256,192,85086,1,0,0:0:0:0:
182,192,85207,1,0,0:0:0:0:
329,192,85328,1,2,0:0:0:0:
36,192,85328,1,8,0:0:0:0:
109,192,85570,1,0,0:0:0:0:
36,192,85812,1,8,0:0:0:0:
182,192,85812,1,2,0:0:0:0:
109,192,86054,1,0,0:0:0:0:
256,192,86054,1,0,0:0:0:0:
475,192,86054,128,0,87505:0:0:0:0:
182,192,86296,1,2,0:0:0:0:
36,192,86296,1,8,0:0:0:0:
109,192,86538,1,0,0:0:0:0:
329,192,86538,1,0,0:0:0:0:
182,192,86780,1,8,0:0:0:0:
256,192,86780,1,2,0:0:0:0:
109,192,87022,1,0,0:0:0:0:
402,192,87022,1,0,0:0:0:0:
36,192,87264,1,8,0:0:0:0:
256,192,87264,1,2,0:0:0:0:
402,192,87505,1,0,0:0:0:0:
329,192,87505,128,0,88231:0:0:0:0:
182,192,87747,1,8,0:0:0:0:
475,192,87747,1,2,0:0:0:0:
256,192,87989,1,0,0:0:0:0:
36,192,87989,1,0,0:0:0:0:
109,192,88231,1,8,0:0:0:0:
475,192,88231,1,2,0:0:0:0:
329,192,88473,1,0,0:0:0:0:
182,192,88473,1,0,0:0:0:0:
256,192,88715,1,8,0:0:0:0:
36,192,88715,1,2,0:0:0:0:
329,192,88957,1,0,0:0:0:0:
182,192,88957,1,0,0:0:0:0:
402,192,89199,1,2,0:0:0:0:
256,192,89199,1,8,0:0:0:0:
329,192,89441,1,0,0:0:0:0:
182,192,89683,1,8,0:0:0:0:
475,192,89683,1,2,0:0:0:0:
36,192,89683,128,0,90167:0:0:0:0:
402,192,89925,1,0,0:0:0:0:
256,192,89925,1,0,0:0:0:0:
329,192,90167,1,8,0:0:0:0:
402,192,90167,128,2,90893:0:0:0:0:
182,192,90409,1,0,0:0:0:0:
109,192,90651,1,2,0:0:0:0:
256,192,90651,1,8,0:0:0:0:
182,192,90893,1,0,0:0:0:0:
475,192,90893,128,0,91376:0:0:0:0:
36,192,91134,1,2,0:0:0:0:
329,192,91134,1,8,0:0:0:0:
109,192,91376,1,0,0:0:0:0:
256,192,91376,1,0,0:0:0:0:
182,192,91618,1,2,0:0:0:0:
402,192,91618,1,8,0:0:0:0:
36,192,91618,128,0,92586:0:0:0:0:
329,192,91860,1,0,0:0:0:0:
109,192,91860,1,0,0:0:0:0:
182,192,92102,1,2,0:0:0:0:
402,192,92102,1,8,0:0:0:0:
109,192,92344,1,0,0:0:0:0:
256,192,92344,1,0,0:0:0:0:
329,192,92586,1,2,0:0:0:0:
475,192,92586,1,8,0:0:0:0:
182,192,92828,1,0,0:0:0:0:
402,192,93070,1,10,0:0:0:0:
256,192,93070,1,2,0:0:0:0:
329,192,93312,1,0,0:0:0:0:
182,192,93554,128,10,93796:0:0:0:0:
