osu file format v12

[General]
AudioFilename: rugs from me to you.mp3
AudioLeadIn: 1500
PreviewTime: 32000
Countdown: 0
SampleSet: Soft
StackLeniency: 0.7
Mode: 0
LetterboxInBreaks: 0
WidescreenStoryboard: 0

[Editor]
DistanceSpacing: 1.3
BeatDivisor: 3
GridSize: 4

[Metadata]
Title:Rugs From Me To You
TitleUnicode:Rugs From Me To You
Artist:Owl City
ArtistUnicode:Owl City
Creator:Zero__wind
Version:Insane
Source:
Tags:Ocean Eyes Adam Young yanlu Azure
BeatmapID:262989
BeatmapSetID:98666

[Difficulty]
HPDrainRate:7
CircleSize:4
OverallDifficulty:7
ApproachRate:8
SliderMultiplier:1.8
SliderTickRate:1

[Events]
//Background and Video events
0,0,"rugs.jpg",0,0
//Break Periods
//Storyboard Layer 0 (Background)
//Storyboard Layer 1 (Fail)
//Storyboard Layer 2 (Pass)
//Storyboard Layer 3 (Foreground)
//Storyboard Sound Samples
//Background Colour Transformations
3,100,163,162,255

[TimingPoints]
534,400,4,2,1,50,1,0
933,-100,4,2,2,60,0,0
6933,-100,4,2,2,55,0,0
7333,-100,4,2,2,45,0,0
8533,-100,4,2,2,55,0,0
8933,-100,4,2,2,45,0,0
10133,-100,4,2,2,55,0,0
10400,-100,4,2,2,45,0,0
11733,-100,4,2,2,55,0,0
12133,-100,4,2,2,45,0,0
13333,-100,4,2,2,55,0,0
13733,-100,4,2,2,45,0,0
14933,-100,4,2,2,55,0,0
15333,-100,4,2,2,45,0,0
16533,-100,4,2,2,55,0,0
16933,-100,4,2,2,45,0,0
18133,-100,4,2,2,55,0,0
18533,-100,4,2,2,45,0,0
19733,-100,4,2,1,40,0,0
20000,-100,4,2,2,60,0,0
21333,-100,4,2,2,50,0,0
22933,-100,4,2,2,60,0,0
24533,-100,4,2,2,50,0,0
26133,-100,4,2,2,60,0,0
29400,-100,4,2,2,40,0,0
31733,-100,4,2,2,70,0,0
32533,-100,4,2,2,40,0,0
32933,-100,4,2,2,55,0,0
70533,-76.9230769230769,4,2,2,55,0,0
70933,-66.6666666666667,4,2,2,55,0,1
71333,-83.3333333333333,4,2,2,55,0,1
75733,-83.3333333333333,4,2,1,65,0,1
76000,-83.3333333333333,4,2,2,55,0,1
80533,-100,4,2,2,55,0,1
82133,-100,4,2,2,40,0,0
84533,-100,4,2,2,10,0,0
85333,-100,4,2,2,60,0,0

[Colours]
Combo1 : 228,138,52
Combo2 : 24,156,123
Combo3 : 224,153,122
Combo4 : 143,196,29

[HitObjects]
88,204,534,2,0,B|176:204|224:100,1,180,4|2,0:0|1:2,0:0:0:0:
56,24,1334,1,0,0:0:0:0:
176,172,1734,2,0,P|228:208|288:204,1,120,2|2,1:2|0:0,0:0:0:0:
176,172,2134,2,0,P|204:239|187:283,1,120,0|2,0:0|0:0,0:0:0:0:
376,256,2534,2,0,P|387:184|366:138,1,120,2|2,1:2|0:0,0:0:0:0:
232,32,2934,2,0,P|268:72|336:80,1,120,0|2,0:0|0:0,0:0:0:0:
428,72,3334,1,2,1:2:0:0:
480,204,3734,5,0,0:0:0:0:
424,316,4134,1,2,1:2:0:0:
320,352,4534,2,0,P|240:368|152:328,1,180,2|2,0:0|1:2,0:0:0:0:
29,335,5200,1,2,0:0:0:0:
46,328,5334,2,0,P|100:268|92:172,1,180,0|2,0:0|1:2,0:0:0:0:
64,56,6000,2,0,L|36:28,2,30,2|0|2,0:0|0:0|1:2,0:0:0:0:
164,120,6534,2,0,P|240:116|276:88,1,120,0|0,0:0|0:0,0:0:0:0:
320,36,6934,5,2,0:0:0:0:
476,128,7334,1,2,0:0:0:0:
412,232,7600,1,0,0:0:0:0:
412,232,7734,2,0,P|352:268|248:240,1,180,2|2,0:0|0:0,0:0:0:0:
136,216,8400,1,0,0:0:0:0:
136,216,8534,2,0,P|148:292|236:348,1,180,2|2,0:0|0:0,0:0:0:0:
424,92,9334,5,2,0:0:0:0:
327,165,9600,1,0,0:0:0:0:
327,165,9734,2,0,L|328:288,1,120,2|0,0:0|0:0,0:0:0:0:
248,248,10134,2,0,L|248:128,1,120,2|0,0:0|0:0,0:0:0:0:
328,164,10534,2,0,B|248:236|168:164,1,180,2|2,0:0|0:0,0:0:0:0:
48,268,11334,2,0,P|8:216|4:160,1,120,2|0,0:0|0:0,0:0:0:0:
84,191,11734,6,0,P|101:103|181:75,1,180,2|2,0:0|0:0,0:0:0:0:
288,124,12400,1,0,0:0:0:0:
288,124,12534,2,0,B|251:188|192:192|192:192|252:216,1,180,2|2,0:0|0:0,0:0:0:0:
368,44,13200,1,0,0:0:0:0:
368,44,13334,6,0,P|288:10|205:44,1,180,2|2,0:0|0:0,0:0:0:0:
400,160,14000,1,0,0:0:0:0:
400,160,14134,2,0,P|476:96|483:18,2,180,2|2|2,0:0|0:0|0:0,0:0:0:0:
352,340,15334,1,2,0:0:0:0:
204,288,15600,1,0,0:0:0:0:
204,288,15734,2,0,P|116:292|56:356,1,180,2|2,0:0|0:0,0:0:0:0:
248,368,16534,6,0,P|285:283|247:201,1,180,2|2,0:0|0:0,0:0:0:0:
156,120,17200,1,0,0:0:0:0:
156,120,17334,2,0,P|70:103|32:20,1,180,2|2,0:0|0:0,0:0:0:0:
132,16,18000,1,0,0:0:0:0:
132,16,18134,6,0,L|296:88,1,180,2|2,0:0|0:0,0:0:0:0:
156,120,18934,2,0,L|320:192,1,180,2|2,0:0|0:0,0:0:0:0:
452,68,19734,5,4,0:0:0:0:
482,184,20000,2,0,L|506:248,1,60,0|2,0:0|1:2,0:0:0:0:
365,124,20400,2,0,L|320:84,1,60,0|2,0:0|0:0,0:0:0:0:
425,301,20800,2,0,L|368:328,1,60,0|2,0:0|1:2,0:0:0:0:
133,290,21200,6,0,L|168:240,1,60,0|2,0:0|0:0,0:0:0:0:
348,244,21600,2,0,L|299:279,1,60,0|2,0:0|1:2,0:0:0:0:
185,318,22000,2,0,L|133:290,1,60,0|2,0:0|0:0,0:0:0:0:
89,177,22400,2,0,L|70:120,1,60,0|2,0:0|1:2,0:0:0:0:
248,152,22800,6,0,L|196:184,1,60,0|2,0:0|0:0,0:0:0:0:
362,9,23200,2,0,L|370:69,1,60,0|2,0:0|1:2,0:0:0:0:
130,72,23600,2,0,L|188:52,1,60,0|2,0:0|0:0,0:0:0:0:
236,226,24000,2,0,L|196:180,1,60,0|2,0:0|1:2,0:0:0:0:
278,92,24400,6,0,L|336:108,1,60,0|2,0:0|0:0,0:0:0:0:
440,168,24800,2,0,L|380:167,1,60,0|2,0:0|1:2,0:0:0:0:
276,240,25200,2,0,L|333:224,1,60,0|2,0:0|0:0,0:0:0:0:
448,292,25600,2,0,L|396:261,1,60,0|2,0:0|1:2,0:0:0:0:
296,348,26000,1,0,0:0:0:0:
296,348,26134,6,0,P|228:336|188:300,1,120,2|0,0:0|0:0,0:0:0:0:
140,380,26534,2,0,P|103:331|104:274,1,120,2|0,1:2|0:0,0:0:0:0:
13,256,26934,2,0,P|56:197|99:183,1,120,2|0,0:0|0:0,0:0:0:0:
13,256,27334,2,0,P|-8:204|0:140,1,120,2|0,1:2|0:0,0:0:0:0:
156,44,27734,6,0,P|113:82|53:93,1,120,2|0,0:0|0:0,0:0:0:0:
156,44,28134,2,0,P|168:112|152:160,1,120,2|0,1:2|0:0,0:0:0:0:
168,250,28534,2,0,P|222:217|245:163,1,120,2|0,0:0|0:0,0:0:0:0:
168,250,28934,2,0,P|224:272|284:272,1,120,2|0,1:2|0:0,0:0:0:0:
244,166,29334,5,2,0:0:0:0:
256,192,29400,12,2,31734,0:0:0:0:
268,128,32534,5,4,0:1:0:0:
392,48,32934,1,10,0:0:0:0:
412,80,33067,1,2,0:0:0:0:
420,116,33200,1,0,0:0:0:0:
504,180,33334,5,2,1:0:0:0:
477,207,33467,1,0,0:0:0:0:
442,221,33600,1,6,0:0:0:0:
405,221,33734,2,0,B|377:225|353:213|353:213|328:232|288:244,1,120,10|0,0:0|0:0,0:0:0:0:
203,241,34134,6,0,P|160:280|151:339,1,120,4|0,0:0|0:0,0:0:0:0:
241,331,34534,2,0,L|300:324,2,60,10|2|0,0:0|0:0|0:0,0:0:0:0:
151,339,34934,2,0,P|115:335|88:328,1,60,2|2,1:0|0:0,0:0:0:0:
40,256,35200,1,6,0:0:0:0:
38,238,35334,2,0,P|38:176|82:126,1,120,10|0,0:0|0:0,0:0:0:0:
228,45,35734,6,0,P|188:80|124:84,1,120,4|0,0:0|0:0,0:0:0:0:
200,112,36134,2,0,L|260:140,1,60,10|2,0:0|0:0,0:0:0:0:
284,224,36400,2,0,P|312:209|332:186,1,60,0|2,0:0|1:0,0:0:0:0:
360,71,36667,2,0,P|391:84|414:99,1,60,2|6,0:0|0:0,0:0:0:0:
402,265,36934,2,0,P|358:306|302:322,1,120,10|2,0:0|0:0,0:0:0:0:
408,176,37334,6,0,P|464:200|492:253,1,120,4|2,0:0|0:0,0:0:0:0:
402,265,37734,1,10,0:0:0:0:
376,295,37867,1,2,0:0:0:0:
341,314,38000,1,0,0:0:0:0:
301,322,38134,2,0,L|241:325,1,60,2|0,1:0|0:0,0:0:0:0:
156,356,38400,1,6,0:0:0:0:
67,367,38534,2,0,P|84:304|60:256,1,120,10|0,0:0|0:0,0:0:0:0:
32,140,38934,5,4,0:0:0:0:
32,140,39200,2,0,P|57:154|91:160,1,60,0|10,0:0|0:0,0:0:0:0:
224,96,39467,2,0,P|205:128|186:142,1,60,2|0,0:0|0:0,0:0:0:0:
140,56,39734,1,2,1:0:0:0:
175,23,39867,1,2,0:0:0:0:
222,10,40000,1,6,0:0:0:0:
268,24,40134,2,0,B|291:37|305:68|305:68|316:92|360:72,1,120,10|0,0:0|0:0,0:0:0:0:
430,20,40534,6,0,P|443:94|424:135,1,120,4|0,0:0|0:0,0:0:0:0:
357,216,40934,2,0,P|322:210|294:192,2,60,10|2|0,0:0|0:0|0:0,0:0:0:0:
412,271,41334,2,0,P|431:239|435:212,1,60,2|2,1:0|0:0,0:0:0:0:
349,146,41600,1,6,0:0:0:0:
238,144,41734,2,0,P|221:208|242:257,1,120,10|0,0:0|0:0,0:0:0:0:
60,96,42134,6,0,P|123:78|155:36,1,120,4|0,0:0|0:0,0:0:0:0:
106,273,42534,2,0,P|59:226|6:219,1,120,10|0,0:0|0:0,0:0:0:0:
238,144,42934,1,2,1:0:0:0:
222,181,43067,1,2,0:0:0:0:
224,220,43200,1,6,0:0:0:0:
240,255,43334,2,0,P|280:312|324:336,1,120,10|0,0:0|0:0,0:0:0:0:
416,352,43734,5,6,0:0:0:0:
414,307,43867,1,2,0:0:0:0:
388,269,44000,1,0,0:0:0:0:
465,215,44134,5,10,0:0:0:0:
432,185,44267,1,2,0:0:0:0:
387,175,44400,1,0,0:0:0:0:
404,83,44534,5,2,1:0:0:0:
360,86,44667,1,2,0:0:0:0:
321,110,44800,1,6,0:0:0:0:
267,34,44934,5,10,0:0:0:0:
238,67,45067,1,2,0:0:0:0:
227,111,45200,1,2,0:0:0:0:
288,208,45334,6,0,P|256:280|164:328,1,180,4|8,1:0|0:0,0:0:0:0:
59,374,46000,1,0,0:0:0:0:
56,356,46134,2,0,P|58:294|85:245,1,120,2|4,1:0|0:0,0:0:0:0:
169,208,46534,2,0,P|117:159|70:154,1,120,8|0,0:0|0:0,0:0:0:0:
169,208,46934,2,0,P|179:136|116:51,1,180,6|8,0:0|0:0,0:0:0:0:
399,186,47600,1,0,0:0:0:0:
396,204,47734,2,0,P|368:264|316:292,1,120,2|4,1:0|0:0,0:0:0:0:
176,307,48134,2,0,P|220:292|264:236,1,120,10|0,0:0|0:0,0:0:0:0:
396,204,48534,2,0,P|340:124|264:100,1,180,6|10,0:0|0:0,0:0:0:0:
124,128,49200,5,0,0:0:0:0:
108,120,49334,2,0,P|65:76|58:18,1,120,2|4,1:0|0:0,0:0:0:0:
205,131,49734,2,0,P|248:87|255:29,1,120,10|0,0:0|0:0,0:0:0:0:
180,216,50134,1,4,0:0:0:0:
180,216,50400,2,0,L|120:240,1,60,0|10,0:0|0:0,0:0:0:0:
240,376,50800,2,0,L|263:320,1,60,0|2,0:0|1:0,0:0:0:0:
384,236,51200,2,0,L|408:296,1,60,4|10,0:0|0:0,0:0:0:0:
466,135,51600,1,0,0:0:0:0:
448,132,51734,6,0,P|368:84|340:4,2,180,4|10|2,0:0|0:0|1:0,0:0:0:0:
459,12,52800,1,4,0:0:0:0:
459,12,52934,2,0,P|428:54|363:79,1,120,10|0,0:0|0:0,0:0:0:0:
224,60,53334,2,0,P|162:84|131:126,1,120,4|0,0:0|0:0,0:0:0:0:
288,324,53734,2,0,P|350:300|381:258,1,120,10|0,0:0|0:0,0:0:0:0:
222,155,54134,2,0,P|181:206|130:221,1,120,2|4,1:0|0:0,0:0:0:0:
290,229,54534,2,0,P|331:178|382:163,1,120,10|0,0:0|0:0,0:0:0:0:
213,316,54934,6,0,P|184:240|222:155,1,180,6|10,0:0|0:0,0:0:0:0:
76,92,55734,1,0,1:0:0:0:
39,71,55867,1,0,0:0:0:0:
2,50,56000,1,6,0:0:0:0:
88,12,56134,5,10,0:0:0:0:
125,33,56267,1,0,0:0:0:0:
162,54,56400,1,2,0:0:0:0:
249,84,56534,6,0,P|305:60|349:12,1,120,4|0,0:0|0:0,0:0:0:0:
289,172,56934,2,0,P|241:216|221:268,1,120,10|0,0:0|0:0,0:0:0:0:
172,152,57334,2,0,P|144:96|96:64,1,120,2|4,1:0|0:0,0:0:0:0:
309,88,57734,2,0,P|369:79|419:49,1,120,10|0,0:0|0:0,0:0:0:0:
343,274,58134,6,0,P|332:224|289:172,1,120,6|0,0:0|0:0,0:0:0:0:
468,136,58534,2,0,P|452:200|477:252,1,120,10|2,0:0|0:0,0:0:0:0:
432,324,58934,2,0,P|382:366|327:374,1,120,2|6,1:0|0:0,0:0:0:0:
241,324,59334,2,0,P|291:282|344:274,1,120,8|0,0:0|0:0,0:0:0:0:
140,368,59734,5,4,0:0:0:0:
140,368,60134,2,0,P|112:304|72:272,1,120,10|0,0:0|0:0,0:0:0:0:
8,180,60534,2,0,P|72:152|100:100,1,120,2|4,1:0|0:0,0:0:0:0:
128,16,60934,2,0,L|296:88,1,180,10|4,0:0|0:0,0:0:0:0:
328,264,61734,5,10,0:0:0:0:
188,128,62134,1,2,1:0:0:0:
376,56,62400,1,4,0:0:0:0:
393,62,62534,2,0,P|440:104|456:164,1,120,10|0,0:0|0:0,0:0:0:0:
350,160,62934,2,0,P|271:177|224:260,1,180,4|10,0:0|0:0,0:0:0:0:
151,354,63600,1,0,0:0:0:0:
136,344,63734,2,0,P|100:300|88:236,1,120,2|6,1:0|0:0,0:0:0:0:
76,212,64067,2,0,L|48:188,1,30,2|10,0:0|0:0,0:0:0:0:
8,28,64534,6,0,L|184:84,1,180,4|8,0:0|0:0,0:0:0:0:
369,182,65200,1,2,0:0:0:0:
352,188,65334,2,0,P|309:189|245:149,1,120,2|6,1:0|0:0,0:0:0:0:
179,82,65734,2,0,P|152:139|163:195,1,120,8|0,0:0|0:0,0:0:0:0:
328,104,66134,2,0,P|356:52|340:-8,1,120,4|0,0:0|0:0,0:0:0:0:
162,193,66534,2,0,P|220:188|264:144,1,120,10|0,0:0|0:0,0:0:0:0:
446,42,66934,2,0,P|400:4|342:-4,1,120,2|4,1:0|0:0,0:0:0:0:
328,104,67334,2,0,L|456:236,1,180,10|6,0:0|0:0,0:0:0:0:
256,192,67800,12,6,69334,0:0:0:0:
256,192,69734,5,10,0:0:0:0:
112,80,70134,2,0,P|160:128|160:188,1,120
60,172,70534,6,2,P|8:87|21:33,1,155.999992858887,10|2,0:0|0:0,0:0:0:0:
112,80,70934,6,0,P|188:80|272:16,1,180.000006866455,4|0,1:0|0:0,0:0:0:0:
375,96,71334,2,0,P|308:80|269:20,1,143.999995605469,10|0,0:0|0:0,0:0:0:0:
464,28,71734,2,0,P|486:103|466:168,1,143.999995605469,2|4,1:0|0:0,0:0:0:0:
400,232,72134,2,0,P|426:295|491:331,1,143.999995605469,10|0,0:0|0:0,0:0:0:0:
375,97,72534,6,0,P|307:88|243:126,1,143.999995605469,4|0,0:0|0:0,0:0:0:0:
188,200,72934,2,0,P|124:244|56:228,1,143.999995605469,8|0,0:0|0:0,0:0:0:0:
232,292,73334,2,0,P|292:260|321:193,1,143.999995605469,2|4,1:0|0:0,0:0:0:0:
62,232,73734,2,0,P|96:296|161:312,1,143.999995605469,10|0,0:0|0:0,0:0:0:0:
244,124,74134,6,0,P|180:84|116:92,1,143.999995605469,4|0,0:0|0:0,0:0:0:0:
321,192,74534,2,0,P|396:184|448:140,1,143.999995605469,8|2,0:0|0:0,0:0:0:0:
452,272,74934,2,0,P|444:346|396:392,1,143.999995605469,2|4,1:0|0:0,0:0:0:0:
321,193,75334,2,0,P|329:113|373:73,1,143.999995605469,10|0,0:0|0:0,0:0:0:0:
452,272,75734,1,4,0:0:0:0:
437,271,76000,5,0,0:0:0:0:
416,276,76134,2,0,P|356:308|320:372,1,143.999995605469,10|2,0:0|0:0,0:0:0:0:
416,276,76534,2,0,P|398:222|321:193,1,143.999995605469,2|6,1:0|0:0,0:0:0:0:
240,145,76934,2,0,P|236:233|275:276,1,143.999995605469,10|0,0:0|0:0,0:0:0:0:
44,132,77334,6,0,P|122:91|139:36,1,143.999995605469
132,308,77734,2,0,P|57:260|1:272,1,143.999995605469,10|2,0:0|0:0,0:0:0:0:
189,379,78134,2,0,P|248:340|269:272,1,143.999995605469,2|4,1:0|0:0,0:0:0:0:
152,188,78534,2,0,P|224:164|264:104,1,143.999995605469,10|0,0:0|0:0,0:0:0:0:
383,49,78934,6,0,P|344:92|261:110,1,143.999995605469,4|0,0:0|0:0,0:0:0:0:
156,80,79334,2,0,P|93:95|47:158,1,143.999995605469,8|2,0:0|0:0,0:0:0:0:
65,291,79734,2,0,P|124:256|152:188,1,143.999995605469,2|4,1:0|0:0,0:0:0:0:
156,80,80134,1,10,0:0:0:0:
156,80,80534,6,0,L|268:128,1,120,4|0,0:0|0:0,0:0:0:0:
348,56,80934,2,0,P|374:116|365:173,1,120,10|0,0:0|0:0,0:0:0:0:
443,245,81334,2,0,P|390:273|330:270,1,120,2|4,1:0|0:0,0:0:0:0:
273,362,81734,2,0,P|240:328|224:259,1,120,8|0,0:0|0:0,0:0:0:0:
256,192,82134,1,4,1:0:0:0:
256,192,82200,12,0,84534,0:0:0:0:
256,192,85334,5,2,0:0:0:0:
