osu file format v12

[General]
AudioFilename: rugs from me to you.mp3
AudioLeadIn: 1500
PreviewTime: 32000
Countdown: 0
SampleSet: Soft
StackLeniency: 0.7
Mode: 0
LetterboxInBreaks: 0
WidescreenStoryboard: 0

[Editor]
DistanceSpacing: 1
BeatDivisor: 3
GridSize: 4

[Metadata]
Title:Rugs From Me To You
TitleUnicode:Rugs From Me To You
Artist:Owl City
ArtistUnicode:Owl City
Creator:Zero__wind
Version:Easy
Source:
Tags:Ocean Eyes Adam Young yanlu Azure
BeatmapID:263510
BeatmapSetID:98666

[Difficulty]
HPDrainRate:2
CircleSize:3
OverallDifficulty:2
ApproachRate:3
SliderMultiplier:0.999999999999999
SliderTickRate:1

[Events]
//Background and Video events
0,0,"rugs.jpg",0,0
//Break Periods
//Storyboard Layer 0 (Background)
//Storyboard Layer 1 (Fail)
//Storyboard Layer 2 (Pass)
//Storyboard Layer 3 (Foreground)
//Storyboard Sound Samples
//Background Colour Transformations
3,100,163,162,255

[TimingPoints]
534,400,4,2,1,50,1,0
933,-100,4,2,2,60,0,0
6933,-100,4,2,2,55,0,0
7333,-100,4,2,2,45,0,0
8533,-100,4,2,2,55,0,0
8933,-100,4,2,2,45,0,0
10133,-100,4,2,2,55,0,0
10533,-100,4,2,2,45,0,0
11733,-100,4,2,2,55,0,0
12133,-100,4,2,2,45,0,0
13333,-100,4,2,2,55,0,0
13733,-100,4,2,2,45,0,0
14933,-100,4,2,2,55,0,0
15333,-100,4,2,2,45,0,0
16533,-100,4,2,2,55,0,0
16933,-100,4,2,2,45,0,0
18133,-100,4,2,2,55,0,0
18533,-100,4,2,2,45,0,0
19733,-100,4,2,1,40,0,0
20133,-100,4,2,2,60,0,0
21333,-100,4,2,2,50,0,0
22933,-100,4,2,2,60,0,0
24533,-100,4,2,2,50,0,0
26133,-100,4,2,2,60,0,0
29333,-100,4,2,2,40,0,0
31733,-100,4,2,2,70,0,0
32533,-100,4,2,2,55,0,0
34533,-100,4,2,1,55,0,0
34933,-100,4,2,2,55,0,0
36133,-100,4,2,1,55,0,0
36533,-100,4,2,2,55,0,0
39333,-100,4,2,1,55,0,0
39733,-100,4,2,2,55,0,0
40933,-100,4,2,1,55,0,0
41333,-100,4,2,2,55,0,0
48933,-100,4,2,1,55,0,0
49333,-100,4,2,2,55,0,0
50533,-100,4,2,1,55,0,0
50933,-100,4,2,2,55,0,0
60933,-100,4,2,1,55,0,0
61333,-100,4,2,2,55,0,0
63333,-100,4,2,1,55,0,0
63733,-100,4,2,2,55,0,0
64933,-100,4,2,1,55,0,0
65333,-100,4,2,2,55,0,0
70933,-100,4,2,2,55,0,1
72933,-100,4,2,1,55,0,1
73333,-100,4,2,2,55,0,1
75733,-100,4,2,1,65,0,1
76000,-100,4,2,2,55,0,1
82133,-100,4,2,2,40,0,0
84533,-100,4,2,2,10,0,0
85333,-100,4,2,2,60,0,0

[Colours]
Combo1 : 228,138,52
Combo2 : 24,156,123
Combo3 : 224,153,122
Combo4 : 143,196,29

[HitObjects]
104,56,534,2,0,P|148:84|176:132,2,99.9999999999999,4|2|0,0:0|1:0|0:0,0:0:0:0:
76,152,1734,1,2,1:0:0:0:
144,224,2134,2,0,P|198:224|240:203,1,99.9999999999999,0|2,0:0|1:0,0:0:0:0:
288,116,2934,2,0,P|326:151|340:204,1,99.9999999999999,0|0,0:0|1:0,0:0:0:0:
376,292,3734,6,0,P|420:260|440:212,2,99.9999999999999,0|2|0,0:0|1:0|0:0,0:0:0:0:
281,327,4934,1,2,1:0:0:0:
180,336,5334,2,0,P|100:320|44:220,1,200,0|2,0:0|1:0,0:0:0:0:
88,28,6934,6,0,L|180:88,1,99.9999999999999,2|2,0:0|0:0,0:0:0:0:
256,28,7734,2,0,L|348:88,1,99.9999999999999,2|2,0:0|0:0,0:0:0:0:
438,52,8534,2,0,P|437:110|418:150,1,99.9999999999999,2|2,0:0|0:0,0:0:0:0:
324,180,9334,2,0,L|240:125,1,99.9999999999999,2|2,0:0|0:0,0:0:0:0:
160,188,10134,6,0,P|116:220|68:226,1,99.9999999999999,2|2,0:0|0:0,0:0:0:0:
80,124,10934,1,2,0:0:0:0:
161,65,11334,1,2,0:0:0:0:
240,125,11734,2,0,P|261:181|256:224,1,99.9999999999999,2|2,0:0|0:0,0:0:0:0:
192,296,12534,1,2,0:0:0:0:
118,364,12934,1,2,0:0:0:0:
94,267,13334,6,0,P|164:200|257:220,1,200,2|2,0:0|0:0,0:0:0:0:
320,300,14534,1,2,0:0:0:0:
415,336,14934,2,0,P|484:272|472:172,1,200,2|2,0:0|0:0,0:0:0:0:
461,75,16134,1,2,0:0:0:0:
362,55,16534,6,0,P|312:60|272:87,1,99.9999999999999,2|2,0:0|0:0,0:0:0:0:
271,191,17334,2,0,P|216:175|184:141,1,99.9999999999999,2|2,0:0|0:0,0:0:0:0:
93,193,18134,2,0,P|91:102|176:42,2,200,2|2|2,0:0|0:0|0:0,0:0:0:0:
17,266,20134,6,0,P|58:291|112:296,1,99.9999999999999,2|0,1:0|0:0,0:0:0:0:
188,232,20934,1,2,1:0:0:0:
256,160,21334,2,0,P|352:120|426:171,1,200,0|0,0:0|0:0,0:0:0:0:
337,220,22534,1,2,1:0:0:0:
252,276,22934,6,0,P|217:316|202:363,1,99.9999999999999,0|2,0:0|1:0,0:0:0:0:
304,364,23734,1,0,0:0:0:0:
400,344,24134,1,2,1:0:0:0:
464,268,24534,1,0,0:0:0:0:
468,168,24934,2,0,P|428:72|340:36,1,200,2|2,1:0|1:0,0:0:0:0:
264,100,26134,6,0,P|307:132|354:139,1,99.9999999999999,0|2,0:0|1:0,0:0:0:0:
188,28,27334,1,2,1:0:0:0:
96,64,27734,2,0,P|56:96|32:148,1,99.9999999999999,0|2,0:0|1:0,0:0:0:0:
132,156,28534,2,0,L|224:204,2,99.9999999999999,0|2|2,0:0|1:0|0:0,0:0:0:0:
256,192,29600,12,2,31734,0:0:0:0:
384,80,32534,6,0,P|408:132|404:180,1,99.9999999999999,4|8,1:0|0:0,0:0:0:0:
497,220,33334,2,0,P|456:264|417:276,1,99.9999999999999,4|8,0:0|0:0,0:0:0:0:
456,372,34134,2,0,P|372:367|316:272,1,200,4|4,0:0|0:0,0:0:0:0:
308,176,35334,1,8,0:0:0:0:
248,96,35734,6,0,P|153:44|78:81,1,200,4|4,0:0|0:0,0:0:0:0:
36,172,36934,1,8,0:0:0:0:
68,268,37334,2,0,P|98:312|141:329,1,99.9999999999999,4|8,0:0|0:0,0:0:0:0:
241,336,38134,2,0,P|285:313|316:274,1,99.9999999999999,4|8,0:0|0:0,0:0:0:0:
220,236,38934,6,0,P|304:172|386:199,1,200,4|4,0:0|0:0,0:0:0:0:
488,212,40134,1,8,0:0:0:0:
436,128,40534,2,0,P|340:88|245:99,1,200,4|4,0:0|0:0,0:0:0:0:
160,148,41734,1,8,0:0:0:0:
128,244,42134,6,0,P|112:296|76:332,1,99.9999999999999,4|8,0:0|0:0,0:0:0:0:
25,243,42934,2,0,P|41:191|77:155,1,99.9999999999999,4|8,0:0|0:0,0:0:0:0:
256,192,43734,12,4,45334,1:0:0:0:
256,192,46134,6,0,P|208:220|164:216,2,99.9999999999999,4|8|4,0:0|0:0|0:0,0:0:0:0:
332,124,47334,1,8,0:0:0:0:
423,78,47734,2,0,P|432:134|420:175,1,99.9999999999999,4|8,0:0|0:0,0:0:0:0:
496,236,48534,6,0,P|428:304|328:312,1,200,4|4,0:0|0:0,0:0:0:0:
256,244,49734,1,8,0:0:0:0:
184,312,50134,2,0,P|84:304|16:236,1,200,4|4,0:0|0:0,0:0:0:0:
56,144,51334,1,8,0:0:0:0:
156,124,51734,6,0,P|149:185|127:218,2,99.9999999999999,4|8|4,0:0|0:0|0:0,0:0:0:0:
228,52,52934,1,8,0:0:0:0:
328,32,53334,2,0,L|416:88,1,99.9999999999999,4|8,0:0|0:0,0:0:0:0:
500,140,54134,2,0,P|460:176|416:188,1,99.9999999999999,4|8,0:0|0:0,0:0:0:0:
256,192,54934,12,0,57734,0:0:0:0:
247,148,58534,5,8,0:0:0:0:
264,252,58934,2,0,P|276:304|313:343,2,99.9999999999999,4|8|4,0:0|0:0|0:0,0:0:0:0:
364,256,60134,1,8,0:0:0:0:
324,164,60534,2,0,P|246:148|161:224,1,200,4|4,0:0|0:0,0:0:0:0:
104,308,61734,5,8,0:0:0:0:
35,377,62134,2,0,P|10:329|10:283,1,99.9999999999999,4|8,0:0|0:0,0:0:0:0:
64,200,62934,2,0,P|92:120|32:28,1,200,4|4,0:0|0:0,0:0:0:0:
137,17,64134,1,8,0:0:0:0:
236,40,64534,6,0,P|332:76|424:48,1,200,4|4,0:0|0:0,0:0:0:0:
492,120,65734,1,8,0:0:0:0:
468,216,66134,2,0,P|452:268|416:304,1,99.9999999999999,4|8,0:0|0:0,0:0:0:0:
320,304,66934,2,0,P|334:252|367:217,1,99.9999999999999,4|8,0:0|0:0,0:0:0:0:
256,192,67734,12,0,70134,0:0:0:0:
368,184,70934,6,0,P|314:174|276:148,1,99.9999999999999,4|8,1:0|0:0,0:0:0:0:
220,64,71734,2,0,P|182:38|128:28,1,99.9999999999999,2|10,1:0|0:0,0:0:0:0:
28,48,72534,2,0,P|-4:152|28:240,1,200,4|2,0:0|1:0,0:0:0:0:
64,328,73734,1,10,0:0:0:0:
160,296,74134,6,0,P|216:260|232:232,1,99.9999999999999,4|8,0:0|0:0,0:0:0:0:
160,164,74934,2,0,P|204:136|256:136,1,99.9999999999999,2|10,1:0|0:0,0:0:0:0:
332,196,75734,1,4,0:0:0:0:
357,292,76134,1,8,0:0:0:0:
454,266,76534,1,2,1:0:0:0:
428,170,76934,1,10,0:0:0:0:
506,104,77334,6,0,P|452:70|416:69,1,99.9999999999999,4|8,0:0|0:0,0:0:0:0:
320,84,78134,2,0,P|285:82|231:48,1,99.9999999999999,2|10,1:0|0:0,0:0:0:0:
132,28,78934,2,0,L|36:68,1,99.9999999999999,4|8,0:0|0:0,0:0:0:0:
16,164,79734,2,0,L|108:125,1,99.9999999999999,2|10,1:0|0:0,0:0:0:0:
196,172,80534,6,0,P|224:216|268:232,1,99.9999999999999,4|8,0:0|0:0,0:0:0:0:
371,232,81334,2,0,P|356:284|324:320,1,99.9999999999999,2|10,1:0|0:0,0:0:0:0:
256,192,82134,12,0,84534,0:0:0:0:
256,192,85334,5,2,0:0:0:0:
