osu file format v12

[General]
AudioFilename: 07 Meteor Shower.mp3
AudioLeadIn: 0
PreviewTime: 55653
Countdown: 0
SampleSet: Soft
StackLeniency: 0.7
Mode: 0
LetterboxInBreaks: 1
EpilepsyWarning: 1

[Editor]
DistanceSpacing: 1
BeatDivisor: 4
GridSize: 4

[Metadata]
Title:Meteor Shower
TitleUnicode:Meteor Shower
Artist:Owl City
ArtistUnicode:Owl City
Creator:Origami_Munchkin
Version:Shooting Star
Source:
Tags:Adam Young Ambient Ocean Eyes
BeatmapID:209828
BeatmapSetID:73380

[Difficulty]
HPDrainRate:7
CircleSize:3
OverallDifficulty:8
ApproachRate:8
SliderMultiplier:2.5
SliderTickRate:2

[Events]
//Background and Video events
0,0,"Meteor Shower Background.jpg",0,0
//Break Periods
2,78595,80172
//Storyboard Layer 0 (Background)
//Storyboard Layer 1 (Fail)
//Storyboard Layer 2 (Pass)
//Storyboard Layer 3 (Foreground)
Sprite,Foreground,Centre,"Meteor Shower Background.jpg",320,240 M,0,55653,56601,323,236,394,187 F,0,55653,56601,1,0 S,0,55653,56601,0.6313605,0.7747208 M,0,58180,59127,323,236,394,187 F,0,58180,59127,1,0 S,0,58180,59127,0.6313605,0.7747208 M,0,60706,61653,323,236,394,187 F,0,60706,61653,1,0 S,0,60706,61653,0.6313605,0.7747208 M,0,63232,64180,323,236,394,187 F,0,63232,64180,1,0 S,0,63232,64180,0.6313605,0.7747208 M,0,65759,66706,323,236,394,187 F,0,65759,66706,1,0 S,0,65759,66706,0.6313605,0.7747208 M,0,68285,69232,323,236,394,187 F,0,68285,69232,1,0 S,0,68285,69232,0.6313605,0.7747208 M,0,70811,71759,323,236,394,187 F,0,70811,71759,1,0 S,0,70811,71759,0.6313605,0.7747208 M,0,73338,74285,323,236,394,187 F,0,73338,74285,1,0 S,0,73338,74285,0.6313605,0.7747208 M,0,101127,102074,323,236,394,187 F,0,101127,102074,1,0 S,0,101127,102074,0.6313605,0.7747208 M,0,103653,104601,323,236,394,187 F,0,103653,104601,1,0 S,0,103653,104601,0.6313605,0.7747208 M,0,106180,107100,323,236,394,187 F,0,106180,107100,1,0 S,0,106180,107100,0.6313605,0.7747208 M,0,108706,109653,323,236,394,187 F,0,108706,109653,1,0 S,0,108706,109653,0.6313605,0.7747208 M,0,111232,112180,323,236,394,187 F,0,111232,112180,1,0 S,0,111232,112180,0.6313605,0.7747208 M,0,113759,114706,323,236,394,187 F,0,113759,114706,1,0 S,0,113759,114706,0.6313605,0.7747208 M,0,116285,117232,323,236,394,187 F,0,116285,117232,1,0 S,0,116285,117232,0.6313605,0.7747208 M,0,121338,123864,323,236,394,187 F,0,121338,123864,1,0 S,0,121338,123864,0.6313605,0.7747208
Sprite,Foreground,Centre,"Flash.jpg",320,240 F,0,55653,55969,0.4,0 F,0,56917,57232,0.4,0 F,0,59443,59759,0.4,0 F,0,61969,62285,0.4,0 F,0,64496,64811,0.4,0 F,0,65759,66074,0.4,0 F,0,67022,67338,0.4,0 F,0,69548,69864,0.4,0 F,0,72074,72390,0.4,0 F,0,74601,74917,0.4,0 F,0,101127,101443,0.4,0 F,0,102390,102706,0.4,0 F,0,104917,105232,0.4,0 F,0,107443,107759,0.4,0 F,0,109969,110285,0.4,0 F,0,111232,111548,0.4,0 F,0,112496,112811,0.4,0 F,0,115022,115338,0.4,0 F,0,117548,117864,0.4,0
//Storyboard Sound Samples
//Background Colour Transformations
3,100,163,162,255

[TimingPoints]
80,631.578947368421,4,2,1,50,1,0
25343,-100,4,2,1,40,0,0
25816,-100,4,2,1,60,0,0
45553,-100,4,2,1,30,0,0
53132,-100,4,2,1,15,0,0
55658,-100,4,2,1,70,0,1
65606,-100,4,2,1,70,0,0
65764,-100,4,2,1,70,0,1
75869,-100,4,2,1,20,0,0
80922,-100,4,2,1,60,0,0
101132,-100,4,2,1,70,0,1
111079,-100,4,2,1,70,0,0
111237,-100,4,2,1,70,0,1
118816,-100,4,2,1,20,0,0

[Colours]
SliderBorder : 255,255,255
Combo1 : 183,0,183
Combo2 : 128,255,255
Combo3 : 255,157,255
Combo4 : 0,166,166

[HitObjects]
132,36,5132,2,0,P|86:73|43:191,1,187.5,0|0,0:0|0:0,0:0:0:0:
232,196,6079,2,0,P|304:244|320:300,1,125,2|8,0:0|0:0,0:0:0:0:
348,332,6553,2,0,P|376:280|456:248,1,125
432,249,7027,1,0,0:0:0:0:
500,144,7343,1,0,0:0:0:0:
476,20,7658,6,0,P|388:68|376:148,1,187.5
336,100,8290,1,0,0:0:0:0:
288,60,8448,1,0,0:0:0:0:
228,48,8606,1,2,0:0:0:0:
236,172,8922,2,0,P|136:196|52:140,1,187.5,8|0,0:0|0:0,0:0:0:0:
16,116,9553,2,0,P|44:192|28:296,1,187.5,0|0,0:0|0:0,0:0:0:0:
28,295,10185,5,0,0:0:0:0:
200,368,10658,1,0,0:0:0:0:
344,248,11132,2,0,P|256:192|236:128,1,125,2|8,0:0|0:0,0:0:0:0:
236,116,11606,1,0,0:0:0:0:
360,124,11922,2,0,P|396:72|388:28,1,62.5
276,32,12395,1,0,0:0:0:0:
152,40,12711,6,0,P|68:100|60:212,1,187.5
176,164,13501,1,0,0:0:0:0:
176,164,13658,1,2,0:0:0:0:
100,260,13974,2,0,P|160:284|296:132,1,250,8|0,0:0|0:0,0:0:0:0:
260,64,14922,1,0,0:0:0:0:
260,64,15079,1,0,0:0:0:0:
260,64,15237,6,0,P|372:84|408:128,1,125
412,140,15711,2,0,P|444:240|480:264,1,125
500,296,16185,2,0,P|400:328|376:364,1,125,2|8,0:0|0:0,0:0:0:0:
389,340,16658,1,0,0:0:0:0:
272,300,16974,1,0,0:0:0:0:
220,264,17132,2,0,L|164:116,1,125
292,192,17764,5,0,0:0:0:0:
200,28,18237,2,0,P|116:40|56:124,1,187.5,0|2,0:0|0:0,0:0:0:0:
180,152,19027,2,0,P|112:236|24:240,1,187.5,8|0,0:0|0:0,0:0:0:0:
38,243,19658,1,0,0:0:0:0:
60,120,19974,1,0,0:0:0:0:
92,64,20132,1,0,0:0:0:0:
148,32,20290,2,0,P|252:52|296:192,1,250
236,180,21080,5,0,0:0:0:0:
240,244,21237,1,2,0:0:0:0:
275,297,21395,1,0,0:0:0:0:
332,325,21553,1,8,0:0:0:0:
420,236,21869,2,0,L|488:268,2,62.5
486,129,22501,1,0,0:0:0:0:
372,76,22816,6,0,P|296:80|224:28,1,125
200,28,23290,2,0,P|196:100|152:144,1,125,0|0,0:0|0:0,0:0:0:0:
116,180,23764,1,2,0:0:0:0:
0,228,24080,2,0,P|76:296|212:256,1,250,8|0,0:0|0:0,0:0:0:0:
344,100,25343,5,4,0:3:0:0:
508,192,25816,2,0,P|364:288|308:284,1,187.5
296,284,26448,1,0,0:0:0:0:
243,251,26606,1,8,0:0:0:0:
232,128,26922,2,0,P|192:136|128:212,1,125,0|2,0:0|0:0,0:0:0:0:
48,284,27553,2,0,P|12:212|24:136,1,125,0|4,0:0|0:3,0:0:0:0:
144,36,28343,5,2,0:0:0:0:
328,80,28816,2,0,P|320:156|356:224,1,125,0|8,0:0|0:0,0:0:0:0:
440,132,29448,2,0,P|460:196|432:280,1,125,0|2,0:0|0:0,0:0:0:0:
352,332,30080,1,0,0:0:0:0:
228,328,30395,5,4,0:3:0:0:
68,232,30869,2,0,P|142:219|207:124,1,187.5
206,133,31501,1,0,0:0:0:0:
206,133,31658,1,8,0:0:0:0:
84,108,31974,2,0,P|128:36|184:8,1,125,0|2,0:0|0:0,0:0:0:0:
288,28,32606,1,0,0:0:0:0:
352,136,32922,6,0,P|332:208|344:264,1,125,4|2,0:3|0:0,0:0:0:0:
360,316,33395,2,0,P|264:284|212:300,1,125
243,287,33869,1,0,0:0:0:0:
152,372,34185,2,0,P|120:304|128:244,1,125,8|0,0:0|0:0,0:0:0:0:
160,204,34658,1,0,0:0:0:0:
216,172,34816,1,2,0:0:0:0:
324,232,35132,1,0,0:0:0:0:
432,292,35448,6,0,P|444:248|384:124,1,187.5,4|2,0:3|0:0,0:0:0:0:
268,84,36237,1,0,0:0:0:0:
268,84,36395,2,0,P|280:32|260:-4,2,62.5,0|0|8,0:0|0:0|0:0,0:0:0:0:
156,32,37027,1,0,0:0:0:0:
100,60,37185,1,0,0:0:0:0:
72,116,37343,2,0,P|104:228|228:260,1,250,2|4,0:0|0:3,0:0:0:0:
192,140,38290,5,0,0:0:0:0:
192,140,38448,2,0,P|260:140|324:192,1,125,2|0,0:0|0:0,0:0:0:0:
356,208,38922,2,0,P|372:112|412:68,1,125,0|8,0:0|0:0,0:0:0:0:
476,180,39553,1,0,0:0:0:0:
440,300,39869,1,2,0:0:0:0:
316,324,40185,1,0,0:0:0:0:
236,228,40501,6,0,P|264:116|220:44,1,187.5,4|2,0:3|0:0,0:0:0:0:
180,24,41132,1,0,0:0:0:0:
117,21,41290,1,0,0:0:0:0:
62,50,41448,1,0,0:0:0:0:
28,100,41606,1,0,0:0:0:0:
21,162,41764,1,8,0:0:0:0:
144,144,42080,1,0,0:0:0:0:
144,144,42395,2,0,P|140:212|192:300,1,125,2|0,0:0|0:0,0:0:0:0:
260,188,43027,6,0,P|344:124|440:116,1,187.5,4|2,0:3|0:0,0:0:0:0:
408,304,43974,1,0,0:0:0:0:
348,328,44132,1,0,0:0:0:0:
284,324,44290,2,0,P|144:240|128:28,1,375,8|0,0:0|0:0,0:0:0:0:
192,144,45553,6,0,P|288:240|368:224,1,187.5,2|0,0:0|0:0,0:0:0:0:
360,52,46501,1,2,0:0:0:0:
480,88,46816,1,0,0:0:0:0:
388,172,47132,1,0,0:0:0:0:
268,136,47448,1,0,0:0:0:0:
32,48,48080,2,0,P|104:272|344:320,1,500,2|0,0:0|0:0,0:0:0:0:
264,92,49974,6,0,P|312:88|392:136,1,125
296,212,50606,2,0,P|352:328|436:376,1,187.5,2|2,0:0|0:0,0:0:0:0:
480,196,51553,1,0,0:0:0:0:
384,116,51869,2,0,P|308:112|216:56,1,125,2|0,0:0|0:0,0:0:0:0:
160,24,52501,2,0,P|156:100|100:192,1,125,2|0,0:0|0:0,0:0:0:0:
256,192,53132,12,0,55027,0:0:0:0:
244,56,55658,6,0,P|344:48|440:96,1,187.5,4|0,0:0|0:0,0:0:0:0:
312,232,56606,2,0,P|189:212|163:175,1,125,0|8,0:0|0:0,0:0:0:0:
138,188,57080,2,0,P|118:310|81:336,1,125,0|0,0:0|0:0,0:0:0:0:
121,305,57553,1,0,0:0:0:0:
24,232,57869,1,0,0:0:0:0:
16,172,58027,1,0,0:0:0:0:
40,116,58185,6,0,P|88:76|216:92,1,187.5,2|0,0:0|0:0,0:0:0:0:
260,200,58974,2,0,P|304:168|316:148,1,62.5
328,104,59290,1,0,0:0:0:0:
320,40,59448,1,8,0:0:0:0:
206,85,59764,2,0,P|168:112|148:136,1,62.5,2|0,0:0|0:0,0:0:0:0:
135,182,60080,2,0,P|142:245|154:269,1,62.5,2|0,0:0|0:0,0:0:0:0:
176,296,60395,5,0,0:0:0:0:
300,312,60711,2,0,P|420:268|472:200,1,187.5,2|0,0:0|0:0,0:0:0:0:
440,40,61658,2,0,P|356:92|320:92,1,125,0|8,0:0|0:0,0:0:0:0:
332,93,62132,1,0,0:0:0:0:
148,72,62606,2,0,P|172:184|288:276,1,250
380,208,63553,5,2,0:0:0:0:
500,168,63869,2,0,P|496:256|408:332,1,187.5
429,324,64501,1,8,0:0:0:0:
305,309,64816,2,0,L|217:253,1,62.5,2|0,0:0|0:0,0:0:0:0:
189,275,65132,2,0,L|153:207,1,62.5,2|0,0:0|0:0,0:0:0:0:
104,196,65448,2,0,L|104:112,1,62.5,2|0,0:0|0:0,0:0:0:0:
104,72,65764,5,4,0:0:0:0:
288,32,66237,1,0,0:0:0:0:
444,136,66711,2,0,L|468:216,2,62.5,0|0|8,0:0|0:0|0:0,0:0:0:0:
444,136,67185,1,0,0:0:0:0:
320,152,67501,1,0,0:0:0:0:
320,152,67658,2,0,P|272:208|200:232,1,125,0|0,0:0|0:0,0:0:0:0:
204,104,68290,6,0,P|112:80|48:124,1,125,2|0,0:0|0:0,0:0:0:0:
87,88,68764,1,0,0:0:0:0:
132,204,69080,1,0,0:0:0:0:
168,256,69237,1,0,0:0:0:0:
180,316,69395,1,0,0:0:0:0:
176,380,69553,2,0,P|264:336|360:344,1,187.5,8|0,0:0|0:0,0:0:0:0:
350,340,70185,1,0,0:0:0:0:
480,372,70501,5,2,0:0:0:0:
496,248,70816,2,0,P|388:220|320:148,1,187.5
484,64,71764,1,0,0:0:0:0:
484,64,71922,1,0,0:0:0:0:
484,64,72079,1,8,0:0:0:0:
236,40,72711,2,0,L|104:140,1,125,0|0,0:0|0:0,0:0:0:0:
84,228,73343,5,0,0:0:0:0:
124,284,73501,1,0,0:0:0:0:
192,296,73658,1,0,0:0:0:0:
256,272,73816,1,0,0:0:0:0:
288,212,73974,1,0,0:0:0:0:
224,172,74132,1,2,0:0:0:0:
256,112,74290,1,0,0:0:0:0:
320,88,74448,1,0,0:0:0:0:
388,100,74606,1,8,0:0:0:0:
444,212,74922,2,0,L|508:260,2,62.5,0|0|0,0:0|0:0|0:0,0:0:0:0:
368,312,75553,1,0,0:0:0:0:
256,192,75869,12,2,78395,0:0:0:0:
208,304,80922,6,0,P|160:184|208:104,1,187.5,4|0,0:0|0:0,0:0:0:0:
178,136,81553,1,8,0:0:0:0:
284,204,81869,2,0,P|368:196|388:176,2,62.5
320,84,82501,1,0,0:0:0:0:
440,124,82816,2,0,P|468:172|468:240,1,125,8|0,0:0|0:0,0:0:0:0:
380,332,83448,5,4,0:3:0:0:
208,256,83922,1,0,0:0:0:0:
208,256,84079,2,0,P|188:204|116:160,2,125,8|0|0,0:0|0:0|0:0,0:0:0:0:
84,280,85027,2,0,P|16:212|16:136,1,125,4|8,0:0|0:0,0:0:0:0:
52,68,85658,1,0,0:0:0:0:
176,56,85974,6,0,P|220:104|320:104,1,125
340,116,86448,1,0,0:0:0:0:
340,116,86606,2,0,P|296:168|284:228,1,125,8|0,0:0|0:0,0:0:0:0:
408,220,87237,2,0,P|460:292|456:360,1,125
340,324,87869,1,8,0:0:0:0:
216,324,88185,1,0,0:0:0:0:
216,200,88501,6,0,P|152:216|108:264,1,125
111,256,88974,1,0,0:0:0:0:
111,256,89132,1,8,0:0:0:0:
20,340,89448,2,0,P|0:284|4:220,1,125
32,164,89922,1,0,0:0:0:0:
80,124,90080,2,0,P|144:112|208:64,1,125,4|0,0:0|0:3,0:0:0:0:
236,32,90553,1,0,0:0:0:0:
424,56,91027,6,0,P|424:132|468:192,1,125,2|0,0:0|0:0,0:0:0:0:
492,220,91501,1,0,0:0:0:0:
492,220,91658,2,0,P|416:220|356:264,1,125,8|0,0:0|0:0,0:0:0:0:
204,168,92448,1,0,0:0:0:0:
152,204,92606,2,0,P|180:252|173:292,1,62.5
187,321,92922,2,0,P|225:285|300:268,1,125,8|0,0:0|0:0,0:0:0:0:
356,280,93395,1,0,0:0:0:0:
404,320,93553,5,4,0:3:0:0:
504,160,94027,1,0,0:0:0:0:
504,160,94185,1,8,0:0:0:0:
396,100,94501,2,0,P|320:92|224:156,1,187.5
188,196,95132,2,0,P|132:272|56:292,1,125,0|8,0:0|0:0,0:0:0:0:
68,168,95764,1,0,0:0:0:0:
152,76,96080,6,0,P|240:84|312:180,1,187.5
304,153,96711,1,8,0:0:0:0:
188,196,97027,1,0,0:0:0:0:
116,296,97343,1,0,0:0:0:0:
176,320,97501,1,0,0:0:0:0:
236,312,97658,1,0,0:0:0:0:
284,276,97816,1,0,0:0:0:0:
310,219,97974,2,0,P|396:272|444:276,2,125,8|0|0,0:0|0:0|0:0,0:0:0:0:
444,88,99079,6,0,P|444:48|428:4,1,62.5,0|8,0:0|0:0,0:0:0:0:
320,68,99553,1,0,0:0:0:0:
256,176,99869,2,0,P|204:104|52:120,1,250,0|8,0:0|0:0,0:0:0:0:
188,328,101132,6,0,P|288:336|384:288,1,187.5,4|0,0:0|0:0,0:0:0:0:
432,128,102080,2,0,P|372:112|304:132,1,125,0|8,0:0|0:0,0:0:0:0:
260,160,102554,2,0,P|240:38|203:12,1,125,0|0,0:0|0:0,0:0:0:0:
243,42,103027,1,0,0:0:0:0:
143,117,103343,1,0,0:0:0:0:
164,240,103658,6,0,P|264:284|360:236,1,187.5
428,176,104448,2,0,P|452:200|463:232,1,62.5
458,289,104764,1,0,0:0:0:0:
428,344,104922,1,8,0:0:0:0:
304,336,105237,2,0,B|284:272|232:256,1,62.5
224,244,105553,2,0,B|184:232|144:240,1,62.5
162,237,105869,5,0,0:0:0:0:
40,212,106185,2,0,P|80:144|188:116,1,187.5
368,124,107132,2,0,P|332:200|288:232,1,125,0|8,0:0|0:0,0:0:0:0:
244,252,107606,2,0,P|320:288|352:332,1,125,0|0,0:0|0:0,0:0:0:0:
376,372,108079,2,0,P|412:296|456:264,1,125,0|0,0:0|0:0,0:0:0:0:
484,152,108711,2,0,B|256:-28|20:156,1,500
84,264,110290,2,0,L|160:284,1,62.5,2|0,0:0|0:0,0:0:0:0:
160,340,110606,2,0,L|228:328,1,62.5,12|0,0:0|0:0,0:0:0:0:
272,364,110922,2,0,L|320:316,1,62.5,2|0,0:0|0:0,0:0:0:0:
380,312,111237,5,8,0:0:0:0:
460,144,111711,2,0,P|372:96|344:40,1,125
324,24,112185,2,0,P|276:112|220:140,1,125,0|8,0:0|0:0,0:0:0:0:
208,164,112658,2,0,P|296:212|324:268,1,125,0|0,0:0|0:0,0:0:0:0:
308,230,113132,1,0,0:0:0:0:
199,290,113448,1,0,0:0:0:0:
96,220,113764,6,0,P|88:136|108:84,1,125
212,40,114395,1,0,0:0:0:0:
336,56,114711,1,0,0:0:0:0:
392,84,114869,1,0,0:0:0:0:
432,132,115027,2,0,P|344:240|416:364,1,250,8|0,0:0|0:0,0:0:0:0:
468,252,115974,5,0,0:0:0:0:
348,216,116290,2,0,P|180:248|124:156,1,250
248,144,117237,2,0,P|212:104|176:84,1,62.5
205,99,117553,1,8,0:0:0:0:
84,124,117869,1,0,0:0:0:0:
64,189,118027,1,0,0:0:0:0:
78,254,118185,1,0,0:0:0:0:
117,310,118343,1,0,0:0:0:0:
180,338,118501,1,0,0:0:0:0:
248,338,118658,1,0,0:0:0:0:
256,192,118816,12,4,121343,0:0:0:0:
