osu file format v12

[General]
AudioFilename: 07 Meteor Shower.mp3
AudioLeadIn: 0
PreviewTime: 55653
Countdown: 0
SampleSet: Soft
StackLeniency: 0.7
Mode: 0
LetterboxInBreaks: 1
EpilepsyWarning: 1

[Editor]
DistanceSpacing: 0.8
BeatDivisor: 4
GridSize: 4

[Metadata]
Title:Meteor Shower
TitleUnicode:Meteor Shower
Artist:Owl City
ArtistUnicode:Owl City
Creator:Origami_Munchkin
Version:Normal
Source:
Tags:Adam Young Ambient Ocean Eyes
BeatmapID:209057
BeatmapSetID:73380

[Difficulty]
HPDrainRate:3
CircleSize:3
OverallDifficulty:3
ApproachRate:3
SliderMultiplier:1.4
SliderTickRate:1

[Events]
//Background and Video events
0,0,"Meteor Shower Background.jpg",0,0
//Break Periods
2,78595,79482
//Storyboard Layer 0 (Background)
//Storyboard Layer 1 (Fail)
//Storyboard Layer 2 (Pass)
//Storyboard Layer 3 (Foreground)
Sprite,Foreground,Centre,"Meteor Shower Background.jpg",320,240 M,0,55653,56601,323,236,394,187 F,0,55653,56601,1,0 S,0,55653,56601,0.6313605,0.7747208 M,0,58180,59127,323,236,394,187 F,0,58180,59127,1,0 S,0,58180,59127,0.6313605,0.7747208 M,0,60706,61653,323,236,394,187 F,0,60706,61653,1,0 S,0,60706,61653,0.6313605,0.7747208 M,0,63232,64180,323,236,394,187 F,0,63232,64180,1,0 S,0,63232,64180,0.6313605,0.7747208 M,0,65759,66706,323,236,394,187 F,0,65759,66706,1,0 S,0,65759,66706,0.6313605,0.7747208 M,0,68285,69232,323,236,394,187 F,0,68285,69232,1,0 S,0,68285,69232,0.6313605,0.7747208 M,0,70811,71759,323,236,394,187 F,0,70811,71759,1,0 S,0,70811,71759,0.6313605,0.7747208 M,0,73338,74285,323,236,394,187 F,0,73338,74285,1,0 S,0,73338,74285,0.6313605,0.7747208 M,0,101127,102074,323,236,394,187 F,0,101127,102074,1,0 S,0,101127,102074,0.6313605,0.7747208 M,0,103653,104601,323,236,394,187 F,0,103653,104601,1,0 S,0,103653,104601,0.6313605,0.7747208 M,0,106180,107100,323,236,394,187 F,0,106180,107100,1,0 S,0,106180,107100,0.6313605,0.7747208 M,0,108706,109653,323,236,394,187 F,0,108706,109653,1,0 S,0,108706,109653,0.6313605,0.7747208 M,0,111232,112180,323,236,394,187 F,0,111232,112180,1,0 S,0,111232,112180,0.6313605,0.7747208 M,0,113759,114706,323,236,394,187 F,0,113759,114706,1,0 S,0,113759,114706,0.6313605,0.7747208 M,0,116285,117232,323,236,394,187 F,0,116285,117232,1,0 S,0,116285,117232,0.6313605,0.7747208 M,0,121338,123864,323,236,394,187 F,0,121338,123864,1,0 S,0,121338,123864,0.6313605,0.7747208
Sprite,Foreground,Centre,"Flash.jpg",320,240 F,0,55653,55969,0.4,0 F,0,56917,57232,0.4,0 F,0,59443,59759,0.4,0 F,0,61969,62285,0.4,0 F,0,64496,64811,0.4,0 F,0,65759,66074,0.4,0 F,0,67022,67338,0.4,0 F,0,69548,69864,0.4,0 F,0,72074,72390,0.4,0 F,0,74601,74917,0.4,0 F,0,101127,101443,0.4,0 F,0,102390,102706,0.4,0 F,0,104917,105232,0.4,0 F,0,107443,107759,0.4,0 F,0,109969,110285,0.4,0 F,0,111232,111548,0.4,0 F,0,112496,112811,0.4,0 F,0,115022,115338,0.4,0 F,0,117548,117864,0.4,0
//Storyboard Sound Samples
//Background Colour Transformations
3,100,163,162,255

[TimingPoints]
80,631.578947368421,4,2,1,50,1,0
25343,-80,4,2,1,40,0,0
25816,-80,4,2,1,60,0,0
44290,-133.333333333333,4,2,1,60,0,0
45553,-100,4,2,1,30,0,0
55658,-66.6666666666667,4,2,1,80,0,1
65606,-66.6666666666667,4,2,1,80,0,0
65764,-66.6666666666667,4,2,1,80,0,1
75869,-100,4,2,1,20,0,0
80922,-80,4,2,1,60,0,0
101132,-66.6666666666667,4,2,1,80,0,1
111079,-66.6666666666667,4,2,1,80,0,0
111237,-66.6666666666667,4,2,1,80,0,1
118185,-100,4,2,1,20,0,1
118816,-100,4,2,1,20,0,0

[Colours]
SliderBorder : 255,255,255
Combo1 : 183,0,183
Combo2 : 128,255,255
Combo3 : 255,157,255
Combo4 : 0,166,166

[HitObjects]
436,56,5132,6,0,P|368:92|400:224,1,210,2|0,0:0|0:0,0:0:0:0:
436,144,6395,1,8,0:0:0:0:
148,320,7658,6,0,P|216:284|184:152,1,210,2|0,0:0|0:0,0:0:0:0:
148,232,8922,1,8,0:0:0:0:
160,64,9553,2,0,L|316:124,1,140,0|2,0:0|0:0,0:0:0:0:
412,156,10658,2,0,P|452:104|448:52,1,105
372,84,11448,1,8,0:0:0:0:
164,348,12711,6,0,P|232:284|264:288,1,105,2|0,0:0|0:0,0:0:0:0:
296,172,13658,1,0,0:0:0:0:
216,148,13974,2,0,P|60:140|56:36,1,280,8|2,0:0|0:0,0:0:0:0:
176,28,15711,1,0,0:0:0:0:
296,64,16185,2,0,P|376:156|484:196,1,210,0|8,0:0|0:0,0:0:0:0:
336,312,17764,5,2,0:0:0:0:
212,296,18237,2,0,P|264:240|316:244,1,105
356,188,19027,2,0,P|276:132|208:136,1,140,0|8,0:0|0:0,0:0:0:0:
68,144,20290,2,0,P|224:48|436:164,1,420,2|8,0:0|0:0,0:0:0:0:
256,160,22816,6,0,P|188:176|160:212,1,105,2|0,0:0|0:0,0:0:0:0:
192,324,23764,2,0,B|244:368|244:368|328:372|372:296,1,210,0|8,0:0|0:0,0:0:0:0:
448,156,25343,5,4,0:3:0:0:
372,48,25816,2,0,P|308:32|240:72,1,131.25,2|0,0:0|0:0,0:0:0:0:
316,116,26606,1,8,0:0:0:0:
316,116,26922,2,0,P|276:164|220:172,1,87.5,0|2,0:0|0:0,0:0:0:0:
132,48,27869,5,4,0:3:0:0:
36,140,28343,1,2,0:0:0:0:
96,256,28816,2,0,P|180:332|248:304,1,175
184,244,29764,1,2,0:0:0:0:
288,104,30395,2,0,P|340:44|424:48,1,131.25,4|2,0:3|0:0,0:0:0:0:
432,160,31343,2,0,P|396:244|300:247,1,175
344,172,32290,1,2,0:0:0:0:
236,36,32922,5,4,0:3:0:0:
124,100,33395,1,2,0:0:0:0:
236,168,33869,1,0,0:0:0:0:
152,188,34185,2,0,P|256:248|308:116,1,262.5,8|0,0:0|0:0,0:0:0:0:
292,68,35448,6,0,P|376:80|408:136,1,131.25,4|2,0:3|0:0,0:0:0:0:
432,240,36395,2,0,P|412:300|364:328,1,87.5,0|8,0:0|0:0,0:0:0:0:
308,328,37027,1,0,0:0:0:0:
256,256,37343,1,2,0:0:0:0:
80,240,37974,6,0,P|48:188|92:120,1,131.25,4|2,0:3|0:0,0:0:0:0:
200,92,38922,1,0,0:0:0:0:
228,176,39237,2,0,P|284:120|284:80,1,87.5,8|0,0:0|0:0,0:0:0:0:
320,36,39869,1,2,0:0:0:0:
408,24,40185,1,0,0:0:0:0:
472,84,40501,6,0,P|444:168|392:180,1,131.25,0|2,0:0|0:0,0:0:0:0:
284,216,41448,2,0,P|248:208|184:236,2,87.5,0|8|0,0:0|0:0|0:0,0:0:0:0:
248,296,42395,1,2,0:0:0:0:
104,196,43027,5,4,0:3:0:0:
160,76,43501,1,2,0:0:0:0:
288,44,43974,1,0,0:0:0:0:
372,76,44290,2,0,P|400:116|376:228,1,157.500006008148,8|0,0:0|0:0,0:0:0:0:
324,276,45553,5,0,0:0:0:0:
200,268,46027,1,0,0:0:0:0:
124,168,46501,2,0,P|128:80|180:32,1,140
240,24,47448,6,0,P|352:48|384:368,1,490
344,292,49974,6,0,P|372:232|368:200,1,70
288,232,50606,1,0,0:0:0:0:
288,232,51080,2,0,P|224:244|180:208,1,105
244,160,51869,1,0,0:0:0:0:
260,76,52185,1,0,0:0:0:0:
196,20,52501,6,0,P|120:80|356:320,1,560
244,188,55658,5,4,0:0:0:0:
296,72,56132,1,0,0:0:0:0:
424,76,56606,1,0,0:0:0:0:
388,152,56922,2,0,P|384:280|320:312,1,210.000008010865,8|0,0:0|0:0,0:0:0:0:
316,228,57869,1,2,0:0:0:0:
316,228,58185,2,0,P|204:196|212:104,1,210.000008010865
276,156,59132,2,0,P|96:216|-4:152,1,315.000012016297
0,72,60395,5,2,0:0:0:0:
72,116,60711,2,0,P|128:140|224:92,1,157.500006008148,0|2,0:0|0:0,0:0:0:0:
324,164,61658,2,0,L|296:324,1,157.500006008148,2|0,0:0|0:0,0:0:0:0:
420,344,62606,2,0,P|480:164|312:48,1,420.000016021729,2|0,0:0|0:0,0:0:0:0:
312,132,64185,2,0,P|388:160|404:192,1,105.000004005432,0|8,0:0|0:0,0:0:0:0:
324,216,64816,2,0,P|248:188|232:156,1,105.000004005432
212,92,65448,1,0,0:0:0:0:
132,64,65764,6,0,P|40:148|40:172,1,157.500006008148,4|2,0:0|0:0,0:0:0:0:
68,292,66711,2,0,L|180:176,1,157.500006008148,2|0,0:0|0:0,0:0:0:0:
264,272,67658,2,0,P|424:324|480:284,1,210.000008010865,2|0,0:0|0:0,0:0:0:0:
456,228,68606,1,0,0:0:0:0:
376,252,68922,2,0,P|344:240|380:96,1,210.000008010865,0|8,0:0|0:0,0:0:0:0:
440,136,69869,2,0,P|448:76|404:24,1,105.000004005432
344,16,70501,5,2,0:0:0:0:
361,99,70816,2,0,L|184:72,1,157.500006008148,0|2,0:0|0:0,0:0:0:0:
116,164,71764,1,2,0:0:0:0:
140,244,72080,2,0,P|212:300|300:240,2,210.000008010865,8|0|0,0:0|0:0|0:0,0:0:0:0:
220,216,73658,5,0,0:0:0:0:
284,160,73974,2,0,P|388:132|436:208,1,210.000008010865,0|8,0:0|0:0,0:0:0:0:
352,208,74922,2,0,L|376:312,1,105.000004005432
448,352,75553,1,2,0:0:0:0:
256,192,75869,12,0,78395,0:0:0:0:
444,240,80922,6,0,P|456:168|404:104,1,131.25,4|2,0:0|0:0,0:0:0:0:
320,196,81869,1,2,0:0:0:0:
244,240,82185,1,0,0:0:0:0:
160,268,82501,1,2,0:0:0:0:
72,256,82816,2,0,P|92:324|204:348,1,175,8|0,0:0|0:0,0:0:0:0:
244,240,83922,6,0,P|184:140|140:120,1,131.25,2|0,0:0|0:0,0:0:0:0:
104,188,84711,2,0,P|88:128|100:88,1,87.5,0|2,0:0|0:0,0:0:0:0:
160,44,85343,1,8,0:0:0:0:
332,72,85974,5,2,0:0:0:0:
284,192,86448,2,0,P|408:176|424:156,1,131.25,0|2,0:0|0:0,0:0:0:0:
256,88,87553,2,0,P|192:136|184:160,1,87.5,2|8,0:0|0:0,0:0:0:0:
180,228,88185,1,0,0:0:0:0:
192,316,88501,6,0,P|368:304|424:216,1,262.5,2|2,0:0|0:0,0:0:0:0:
432,160,89764,2,0,L|332:104,1,87.5,0|2,0:0|0:0,0:0:0:0:
304,48,90395,2,0,P|268:116|332:200,1,175,8|4,0:0|0:3,0:0:0:0:
380,308,91501,6,0,P|304:356|244:340,1,131.25
300,272,92290,1,0,0:0:0:0:
368,216,92606,2,0,P|312:184|260:192,1,87.5,2|8,0:0|0:0,0:0:0:0:
188,88,93553,5,4,0:3:0:0:
280,36,94027,2,0,L|428:88,1,131.25,2|0,0:0|0:0,0:0:0:0:
484,116,94816,2,0,P|440:160|380:164,1,87.5,0|2,0:0|0:0,0:0:0:0:
328,176,95448,1,8,0:0:0:0:
244,196,95764,1,0,0:0:0:0:
160,216,96080,6,0,P|220:280|288:272,2,131.25,2|2|2,0:0|0:0|0:0,0:0:0:0:
176,132,97343,2,0,P|84:180|96:272,1,175,0|8,0:0|0:0,0:0:0:0:
212,356,98606,1,0,0:0:0:0:
312,272,99080,1,0,0:0:0:0:
364,152,99553,2,0,P|376:96|356:48,2,87.5,0|0|2,0:0|0:0|0:0,0:0:0:0:
288,104,100501,1,4,0:0:0:0:
120,116,101132,6,0,L|60:268,1,157.500006008148,4|0,0:0|0:0,0:0:0:0:
140,364,102080,2,0,L|197:217,1,157.500006008148,2|0,0:0|0:0,0:0:0:0:
248,100,103027,2,0,P|284:84|348:96,1,105.000004005432
300,164,103658,2,0,P|312:236|440:248,1,210.000008010865,2|0,0:0|0:0,0:0:0:0:
380,188,104606,2,0,P|432:172|496:200,1,105.000004005432,0|8,0:0|0:0,0:0:0:0:
512,264,105237,2,0,P|484:320|436:340,1,105.000004005432
364,340,105869,5,2,0:0:0:0:
292,296,106185,2,0,P|180:268|140:288,1,157.500006008148,0|2,0:0|0:0,0:0:0:0:
52,364,107132,2,0,P|24:264|44:212,1,157.500006008148,2|0,0:0|0:0,0:0:0:0:
144,144,108080,2,0,P|235:113|219:-3,1,210.000008010865,2|0,0:0|0:0,0:0:0:0:
168,64,109027,2,0,P|233:143|445:159,1,315.000012016297,0|8,0:0|0:0,0:0:0:0:
508,128,110290,1,0,0:0:0:0:
504,212,110606,2,0,L|468:320,1,105.000004005432,4|0,0:0|0:0,0:0:0:0:
400,356,111237,6,0,P|344:288|276:268,1,157.500006008148,2|0,0:0|0:0,0:0:0:0:
180,344,112185,2,0,P|100:300|64:212,1,157.500006008148,0|2,0:0|0:0,0:0:0:0:
192,216,113132,2,0,L|248:120,1,105.000004005432,0|0,0:0|0:0,0:0:0:0:
304,68,113764,2,0,P|408:84|508:180,1,210.000008010865,2|0,0:0|0:0,0:0:0:0:
416,192,114711,2,0,P|376:160|316:152,1,105.000004005432,0|8,0:0|0:0,0:0:0:0:
156,144,115658,1,0,0:0:0:0:
72,140,115974,6,0,P|104:212|136:224,1,105.000004005432,2|0,0:0|0:0,0:0:0:0:
248,228,116764,2,0,P|335:270|335:349,1,157.500006008148
262,310,117553,1,8,0:0:0:0:
256,192,118185,12,4,121343,0:0:0:0:
