osu file format v12

[General]
AudioFilename: 07 Meteor Shower.mp3
AudioLeadIn: 0
PreviewTime: 55653
Countdown: 0
SampleSet: Soft
StackLeniency: 0.7
Mode: 0
LetterboxInBreaks: 1
EpilepsyWarning: 1

[Editor]
DistanceSpacing: 1
BeatDivisor: 4
GridSize: 4

[Metadata]
Title:Meteor Shower
TitleUnicode:Meteor Shower
Artist:Owl City
ArtistUnicode:Owl City
Creator:Origami_Munchkin
Version:Hard
Source:
Tags:Adam Young Ambient Ocean Eyes
BeatmapID:209058
BeatmapSetID:73380

[Difficulty]
HPDrainRate:6
CircleSize:3
OverallDifficulty:6
ApproachRate:7
SliderMultiplier:1.6
SliderTickRate:2

[Events]
//Background and Video events
0,0,"Meteor Shower Background 2.jpg",0,0
//Break Periods
2,78595,80022
//Storyboard Layer 0 (Background)
Sprite,Background,TopLeft,"Meteor Shower Background 2.jpg",0,0
Sprite,Background,Centre,"SB\BGBLACK.jpg",320,240 F,0,390,5127,0,1 F,0,5127,10179,1,0 F,0,45548,,1 F,0,55653,,1 F,0,121337,,1 F,0,123863,128916,1,0
Sprite,Background,Centre,"SB\BG.jpg",320,240 F,0,5127,7653,0,1 F,0,45548,53127,1,0 F,0,55653,55811,0,1 F,0,121337,123863,1,0
//Storyboard Layer 1 (Fail)
//Storyboard Layer 2 (Pass)
//Storyboard Layer 3 (Foreground)
Sprite,Foreground,Centre,"SB\BG-overlay-sky.png",320,136 L,5127,8 F,0,0,2526,0.1,0 L,25337,8 F,0,0,2526,0.3,0 L,55653,16 F,0,0,1263,0.5,0 L,80916,16 F,0,0,1263,0.4,0 L,101127,16 F,0,0,1263,0.7,0.2
Sprite,Foreground,Centre,"SB\BG-overlay-light.png",320,329 L,55653,16 F,0,0,100,0,0.4 F,0,100,1263,0.4,0 L,101127,16 F,0,0,100,0.2,0.5 F,0,100,1263,0.5,0.2 F,0,78390,79179,0,0.3 F,0,79653,80600,0.3,0 F,0,80916,81074,0,0.3 F,0,99863,100495,0.3,0
Sprite,Foreground,Centre,"SB\shoot.png",320,240 S,0,5127,,0.25 R,0,5127,,-0.5 F,0,5127,5284,0,0.5 M,0,5127,5442,466,55,301,138 F,0,5284,5442,0.5,0 F,0,12705,12863,0,0.5 M,0,12705,13021,201,107,-84,282 F,0,12863,13021,0.5,0 F,0,17758,17916,0,0.5 M,0,17758,18074,399,87,177,208 F,0,17916,18074,0.5,0 F,0,22811,22969,0,0.5 M,0,22811,23127,268,84,93,184 F,0,22969,23127,0.5,0 F,0,30390,30548,0,0.5 M,0,30390,30705,261,88,93,184 F,0,30548,30705,0.5,0 F,0,40495,40653,0,0.5 M,0,40495,40811,283,83,93,184 F,0,40653,40811,0.5,0 M,0,58179,,263,68 F,0,58179,58337,0,0.5 M,0,58179,58495,263,68,96,182 F,0,58337,58495,0.5,0 F,0,65758,65916,0,0.5 M,0,65758,66074,431,83,283,174 F,0,65916,66074,0.5,0 F,0,75863,76021,0,0.5 M,0,75863,76179,670,76,413,209 F,0,76021,76179,0.5,0 F,0,91021,91179,0,0.5 M,0,91021,91337,478,93,268,210 F,0,91179,91337,0.5,0 F,0,106179,106337,0,0.5 M,0,106179,106495,607,85,413,209 F,0,106337,106495,0.5,0 F,0,110600,110758,0,0.5 M,0,110600,110916,471,41,193,210 F,0,110758,110916,0.5,0 F,0,118179,118337,0,0.5 M,0,118179,118495,489,86,268,210 F,0,118337,118495,0.5,0 F,0,125127,125442,0,0.5 M,0,125127,125758,570,28,193,210 F,0,125442,125758,0.5,0
Sprite,Foreground,Centre,"SB\thanks.png",160,209 S,0,123863,,0.65 F,0,123863,124021,0,1 F,0,125758,127021,1,0
Sprite,Foreground,Centre,"SB\beatmapper.png",160,209 F,0,75,706,0,1 F,0,3864,5127,1,0 S,0,20284,,0.65
Sprite,Foreground,TopLeft,"SB\BGFLASH.png",0,0 V,0,55653,,640,480 F,0,55653,55753,0,0.2 F,0,55753,56916,0.2,0 F,0,99548,100179,0,0.1 F,0,100179,100495,0.1,0.08 F,0,101127,101227,0.08,0.2 F,0,101227,102390,0.2,0 F,0,110600,110700,0,0.2 F,0,110700,111232,0.2,0
//Storyboard Sound Samples
//Background Colour Transformations
3,100,163,162,255

[TimingPoints]
80,631.578947368421,4,2,1,50,1,0
25343,-80,4,2,1,40,0,0
25816,-80,4,2,1,60,0,0
45553,-100,4,2,1,30,0,0
55658,-66.6666666666667,4,2,1,80,0,1
65606,-66.6666666666667,4,2,1,80,0,0
65764,-66.6666666666667,4,2,1,80,0,1
75869,-100,4,2,1,20,0,0
80922,-80,4,2,1,60,0,0
101132,-66.6666666666667,4,2,1,80,0,1
111079,-66.6666666666667,4,2,1,80,0,0
111237,-66.6666666666667,4,2,1,80,0,1
118185,-100,4,2,1,20,0,1
118816,-100,4,2,1,20,0,0

[Colours]
Combo1 : 183,0,183
Combo2 : 128,255,255
Combo3 : 255,157,255
Combo4 : 0,166,166
SliderBorder : 255,255,255

[HitObjects]
256,80,5132,2,0,P|344:80|380:124,1,120
320,212,6080,2,0,P|263:244|172:188,1,160,2|0,0:0|0:0,0:0:0:0:
252,164,7027,1,0,0:0:0:0:
332,40,7658,1,0,0:0:0:0:
396,140,8132,2,0,P|404:200|448:280,1,120,0|2,0:0|0:0,0:0:0:0:
492,204,8922,2,0,P|500:292|449:332,1,160,8|0,0:0|0:0,0:0:0:0:
304,268,10185,6,0,P|248:212|264:144,1,120
284,60,11132,2,0,P|204:36|112:64,1,160,2|0,0:0|0:0,0:0:0:0:
176,120,12079,1,0,0:0:0:0:
208,192,12395,1,0,0:0:0:0:
244,264,12711,2,0,P|184:268|136:228,1,120
176,120,13658,1,2,0:0:0:0:
256,124,13974,2,0,P|316:196|324:288,1,160,8|0,0:0|0:0,0:0:0:0:
212,368,15237,6,0,P|116:332|100:300,1,120
128,204,16185,2,0,L|296:180,1,160,2|0,0:0|0:0,0:0:0:0:
312,104,17132,2,0,P|352:132|368:176,1,80
380,240,17764,5,0,0:0:0:0:
280,308,18237,2,0,P|228:268|228:196,1,120,0|2,0:0|0:0,0:0:0:0:
300,232,19027,2,0,P|312:156|252:64,1,160,8|0,0:0|0:0,0:0:0:0:
124,36,20290,2,0,P|80:172|352:336,1,480
356,280,22501,5,0,0:0:0:0:
276,272,22816,2,0,P|208:252|164:188,1,120
232,112,23764,1,2,0:0:0:0:
256,188,24080,2,0,P|312:104|276:44,1,160,8|0,0:0|0:0,0:0:0:0:
92,40,25343,6,0,P|64:144|12:164,1,150,4|2,0:3|0:0,0:0:0:0:
96,296,26290,1,0,0:0:0:0:
140,272,26448,1,0,0:0:0:0:
188,276,26606,1,8,0:0:0:0:
268,212,26922,2,0,P|292:280|272:332,2,100
172,176,27869,6,0,P|240:116|300:120,1,150,4|2,0:3|0:0,0:0:0:0:
328,264,28816,1,0,0:0:0:0:
328,264,28974,1,0,0:0:0:0:
328,264,29132,2,0,L|416:216,1,100,8|0,0:0|0:0,0:0:0:0:
500,264,29764,2,0,P|508:184|400:120,1,200,2|4,0:0|0:3,0:0:0:0:
276,168,30869,6,0,P|184:156|148:76,1,150,2|0,0:0|0:0,0:0:0:0:
153,113,31501,1,0,0:0:0:0:
153,113,31658,1,8,0:0:0:0:
244,72,31974,1,0,0:0:0:0:
344,92,32290,2,0,P|376:140|364:204,1,100,2|0,0:0|0:0,0:0:0:0:
344,276,32922,5,4,0:3:0:0:
216,356,33395,1,2,0:0:0:0:
80,292,33869,1,0,0:0:0:0:
4,228,34185,2,0,P|52:192|124:212,1,100,8|0,0:0|0:0,0:0:0:0:
172,248,34816,1,2,0:0:0:0:
372,272,35448,6,0,P|364:196|312:132,1,150,4|2,0:3|0:0,0:0:0:0:
224,168,36237,1,0,0:0:0:0:
224,168,36395,2,0,P|236:84|340:40,1,200
432,60,37343,2,0,L|440:168,1,100,2|0,0:0|0:0,0:0:0:0:
439,159,37974,5,4,0:3:0:0:
424,308,38448,1,2,0:0:0:0:
328,336,38764,1,0,0:0:0:0:
328,336,38922,2,0,P|332:300|288:244,1,100,0|8,0:0|0:0,0:0:0:0:
201,235,39553,1,0,0:0:0:0:
116,184,39869,2,0,P|144:156|200:136,1,100,2|0,0:0|0:0,0:0:0:0:
288,184,40501,5,4,0:3:0:0:
340,324,40974,2,0,P|404:336|472:292,1,150,2|0,0:0|0:0,0:0:0:0:
472,291,41606,1,0,0:0:0:0:
472,291,41764,1,8,0:0:0:0:
388,236,42080,1,0,0:0:0:0:
388,236,42395,2,0,L|380:124,1,100,2|0,0:0|0:0,0:0:0:0:
454,68,43027,6,0,P|426:48|298:80,1,150,4|2,0:3|0:0,0:0:0:0:
244,192,43974,1,0,0:0:0:0:
244,244,44132,1,0,0:0:0:0:
220,288,44290,2,0,P|176:332|108:328,1,100,8|0,0:0|0:0,0:0:0:0:
134,237,44922,1,0,0:0:0:0:
44,192,45237,1,0,0:0:0:0:
44,192,45553,5,2,0:0:0:0:
136,116,46027,2,0,P|208:112|272:64,1,120
316,48,46816,1,0,0:0:0:0:
396,64,47132,1,0,0:0:0:0:
448,128,47448,2,0,P|432:172|440:216,1,80,2|0,0:0|0:0,0:0:0:0:
472,276,48080,2,0,P|368:340|148:200,1,400
172,136,49974,6,0,P|212:156|232:208,1,80
276,252,50606,2,0,P|352:264|392:244,1,120
464,152,51553,1,0,0:0:0:0:
432,78,51869,1,0,0:0:0:0:
363,38,52185,1,0,0:0:0:0:
283,48,52501,1,0,0:0:0:0:
256,192,53132,12,0,55027,0:0:0:0:
208,68,55658,5,4,0:0:0:0:
104,268,56132,1,0,0:0:0:0:
260,356,56606,1,0,0:0:0:0:
348,276,56922,1,8,0:0:0:0:
348,276,57080,2,0,P|336:204|224:136,1,180.000006866455
232,256,57869,2,0,P|169:241|128:204,1,120.000004577637,2|0,0:0|0:0,0:0:0:0:
96,88,58501,2,0,P|32:132|8:192,1,120.000004577637,0|0,0:0|0:0,0:0:0:0:
36,288,59132,1,0,0:0:0:0:
76,332,59290,1,0,0:0:0:0:
136,336,59448,1,8,0:0:0:0:
256,324,59764,2,0,P|302:262|288:200,1,120.000004577637
180,232,60395,5,0,0:0:0:0:
180,232,60711,2,0,P|156:148|260:88,1,180.000006866455,2|0,0:0|0:0,0:0:0:0:
352,204,61658,1,0,0:0:0:0:
432,292,61974,1,8,0:0:0:0:
432,292,62132,2,0,P|468:188|432:116,1,180.000006866455
340,64,62922,1,0,0:0:0:0:
224,32,63237,2,0,P|64:152|268:236,1,480.000018310548,2|8,0:0|0:0,0:0:0:0:
184,148,64816,2,0,P|300:148|363:258,1,240.000009155274,0|2,0:0|0:0,0:0:0:0:
312,352,65764,6,0,P|392:360|476:280,1,180.000006866455,2|2,0:0|0:0,0:0:0:0:
508,124,66711,2,0,P|464:140|384:116,1,120.000004577637,0|8,0:0|0:0,0:0:0:0:
352,80,67185,1,0,0:0:0:0:
176,100,67658,2,0,P|192:204|332:252,1,240.000009155274,2|0,0:0|0:0,0:0:0:0:
408,192,68606,2,0,P|472:244|488:296,1,120.000004577637,2|0,0:0|0:0,0:0:0:0:
372,304,69237,2,0,L|392:376,2,60.0000022888184,0|0|8,0:0|0:0|0:0,0:0:0:0:
284,224,69869,2,0,P|256:288|260:336,2,120.000004577637,0|0|2,0:0|0:0|0:0,0:0:0:0:
220,124,70816,6,0,P|128:128|68:200,1,180.000006866455,0|0,0:0|0:0,0:0:0:0:
71,189,71448,1,2,0:0:0:0:
90,316,71764,1,0,0:0:0:0:
130,360,71922,1,0,0:0:0:0:
186,376,72079,2,0,P|314:344|342:244,2,240.000009155274,8|0|2,0:0|0:0|0:0,0:0:0:0:
225,262,73658,5,0,0:0:0:0:
305,170,73974,2,0,L|189:94,1,120.000004577637,0|0,0:0|0:0,0:0:0:0:
204,104,74448,1,0,0:0:0:0:
204,104,74606,1,8,0:0:0:0:
85,118,74922,1,0,0:0:0:0:
13,214,75237,1,0,0:0:0:0:
13,334,75553,1,2,0:0:0:0:
256,192,75869,12,2,78395,0:0:0:0:
140,332,80922,5,4,0:0:0:0:
260,240,81395,1,0,0:0:0:0:
312,240,81553,1,8,0:0:0:0:
320,340,81869,2,0,P|392:304|400:248,1,100
400,192,82501,2,0,P|376:160|304:144,1,100,2|8,0:0|0:0,0:0:0:0:
228,176,83132,1,0,0:0:0:0:
128,192,83448,6,0,P|48:132|52:52,1,150,0|2,0:0|0:0,0:0:0:0:
41,88,84079,1,8,0:0:0:0:
140,92,84395,2,0,L|244:72,1,100,0|0,0:0|0:0,0:0:0:0:
328,28,85027,2,0,P|340:88|300:148,1,100,2|8,0:0|0:0,0:0:0:0:
236,168,85658,1,0,0:0:0:0:
144,208,85974,6,0,P|204:264|284:256,1,150,0|2,0:0|0:0,0:0:0:0:
268,263,86606,1,8,0:0:0:0:
320,176,86922,2,0,P|392:128|472:196,1,200,0|2,0:0|0:0,0:0:0:0:
464,288,87869,2,0,P|312:344|256:312,1,200,8|0,0:0|0:0,0:0:0:0:
256,188,88974,5,0,0:0:0:0:
256,188,89132,1,8,0:0:0:0:
216,96,89448,2,0,P|156:188|160:216,1,100,2|0,0:0|0:0,0:0:0:0:
192,268,90079,1,2,0:0:0:0:
192,268,90237,1,0,0:0:0:0:
192,268,90395,1,8,0:0:0:0:
280,316,90711,2,0,L|356:344,2,50,0|0|4,0:0|0:0|0:3,0:0:0:0:
276,164,91501,6,0,P|284:128|292:104,1,50,2|8,0:0|0:0,0:0:0:0:
324,80,91816,2,0,P|360:68|408:68,1,50,0|2,0:0|0:0,0:0:0:0:
376,168,92290,1,0,0:0:0:0:
376,168,92448,1,0,0:0:0:0:
376,168,92606,2,0,P|340:244|288:252,1,100,2|8,0:0|0:0,0:0:0:0:
236,276,93237,2,0,P|280:336|324:344,1,100,0|4,0:0|0:3,0:0:0:0:
452,320,94027,5,2,0:0:0:0:
476,276,94185,1,8,0:0:0:0:
484,176,94501,2,0,P|468:92|340:36,1,200,0|2,0:0|0:0,0:0:0:0:
396,132,95448,2,0,P|396:192|364:244,1,100,8|0,0:0|0:0,0:0:0:0:
300,164,96079,5,2,0:0:0:0:
208,124,96395,1,0,0:0:0:0:
208,124,96553,2,0,P|224:228|256:252,1,150,2|0,0:0|0:0,0:0:0:0:
352,268,97343,2,0,P|328:320|288:340,1,100,0|2,0:0|0:0,0:0:0:0:
192,344,97974,1,8,0:0:0:0:
96,312,98290,2,0,P|64:256|88:192,1,100,0|2,0:0|0:0,0:0:0:0:
168,240,98922,5,0,0:0:0:0:
168,240,99079,1,2,0:0:0:0:
168,240,99237,1,8,0:0:0:0:
240,168,99553,2,0,P|180:136|120:160,1,100
56,112,100185,2,0,P|88:60|136:44,1,100,2|12,0:0|0:0,0:0:0:0:
364,40,101132,5,4,0:0:0:0:
488,168,101606,1,2,0:0:0:0:
412,332,102079,1,0,0:0:0:0:
292,336,102395,1,8,0:0:0:0:
292,336,102553,2,0,P|252:276|268:168,1,180.000006866455
364,240,103343,1,0,0:0:0:0:
384,184,103501,1,0,0:0:0:0:
372,124,103658,6,0,P|248:56|152:136,1,240.000009155274
264,176,104606,1,0,0:0:0:0:
268,236,104764,1,0,0:0:0:0:
248,292,104922,1,8,0:0:0:0:
152,360,105237,2,0,P|72:356|28:308,1,120.000004577637
124,244,105869,5,0,0:0:0:0:
124,244,106185,2,0,P|124:136|220:72,1,180.000006866455
344,44,107132,1,0,0:0:0:0:
464,60,107448,1,8,0:0:0:0:
464,60,107606,2,0,P|432:128|316:164,1,180.000006866455,0|2,0:0|0:0,0:0:0:0:
256,80,108395,1,0,0:0:0:0:
256,80,108711,2,0,P|96:80|192:292,1,480.000018310548,0|8,0:0|0:0,0:0:0:0:
176,172,110290,2,0,L|296:212,1,120.000004577637,0|12,0:0|0:0,0:0:0:0:
300,332,110922,1,0,0:0:0:0:
300,332,111079,1,0,0:0:0:0:
300,332,111237,6,0,P|448:308|488:248,1,180.000006866455,0|2,0:0|0:0,0:0:0:0:
504,116,112185,2,0,P|440:100|408:32,1,120.000004577637,0|8,0:0|0:0,0:0:0:0:
411,57,112658,1,0,0:0:0:0:
232,32,113132,2,0,P|115:70|51:166,1,240.000009155274,2|0,0:0|0:0,0:0:0:0:
172,152,114079,2,0,P|232:128|304:148,1,120.000004577637
242,249,114711,1,0,0:0:0:0:
206,297,114869,1,0,0:0:0:0:
146,309,115027,1,8,0:0:0:0:
38,257,115343,2,0,P|18:205|38:125,1,120.000004577637
138,189,115974,5,0,0:0:0:0:
85,79,116290,2,0,P|182:77|242:129,1,180.000006866455,2|0,0:0|0:0,0:0:0:0:
241,128,116922,1,0,0:0:0:0:
256,248,117237,1,0,0:0:0:0:
300,288,117395,1,0,0:0:0:0:
360,292,117553,2,0,P|420:252|424:160,1,120.000004577637,8|0,0:0|0:0,0:0:0:0:
256,192,118185,12,4,121343,0:0:0:0:
