osu file format v12

[General]
AudioFilename: Meteor Shower (DnB Remix).mp3
AudioLeadIn: 0
PreviewTime: 10110
Countdown: 0
SampleSet: Soft
StackLeniency: 0.7
Mode: 0
LetterboxInBreaks: 1
WidescreenStoryboard: 1

[Editor]
Bookmarks: 80854,126327
DistanceSpacing: 1
BeatDivisor: 4
GridSize: 4

[Metadata]
Title:Meteor Shower (DnB Remix)
TitleUnicode:Meteor Shower (DnB Remix)
Artist:Owl City
ArtistUnicode:Owl City
Creator:Moway
Version:Easy
Source:
Tags:unitedwesin drum and bass adam young ocean eyes matt milhoan
BeatmapID:288196
BeatmapSetID:110645

[Difficulty]
HPDrainRate:3
CircleSize:3
OverallDifficulty:3
ApproachRate:4
SliderMultiplier:1.6
SliderTickRate:1

[Events]
//Background and Video events
0,0,"bg.jpg",0,0
//Break Periods
2,50731,55521
2,81047,84573
//Storyboard Layer 0 (Background)
//Storyboard Layer 1 (Fail)
//Storyboard Layer 2 (Pass)
//Storyboard Layer 3 (Foreground)
//Storyboard Sound Samples
//Background Colour Transformations
3,100,163,162,255

[TimingPoints]
10110.3313480906,631.578947368421,4,2,1,30,1,0
30320,-100,4,2,1,40,0,0
56847,-100,4,2,1,5,0,0
60636,-100,4,2,1,30,0,0
85899,315.789473684211,4,2,1,60,1,0
85899,-200,4,2,1,60,0,0
106109,-200,4,2,1,30,0,1
106188,-200,4,2,1,60,0,1
114951,-200,4,2,1,10,0,0
116214,-200,4,2,1,60,0,1
126320,-200,4,2,1,60,0,0

[Colours]
Combo1 : 64,0,128
Combo2 : 255,128,192
Combo3 : 18,124,255
Combo4 : 179,255,255

[HitObjects]
336,56,10110,2,0,B|376:116|456:120|456:120|388:192|388:192|456:264|456:264|376:268|336:328,1,480,4|2,0:0|0:0,0:0:0:0:
175,327,12636,2,0,B|136:268|56:264|56:264|124:192|124:192|56:120|56:120|136:116|176:56,1,480,4|2,0:0|0:0,0:0:0:0:
336,56,15162,6,0,P|356:124|336:208,1,160,2|0,0:0|0:0,0:0:0:0:
196,132,16426,2,0,P|112:112|44:132,1,160,2|0,0:0|0:0,0:0:0:0:
120,272,17689,2,0,B|180:292|208:348|208:348|272:328|324:372,2,240,2|0|2,0:0|0:0|0:0,0:0:0:0:
40,136,20215,6,0,B|216:-28|296:304|472:136,1,480,4|2,0:0|0:0,0:0:0:0:
476,296,22741,2,0,B|300:460|220:128|44:296,1,480,2|2,0:0|0:0,0:0:0:0:
64,136,25268,6,0,P|138:113|214:137,1,160,2|0,0:0|0:0,0:0:0:0:
304,272,26531,2,0,P|229:294|153:270,1,160,2|0,0:0|0:0,0:0:0:0:
256,192,27794,12,4,30320,0:0:0:0:
136,108,31584,6,0,L|55:107,2,80,0|0|0,0:0|0:0|0:0,0:0:0:0:
296,108,32847,2,0,P|328:132|344:176,1,80,2|0,0:0|0:0,0:0:0:0:
416,200,33478,2,0,P|392:232|348:248,1,80,0|0,0:0|0:0,0:0:0:0:
288,288,34110,2,0,P|283:326|298:363,2,80,0|0|0,0:0|0:0|0:0,0:0:0:0:
256,132,35373,6,0,B|192:80|130:85|104:100|104:100|100:72|72:60|44:64,2,240,2|0|0,0:0|0:0|3:0,0:0:0:0:
372,244,37899,6,0,P|368:288|340:316,1,80,4|0,0:0|0:0,0:0:0:0:
291,253,38531,2,0,P|250:271|212:261,1,80,2|0,0:0|3:0,0:0:0:0:
140,236,39162,1,2,0:0:0:0:
112,160,39478,1,0,0:0:0:0:
148,88,39794,2,0,P|188:69|226:79,1,80,0|0,3:0|3:0,0:0:0:0:
300,100,40426,6,0,P|384:108|456:72,1,160,4|0,0:0|3:0,0:0:0:0:
460,236,41689,2,0,L|448:320,1,80,2|0,0:0|0:0,0:0:0:0:
368,320,42320,2,0,L|379:240,1,80,0|0,3:0|0:0,0:0:0:0:
300,236,42952,6,0,B|240:236|240:236|200:260|200:260|144:260,1,160,2|0,0:0|0:0,0:0:0:0:
23,157,44215,2,0,P|-1:121|-1:85,1,80,2|0,0:0|0:0,0:0:0:0:
79,97,44847,2,0,P|98:58|129:40,1,80,2|0,0:0|0:0,0:0:0:0:
159,117,45478,6,0,P|235:125|303:73,1,160,2|0,0:0|0:0,0:0:0:0:
360,25,46426,1,2,0:0:0:0:
430,63,46741,2,0,L|510:87,1,80,0|0,0:0|0:0,0:0:0:0:
488,164,47373,2,0,L|411:141,1,80,0|0,3:0|0:0,0:0:0:0:
376,212,48005,6,0,P|372:252|353:288,1,80,4|0,0:0|0:0,0:0:0:0:
284,324,48636,2,0,P|247:340|206:342,1,80,0|0,0:0|0:0,0:0:0:0:
128,328,49268,2,0,P|70:217|179:275,1,320,0|4,0:0|0:0,0:0:0:0:
256,192,56847,12,0,59373,0:0:0:0:
96,96,60636,6,0,B|139:12|216:8|256:140|256:140|296:8|372:12|416:96,1,480,4|2,0:0|0:0,0:0:0:0:
388,248,63162,2,0,B|332:268|332:340|332:340|332:388,1,160,2|0,0:0|0:0,0:0:0:0:
180,384,64426,2,0,B|180:340|180:340|180:268|124:248,1,160,0|0,1:0|0:0,0:0:0:0:
48,108,65689,6,0,B|144:12|256:128|256:128|368:12|464:108,1,480,2|2,0:0|0:0,0:0:0:0:
332,204,68215,2,0,P|256:228|180:204,1,160,4|2,0:0|0:0,0:0:0:0:
192,364,69478,2,0,B|232:372|256:326|256:326|280:372|320:364,1,160,0|2,1:0|0:0,0:0:0:0:
388,220,70741,6,0,P|256:57|124:220,1,480,4|0,0:0|0:0,0:0:0:0:
252,316,73268,2,0,B|296:268|296:268|296:164,1,160,4|2,0:0|0:0,0:0:0:0:
260,16,74531,2,0,B|216:64|216:64|216:168,1,160,0|0,1:0|0:0,0:0:0:0:
360,232,75794,6,0,B|360:152|360:152|296:96,1,160,4|0,0:0|0:0,0:0:0:0:
152,152,77057,2,0,B|152:232|152:232|216:288,1,160,0|2,1:0|0:0,0:0:0:0:
256,192,78320,12,0,80847,0:0:0:0:
96,88,85899,6,0,P|64:128|64:168,1,80,4|0,0:0|3:0,0:0:0:0:
140,152,86530,2,0,P|158:199|193:219,1,80,0|0,0:0|3:0,0:0:0:0:
221,145,87162,1,0,0:0:0:0:
283,95,87477,1,0,3:0:0:0:
364,100,87793,2,0,L|436:144,1,80,0|0,0:0|3:0,0:0:0:0:
472,212,88425,6,0,P|484:248|472:288,1,80,0|0,0:0|3:0,0:0:0:0:
400,252,89056,2,0,P|336:256|260:316,1,160,0|0,0:0|0:0,0:0:0:0:
188,344,90004,1,0,3:0:0:0:
112,324,90320,2,0,P|72:308|52:272,1,80,0|0,0:0|3:0,0:0:0:0:
126,246,90951,6,0,P|154:182|134:82,1,160,4|0,0:0|0:0,0:0:0:0:
73,51,91899,1,0,3:0:0:0:
4,92,92214,2,0,P|-4:136|4:172,1,80,0|0,0:0|3:0,0:0:0:0:
32,244,92846,2,0,P|40:288|32:324,1,80,0|0,0:0|3:0,0:0:0:0:
108,348,93477,6,0,P|212:360|264:336,1,160,0|0,0:0|0:0,0:0:0:0:
316,284,94425,1,0,3:0:0:0:
388,252,94741,2,0,P|436:248|472:252,1,80,0|0,0:0|3:0,0:0:0:0:
476,172,95372,2,0,L|496:128,2,40,0|0|0,0:0|0:0|3:0,0:0:0:0:
412,124,96004,6,0,P|368:116|332:124,1,80,4|0,0:0|3:0,0:0:0:0:
256,132,96635,2,0,P|221:139|177:131,1,80,0|0,0:0|3:0,0:0:0:0:
104,104,97267,2,0,P|44:164|40:204,2,120,0|0|0,0:0|0:0|3:0,0:0:0:0:
185,127,98530,6,0,P|224:135|264:128,1,80,0|0,0:0|3:0,0:0:0:0:
344,116,99162,2,0,P|384:144|400:188,1,80,0|0,0:0|3:0,0:0:0:0:
320,192,99793,2,0,P|252:240|248:316,1,160,0|0,0:0|0:0,0:0:0:0:
308,364,100741,1,0,3:0:0:0:
388,352,101056,6,0,P|368:309|340:288,1,80,4|0,0:0|3:0,0:0:0:0:
396,228,101688,2,0,P|442:223|475:237,1,80,0|0,0:0|3:0,0:0:0:0:
512,164,102320,2,0,P|434:142|343:162,1,160,0|0,0:0|0:0,0:0:0:0:
280,172,103267,1,0,3:0:0:0:
216,216,103583,6,0,L|172:296,1,80,0|0,0:0|3:0,0:0:0:0:
248,320,104214,2,0,L|286:249,1,80,0|0,0:0|3:0,0:0:0:0:
280,172,104846,2,0,P|216:48|124:84,1,240,0|0,0:0|3:0,0:0:0:0:
88,124,106109,6,0,P|48:176|68:256,2,120,4|2|0,1:0|0:0|3:0,0:0:0:0:
168,108,107372,2,0,L|256:108,1,80,0|0,0:0|3:0,0:0:0:0:
300,48,108004,2,0,L|388:48,1,80,0|0,0:0|3:0,0:0:0:0:
436,104,108635,6,0,P|484:176|400:296,1,240,0|0,0:0|3:0,0:0:0:0:
332,280,109899,2,0,B|284:256|256:191|256:191|228:256|180:280,1,240,0|0,0:0|3:0,0:0:0:0:
99,265,111162,6,0,P|59:213|79:133,2,120,4|2|0,0:0|0:0|3:0,0:0:0:0:
179,281,112425,2,0,L|267:281,1,80,0|0,0:0|3:0,0:0:0:0:
311,341,113056,2,0,L|399:341,1,80,0|0,0:0|3:0,0:0:0:0:
456,296,113688,6,0,B|484:268|484:268|484:224,1,80,0|0,0:0|3:0,0:0:0:0:
484,148,114320,2,0,B|456:120|456:120|412:120,1,80,0|0,0:0|3:0,0:0:0:0:
340,88,114951,6,0,B|284:56|256:120|184:88,1,160,8|8,3:0|1:0,0:0:0:0:
108,76,115899,1,8,0:0:0:0:
36,108,116214,5,4,0:0:0:0:
8,184,116530,1,0,3:0:0:0:
64,240,116846,2,0,P|96:264|128:304,1,80,0|0,0:0|3:0,0:0:0:0:
180,352,117477,2,0,P|212:328|237:297,1,80,0|0,0:0|3:0,0:0:0:0:
296,244,118109,2,0,P|328:268|360:308,1,80,0|0,0:0|3:0,0:0:0:0:
408,360,118741,6,0,P|488:312|464:184,1,240,0|0,0:0|3:0,0:0:0:0:
396,144,120004,1,0,0:0:0:0:
324,180,120320,1,0,3:0:0:0:
252,144,120635,2,0,L|179:108,1,80,0|0,3:0|0:0,0:0:0:0:
108,144,121267,6,0,B|68:156|36:196,1,80,4|0,0:0|3:0,0:0:0:0:
32,268,121899,2,0,B|43:308|84:340,1,80,0|0,0:0|3:0,0:0:0:0:
156,336,122530,2,0,P|224:256|184:136,1,240,0|0,0:0|3:0,0:0:0:0:
248,88,123793,6,0,L|336:88,1,80,0|0,0:0|3:0,0:0:0:0:
408,88,124425,2,0,P|420:132|408:168,1,80,0|0,0:0|3:0,0:0:0:0:
364,228,125056,1,0,0:0:0:0:
312,288,125372,1,0,3:0:0:0:
256,232,125688,2,0,L|256:152,2,80,0|0|4,3:0|0:0|0:0,0:0:0:0:
