osu file format v9

[General]
AudioFilename: 17 Hello Seattle (Remix).mp3
AudioLeadIn: 0
PreviewTime: 283925
Countdown: 0
SampleSet: Soft
StackLeniency: 0.7
Mode: 0
LetterboxInBreaks: 1

[Editor]
Bookmarks: 84545
DistanceSpacing: 0.8
BeatDivisor: 4
GridSize: 4

[Metadata]
Title:Hello Seattle (Remix)
Artist:Owl City
Creator:JauiPlaY
Version:Goodbye
Source:
Tags:ocean eyes adam young synthpop

[Difficulty]
HPDrainRate:6
CircleSize:4
OverallDifficulty:8
ApproachRate:8
SliderMultiplier:2.8
SliderTickRate:2

[Events]
//Background and Video events
0,0,"bg.jpg"
//Break Periods
2,130825,131795
2,209545,222035
2,284424,285395
//Storyboard Layer 0 (Background)
//Storyboard Layer 1 (Fail)
//Storyboard Layer 2 (Pass)
//Storyboard Layer 3 (Foreground)
//Storyboard Sound Samples
//Background Colour Transformations
3,100,64,0,128

[TimingPoints]
84545,480,4,2,0,50,1,0
87425,-133.333333333333,4,2,0,50,0,0
87665,-133.333333333333,4,2,0,5,0,0
87785,-133.333333333333,4,2,0,50,0,0
87905,-100,4,2,0,50,0,0
99905,-100,4,2,0,65,0,0
127265,-100,4,2,0,60,0,0
127745,-100,4,2,0,55,0,0
128225,-100,4,2,0,50,0,0
128705,-100,4,2,0,45,0,0
129185,-100,4,2,0,40,0,0
129665,-100,4,2,0,35,0,0
130145,-100,4,2,0,30,0,0
130625,-100,4,2,0,25,0,0
132545,-100,4,1,0,80,0,1
132665,-100,4,1,0,50,0,0
147905,-100,4,1,0,80,0,1
148025,-100,4,1,0,50,0,0
163265,-100,4,1,0,80,0,1
163385,-100,4,1,0,65,0,1
178625,-100,4,1,0,80,0,0
178745,-100,4,1,0,65,0,0
192185,-100,4,1,0,45,0,0
192305,-100,4,1,0,65,0,0
192425,-100,4,1,0,45,0,0
192545,-100,4,1,0,65,0,0
192665,-100,4,1,0,45,0,0
192785,-100,4,1,0,65,0,0
193985,-100,4,1,0,80,0,1
194105,-100,4,1,0,65,0,0
207545,-100,4,1,0,35,0,0
207665,-100,4,1,0,65,0,0
207785,-100,4,1,0,35,0,0
207905,-100,4,1,0,65,0,0
208025,-100,4,1,0,35,0,0
208145,-100,4,1,0,65,0,0
209345,-100,4,1,0,80,0,0
222785,-100,4,2,0,80,0,0
223025,-100,4,2,0,5,0,0
223145,-100,4,2,0,80,0,0
223265,-100,4,2,0,5,0,0
223385,-100,4,2,0,80,0,0
224705,-100,4,1,0,80,0,0
224825,-100,4,2,0,80,0,0
240065,-100,4,1,0,80,0,1
240185,-100,4,1,0,50,0,0
255425,-100,4,1,0,80,0,0
255545,-100,4,1,0,50,0,0
256145,-100,4,1,0,40,0,0
256625,-100,4,1,0,30,0,0
257105,-100,4,2,0,50,0,0
266945,-133.333333333333,4,2,0,50,0,0
269705,-100,4,2,0,50,0,0
270785,-100,4,1,0,80,0,0
270905,-100,4,2,0,50,0,0
286145,-100,4,1,0,80,0,1
286265,-100,4,1,0,65,0,0
291065,-100,4,1,0,45,0,0
291185,-100,4,1,0,65,0,0
291305,-100,4,1,0,45,0,0
291425,-100,4,1,0,65,0,0
291545,-100,4,1,0,45,0,0
291665,-100,4,1,0,65,0,0
291785,-100,4,1,0,45,0,0
291905,-100,4,1,0,65,0,0
296825,-100,4,1,0,45,0,0
296945,-100,4,1,0,65,0,0
297065,-100,4,1,0,45,0,0
297185,-100,4,1,0,65,0,0
297305,-100,4,1,0,45,0,0
297425,-100,4,1,0,65,0,0
297545,-100,4,1,0,45,0,0
297665,-100,4,1,0,65,0,0
301505,-100,4,1,0,80,0,1
301625,-100,4,1,0,65,0,1
316745,-100,4,1,0,65,0,0
316865,-100,4,1,0,80,0,1
316985,-100,4,1,0,65,0,1
332225,-100,4,1,0,65,0,0
332345,-100,4,2,0,5,0,0

[Colours]
Combo1 : 255,132,255
Combo2 : 60,255,255
Combo3 : 179,102,255
Combo4 : 89,172,255
SliderBorder : 255,255,255

[HitObjects]
256,128,84545,1,0
311,223,84905,1,2
200,224,85265,1,0
256,200,86225,5,0
256,200,86465,1,0
327,324,86825,1,2
184,324,87185,1,0
168,240,87425,2,0,B|228:232|256:284|256:284|284:232|344:240,1,209.999986588955
200,160,88385,5,0
311,160,88745,1,2
256,64,89105,1,0
256,184,90065,5,0
256,184,90305,1,0
327,60,90665,1,2
184,60,91025,1,0
256,136,91265,5,0
304,219,91505,1,0
207,220,91745,1,0
256,192,92225,5,0
256,192,92585,1,2
256,192,92945,1,0
256,344,93905,5,0
256,344,94145,2,0,B|256:272,1,69.9999976158143
256,40,94505,2,0,B|256:112,1,69.9999976158143,2|0
256,192,94865,1,0
104,192,95105,1,0
408,192,95585,1,0
256,192,96065,5,0
256,192,96425,1,2
256,192,96785,1,0
256,112,97745,5,0
256,112,97985,2,0,B|256:32,1,69.9999976158143
256,272,98345,2,0,B|256:352,1,69.9999976158143,2|0
160,288,98705,5,0
408,224,98945,1,0
104,224,99185,1,0
352,288,99425,1,0
256,144,99905,5,0
311,49,100145,1,0
324,48,100265,1,2
200,48,100505,1,0
188,48,100625,1,0
104,176,101585,5,0
160,272,101825,2,0,B|256:352|352:272,2,209.999992847443,0|2|0
256,216,102785,1,0
350,273,103025,1,0
408,176,103265,1,0
162,273,103745,5,0
350,273,103985,1,0
350,273,104105,1,2
256,118,104345,1,0
256,118,104465,1,0
256,232,105425,5,0
160,176,105665,2,0,B|120:112,1,69.9999976158143
352,176,106025,2,0,B|392:112,1,69.9999976158143,2|0
320,32,106385,1,0
192,32,106625,1,0
389,116,106865,1,0
122,116,107105,1,0
256,296,107585,5,0
256,128,107945,1,2
256,296,108305,1,0
56,112,109265,6,0,B|88:160|88:160|136:144|136:144|168:152,1,139.999995231629
256,296,109865,1,2
456,112,110225,2,0,B|424:160|424:160|376:144|376:144|344:152,1,139.999995231629
256,220,110705,1,0
256,332,110945,1,0
256,108,111425,5,0
168,252,111785,1,2
344,252,112145,1,0
256,312,113105,5,0
256,312,113345,1,0
120,80,113705,1,2
392,80,114065,1,0
256,128,114305,2,0,B|256:184|256:184|248:192|248:192|264:192|264:192|256:200|256:200|256:248,2,139.999995231629
256,352,115265,5,0
186,232,115505,1,0
186,232,115625,1,2
325,232,115865,1,0
325,232,115985,1,0
448,56,116945,5,0
368,136,117185,2,0,B|352:144|352:144|328:128|304:136,1,69.9999976158143
144,136,117545,2,0,B|160:144|160:144|184:128|208:136,1,69.9999976158143,2|0
64,56,117905,1,0
184,80,118145,2,0,B|160:168|256:216|352:168|328:80,1,279.999990463257
256,352,119105,5,0
338,208,119345,1,0
324,208,119465,1,2
172,208,119705,1,0
188,208,119825,1,0
424,160,120785,5,0
360,112,121025,2,0,B|320:121|300:87,1,69.9999976158143
152,112,121385,2,0,B|191:121|211:87,1,69.9999976158143,2|0
88,160,121745,5,0
352,248,121985,1,0
160,248,122225,1,0
424,160,122465,1,0
256,352,122945,5,0
354,179,123185,1,0
354,179,123305,1,2
155,179,123545,1,0
155,179,123665,1,0
256,352,124625,5,0
256,352,124865,1,0
373,144,125225,1,2
134,144,125585,1,0
184,272,125825,2,0,B|160:184|256:136|352:184|328:272,1,279.999990463257
256,48,126785,6,0,B|312:88,3,69.9999976158143,0|0|0|2
216,152,127265,2,0,B|160:192,3,69.9999976158143,0|0|0|0
296,232,127745,6,0,B|352:192,3,69.9999976158143
256,336,128225,2,0,B|200:296,3,69.9999976158143,0|0|0|0
84,192,128705,5,0
128,192,128825,1,0
171,192,128945,1,0
215,192,129065,1,2
256,192,129185,5,0
300,192,129305,1,0
344,192,129425,1,0
387,192,129545,1,0
432,192,129665,6,0,B|467:192,16,34.9999988079071,0|0|0|0|2|0|0|0|2|0|0|0|0|0|0|0|4
256,192,132545,5,4
308,290,132785,2,0,B|347:288|357:249,1,69.9999976158143,0|8
154,249,133145,2,0,B|164:288|204:290,1,69.9999976158143,8|0
256,192,133505,5,0
312,56,133745,1,0
256,40,133865,1,8
200,56,133985,1,0
320,160,134225,1,8
401,236,134465,2,0,B|375:299|375:299|307:321,1,139.999995231629,0|8
111,236,134825,2,0,B|136:299|136:299|204:321,1,139.999995231629
111,236,135185,1,8
192,160,135425,5,0
400,80,135665,1,10
112,80,135905,1,8
320,160,136145,1,2
256,40,136385,6,0,B|256:184,1,139.999995231629
260,324,136745,2,0,B|260:184,1,139.999995231629,8|8
260,324,137105,1,0
120,304,137345,5,0
200,192,137585,1,0
256,180,137705,1,8
312,192,137825,1,0
392,72,138065,1,8
256,180,138305,6,0,B|256:40,1,139.999995231629,0|8
256,180,138665,2,0,B|256:336,1,139.999995231629
256,320,139025,1,8
392,304,139265,5,0
312,192,139505,1,10
256,180,139625,1,0
200,192,139745,1,10
128,72,139985,1,0
72,200,140225,6,0,B|72:253|130:281|172:249,1,139.999995231629
172,249,140585,1,8
256,352,140825,1,8
256,296,140945,1,0
440,200,141185,6,0,B|439:253|381:281|339:249,1,139.999995231629,0|0
339,249,141545,1,8
339,249,141665,1,0
256,136,141905,1,8
160,40,142145,6,0,B|176:90|131:135|80:118,1,139.999995231629,0|8
80,118,142505,1,0
184,216,142745,1,0
184,216,142865,1,8
256,96,143105,5,0
328,216,143345,1,10
431,118,143585,2,0,B|380:135|335:90|352:40,1,139.999995231629,8|2
256,144,144065,5,0
352,40,144305,1,0
352,40,144425,1,8
160,40,144665,1,8
160,40,144785,1,0
88,160,145025,5,0
424,160,145265,1,10
160,240,145505,1,0
352,240,145745,1,10
256,136,145985,6,0,B|208:232|304:232|256:344,2,209.999992847443,0|10|10
120,136,146945,5,0
177,95,147065,1,0
194,27,147185,1,10
256,59,147305,1,0
318,27,147425,1,10
335,95,147545,1,0
392,136,147665,1,0
256,176,147905,5,4
352,280,148145,1,0
368,264,148265,1,8
160,280,148505,1,8
144,264,148625,1,0
256,176,148865,5,0
256,32,149105,1,0
256,104,149225,1,8
256,176,149345,1,0
336,288,149585,1,8
176,288,149825,5,0
104,168,150065,2,0,B|144:152|144:152|160:128,1,69.9999976158143,8|0
408,168,150425,2,0,B|368:152|368:152|352:128,1,69.9999976158143,0|8
176,120,150785,5,0
336,288,151025,1,10
256,264,151145,1,0
176,288,151265,1,8
336,120,151505,1,2
256,264,151745,6,0,B|256:104,1,139.999995231629
256,124,152105,1,8
136,56,152345,1,8
120,72,152465,1,0
128,208,152705,5,0
272,320,152945,1,8
384,176,153185,1,0
240,64,153425,1,8
256,264,153665,6,0,B|256:104,1,139.999995231629,0|8
256,124,154025,1,0
376,56,154265,1,0
392,72,154385,1,8
422,212,154625,5,0
235,358,154865,1,10
89,171,155105,1,10
276,25,155345,1,0
256,184,155585,5,0
208,320,155825,2,0,B|168:320|168:320|144:304,1,69.9999976158143,0|8
120,168,156185,2,0,B|160:168|160:168|184:184,1,69.9999976158143,8|0
256,72,156545,5,0
123,266,156785,1,8
388,149,157025,1,0
256,344,157265,1,8
256,184,157505,5,0
304,320,157745,2,0,B|344:320|344:320|368:304,1,69.9999976158143,8|0
392,168,158105,2,0,B|352:168|352:168|328:184,1,69.9999976158143,0|8
256,72,158465,5,0
388,266,158705,1,10
123,149,158945,1,8
256,344,159185,1,2
256,184,159425,5,0
136,256,159665,2,0,B|96:312,1,69.9999976158143,0|8
376,256,160025,2,0,B|416:312,1,69.9999976158143,8|0
256,343,160385,5,0
256,305,160505,1,8
256,267,160625,1,0
256,231,160745,1,0
256,192,160865,1,8
256,155,160985,1,0
256,117,161105,1,0
256,81,161225,1,8
256,42,161345,5,0
385,267,161585,1,0
385,267,161705,1,8
126,267,161945,1,0
126,267,162065,1,8
256,192,162305,12,4,163265
320,232,163505,5,0
256,264,163625,1,8
192,232,163745,1,0
136,344,163985,2,0,B|168:301|139:244|85:244,1,139.999995231629,8|0
192,152,164465,5,10
256,120,164585,1,0
320,152,164705,1,10
426,244,164945,2,0,B|372:244|343:301|376:344,1,139.999995231629
256,264,165425,6,0,B|256:280|256:280|248:288|248:288|264:288|264:288|256:296|256:296|256:312,1,69.9999976158143,0|8
256,120,165785,2,0,B|256:104|256:104|264:96|264:96|248:96|248:96|256:88|256:88|256:72,1,69.9999976158143,0|8
126,22,166145,5,0
384,22,166385,1,10
384,280,166625,1,0
126,280,166865,1,10
256,120,167105,5,0
400,160,167345,1,0
475,168,167465,1,8
490,242,167585,1,0
424,280,167705,1,0
368,229,167825,1,8
307,358,168065,5,0
307,25,168305,1,10
200,320,168545,1,10
200,64,168785,1,0
256,192,169025,5,0
144,229,169265,1,0
88,280,169385,1,8
22,242,169505,1,0
37,168,169625,1,0
112,160,169745,1,8
80,24,169985,5,0
432,24,170225,1,10
256,336,170465,1,0
256,280,170585,1,0
256,224,170705,1,10
256,168,170825,1,0
256,112,170945,5,0
392,136,171185,1,0
416,112,171305,1,8
120,136,171545,1,0
96,112,171665,1,8
88,248,171905,6,0,B|90:301|148:327|190:293,1,139.999995231629,0|10
256,280,172265,1,0
424,248,172385,2,0,B|421:301|363:327|321:293,1,139.999995231629,10|0
256,112,172865,5,0
96,112,173105,1,0
120,136,173225,1,8
416,112,173465,1,0
392,136,173585,1,8
321,293,173825,6,0,B|363:327|421:301|424:248,1,139.999995231629,0|2
256,280,174185,1,0
190,292,174305,2,0,B|148:327|90:301|88:248,1,139.999995231629,0|10
256,192,174785,5,0
256,32,175025,1,0
301,65,175145,1,8
284,118,175265,1,0
227,118,175385,1,0
210,65,175505,1,8
68,70,175745,5,0
78,138,175865,1,8
122,191,175985,1,2
189,210,176105,1,0
256,192,176225,1,10
322,173,176345,1,0
389,192,176465,1,0
433,245,176585,1,8
443,313,176705,5,0
256,192,176945,1,0
256,192,177065,1,8
68,313,177305,1,0
68,313,177425,1,8
256,192,177665,12,4,178625
136,112,178865,6,0,B|176:56,2,69.9999976158143,0|8|0
176,312,179345,1,8
336,72,179585,5,0
376,272,179825,2,0,B|336:328,2,69.9999976158143,0|8|0
256,192,180305,1,8
112,192,180545,5,0
256,192,180785,1,0
256,192,180905,1,8
256,192,181025,1,0
400,192,181265,1,8
312,64,181505,5,2
205,358,181745,1,2
205,358,181865,1,8
205,358,181985,1,0
205,25,182225,1,10
312,320,182465,5,0
256,192,182705,1,0
256,192,182825,1,8
256,192,182945,1,0
112,192,183185,1,8
112,192,183425,5,0
328,67,183665,1,0
328,67,183785,1,8
328,67,183905,1,0
328,316,184145,1,8
384,192,184385,5,0
248,168,184625,1,0
239,210,184745,1,8
280,197,184865,1,0
128,192,185105,1,8
109,45,185345,5,0
109,338,185585,1,10
402,338,185825,1,8
402,45,186065,1,2
256,96,186305,5,0
312,269,186545,1,0
312,269,186665,1,8
312,269,186785,1,0
164,162,187025,1,8
347,162,187265,5,0
199,269,187505,1,0
199,269,187625,1,8
199,269,187745,1,0
256,96,187985,1,8
256,96,188225,2,0,B|256:184|256:184|248:176|248:176|264:176|264:176|256:168|256:168|256:256,2,209.999992847443,0|8|8
152,192,189185,5,2
190,129,189305,1,0
256,96,189425,1,2
322,129,189545,1,8
360,192,189665,1,0
256,280,189905,1,10
256,280,190025,1,0
256,280,190145,5,0
152,192,190385,2,0,B|96:256,2,69.9999976158143,0|8|0
256,96,190865,1,8
256,280,191105,5,0
360,192,191345,2,0,B|416:256,2,69.9999976158143,0|8|0
256,96,191825,1,8
176,192,192065,6,0,B|120:248,1,69.9999976158143
256,302,192305,2,0,B|256:232,1,69.9999976158143,8|0
336,192,192545,2,0,B|392:248,1,69.9999976158143,8|0
256,192,192785,12,4,193985
192,296,194225,5,0
256,328,194345,1,8
320,296,194465,1,0
256,176,194705,1,8
160,72,194945,2,0,B|256:-8|352:72,2,209.999992847443,0|8|8
256,176,195905,5,0
152,264,196145,2,0,B|112:208,1,69.9999976158143,0|8
256,176,196625,1,8
256,360,196865,5,2
360,264,197105,2,0,B|400:208,1,69.9999976158143,2|8
256,360,197585,1,10
256,224,197825,6,0,B|304:128|208:128|256:16,2,209.999992847443,0|8|8
168,112,198785,1,0
192,248,199025,1,0
256,224,199145,1,8
320,248,199265,1,0
344,112,199505,1,8
432,232,199745,6,0,B|395:269|334:251|324:198,1,139.999995231629
256,176,200105,1,8
80,232,200225,2,0,B|116:269|177:251|187:198,1,139.999995231629,0|8
109,338,200705,5,0
402,338,200945,1,10
402,45,201185,1,8
109,45,201425,1,2
176,168,201665,6,0,B|176:240|176:240|152:264|112:248,1,139.999995231629
112,248,202025,1,8
312,32,202385,1,8
336,168,202625,6,0,B|336:240|336:240|360:264|400:248,1,139.999995231629
399,248,202985,1,8
200,32,203345,1,8
256,128,203585,6,0,B|256:172|232:204|232:204|280:204|280:204|256:236|256:280,2,210,0|8|8
164,278,204545,1,2
192,340,204665,1,0
256,364,204785,1,2
320,340,204905,1,8
348,278,205025,1,0
256,128,205265,1,10
120,108,205505,6,0,B|240:142|295:29,2,209.999992847443,0|8|8
392,108,206465,2,0,B|271:142|216:29,2,209.999992847443,0|8|8
336,198,207425,6,0,B|392:254,1,69.9999976158143
256,308,207665,2,0,B|256:238,1,69.9999976158143,8|0
176,198,207905,2,0,B|120:254,1,69.9999976158143,8|0
256,192,208145,12,4,209345
168,200,222785,6,0,B|208:168|240:184|256:215|256:215|272:184|304:168|344:200,2,209.999992847443,0|2|0
256,312,223745,2,0,B|256:360,16,34.9999988079071,0|0|0|0|0|0|0|0|2|0|0|0|0|0|0|0|4
125,64,225065,5,0
125,64,225185,1,2
386,64,225665,1,0
148,88,226145,5,2
363,88,226625,1,0
171,111,226985,5,0
171,111,227105,1,2
340,111,227585,5,0
256,256,227825,1,2
171,111,228065,1,2
340,272,228545,5,0
171,272,228905,1,0
171,272,229025,1,2
363,295,229505,5,0
148,295,229985,1,2
386,319,230465,5,0
125,319,230825,1,0
125,319,230945,1,2
256,88,231425,5,0
125,319,231665,1,2
386,319,231905,1,0
456,48,232385,5,0
368,160,232625,2,0,B|361:139|361:139|339:129|321:111,1,69.9999976158143,0|2
146,160,232985,2,0,B|152:139|152:139|174:129|192:111,1,69.9999976158143,0|2
56,48,233345,5,0
256,360,233825,1,2
456,48,234305,5,0
328,104,234545,1,0
56,48,234785,1,2
184,104,235025,1,0
256,224,235265,5,0
235,188,235385,1,2
276,189,235505,1,2
256,48,235745,1,2
256,336,236225,6,0,B|256:256,1,69.9999976158143
131,120,236585,2,0,B|200:160,1,69.9999976158143,0|2
380,120,236945,2,0,B|311:160,1,69.9999976158143
400,275,237305,5,0
400,275,237425,1,0
111,275,237665,1,2
256,24,237905,1,0
332,147,238145,6,0,B|405:104,1,69.9999976158143,2|0
178,147,238504,2,0,B|105:104,1,69.9999976158143,0|2
256,280,238864,2,0,B|256:208,1,69.9999976158143
256,172,239105,6,0,B|256:124,16,34.9999988079071,0|0|0|0|0|0|0|0|2|0|0|0|0|0|0|0|4
320,80,240305,5,0
256,48,240425,1,0
192,80,240545,1,8
256,200,240785,1,0
200,320,241025,2,0,B|232:328|256:360|256:360|280:328|312:320,2,139.999995231629,0|0|8
80,64,241985,5,0
168,176,242225,1,2
152,192,242345,1,8
344,176,242585,1,0
360,192,242705,1,8
432,64,242945,5,0
360,192,243185,1,10
344,176,243305,1,0
152,192,243545,1,8
168,176,243665,1,0
256,72,243905,5,0
256,208,244145,1,0
256,256,244265,1,0
256,304,244385,1,8
120,264,244625,5,0
344,344,244865,1,0
168,344,245105,1,0
392,264,245345,1,8
256,16,245825,5,0
360,112,246065,1,2
293,144,246185,1,8
256,208,246305,1,0
219,144,246425,1,8
152,112,246545,1,0
40,192,246785,5,0
176,24,247025,1,10
336,360,247265,1,10
472,192,247505,1,0
412,100,247745,5,0
304,128,247985,1,0
256,64,248105,1,8
208,256,248345,1,8
256,320,248465,1,0
256,192,248705,5,0
120,304,248945,1,0
392,304,249185,1,8
100,100,249665,5,0
351,192,249905,1,2
158,192,250145,1,8
412,100,250385,1,0
412,100,250505,1,0
412,100,250625,5,0
256,120,250865,1,2
256,256,251105,1,8
24,104,251585,6,0,B|55:166,1,69.9999976158143,0|8
256,280,251945,2,0,B|256:210,1,69.9999976158143,0|8
488,104,252305,2,0,B|456:166,1,69.9999976158143,0|8
395,35,252665,5,0
395,35,252785,1,8
117,37,253025,1,8
256,280,253265,1,0
256,133,253505,5,0
189,104,253625,1,8
153,169,253745,1,2
192,235,253865,1,0
256,280,253985,1,8
320,235,254105,1,0
358,169,254225,1,0
321,104,254345,1,8
256,133,254465,6,0,B|256:188,16,35,0|0|0|0|2|0|0|0|2|0|0|0|0|0|0|0|4
200,8,255665,5,0
160,48,255785,1,0
152,104,255905,1,0
68,148,256145,5,0
83,203,256265,1,0
127,238,256385,1,0
124,332,256625,5,0
179,347,256745,1,0
231,326,256865,1,0
312,376,257105,5,2
352,336,257225,1,0
360,280,257345,1,0
443,235,257585,5,2
428,180,257705,1,0
384,145,257825,1,0
387,51,258065,5,2
332,36,258185,1,0
280,57,258305,1,0
312,136,258545,5,2
312,248,258785,1,2
200,248,259025,1,0
200,136,259265,1,0
280,57,259505,5,2
332,36,259625,1,0
387,51,259745,1,0
384,145,259985,5,2
428,180,260105,1,0
443,235,260225,1,0
360,280,260465,5,2
352,336,260585,1,0
312,376,260705,1,0
231,326,260945,5,2
179,347,261065,1,0
124,332,261185,1,0
127,238,261425,5,2
83,203,261545,1,0
68,148,261665,1,0
152,104,261905,5,2
160,48,262025,1,0
200,8,262145,1,0
256,104,262385,5,2
168,192,262625,1,2
256,280,262865,1,0
344,192,263105,1,0
408,280,263345,5,2
432,235,263465,1,0
457,190,263585,1,0
344,192,263825,5,2
356,142,263945,1,0
369,94,264065,1,0
256,120,264305,5,2
256,64,264425,1,0
256,16,264545,1,0
256,264,264785,5,2
256,320,264905,1,0
256,368,265025,1,0
176,192,265265,5,2
164,242,265385,1,0
151,290,265505,1,0
112,104,265745,5,2
88,149,265865,1,0
63,194,265985,1,0
176,192,266225,5,2
256,56,266465,1,2
336,192,266705,1,0
496,192,266945,6,0,B|480:253|418:249,1,104.999993294478,0|2
416,192,267305,1,0
408,136,267425,2,0,B|369:89|314:119,1,104.999993294478,0|2
336,192,267785,1,0
344,264,267905,6,0,B|305:313|249:285,1,104.999993294478,0|2
256,192,268265,1,0
260,97,268385,2,0,B|206:70|168:120,1,104.999993294478,0|2
176,192,268745,1,0
197,265,268865,6,0,B|142:294|104:248,1,104.999993294478,0|2
96,192,269225,1,0
100,135,269345,2,0,B|39:131|24:192,1,104.999993294478,0|2
120,296,269825,5,0
256,336,270065,1,2
392,296,270305,1,2
256,336,270545,1,0
256,192,270785,5,4
149,87,271025,5,2
167,39,271145,1,0
218,47,271265,1,0
112,232,271505,5,2
80,192,271625,1,0
112,151,271745,1,0
218,336,271985,5,2
168,344,272105,1,0
149,296,272225,1,0
362,296,272465,5,2
344,344,272585,1,0
293,336,272705,1,0
400,152,272945,5,2
432,192,273065,1,0
399,231,273185,1,0
293,47,273425,5,2
344,39,273545,1,0
362,87,273665,1,0
256,120,273905,5,2
318,228,274145,1,2
193,228,274385,1,0
256,120,274625,1,0
362,87,274865,5,2
344,39,274985,1,0
293,47,275105,1,0
399,231,275345,5,2
432,192,275465,1,0
400,152,275585,1,0
293,336,275825,5,2
344,344,275945,1,0
362,296,276065,1,0
149,296,276305,5,2
168,344,276425,1,0
218,336,276545,1,0
112,151,276785,5,2
80,192,276905,1,0
112,232,277025,1,0
218,47,277265,5,2
167,39,277385,1,0
149,87,277505,1,0
256,120,277745,5,2
256,264,277985,1,2
256,120,278225,1,0
256,264,278465,5,0
256,296,278585,1,0
256,328,278705,1,2
256,360,278825,1,0
137,310,278945,5,0
159,288,279065,1,0
182,265,279185,1,2
205,242,279305,1,0
184,192,279425,5,0
152,192,279545,1,0
120,192,279665,1,2
88,192,279785,1,0
137,73,279905,5,0
159,95,280025,1,0
182,118,280145,1,2
205,141,280265,1,0
256,120,280385,5,0
256,88,280505,1,0
256,56,280625,1,2
256,24,280745,1,0
374,73,280865,5,0
352,95,280985,1,0
329,118,281105,1,2
306,141,281225,1,0
328,192,281345,5,0
360,192,281465,1,0
392,192,281585,1,2
424,192,281705,1,0
374,310,281825,5,2
352,288,281945,1,0
329,265,282065,1,0
306,242,282185,1,0
256,320,282305,5,0
256,288,282425,1,0
256,256,282545,1,2
256,224,282665,1,0
256,192,282785,5,0
256,160,282905,1,0
256,128,283025,1,2
256,96,283145,1,0
256,64,283265,6,0,B|256:16,16,34.9999988079071,0|0|0|0|2|0|0|0|0|0|0|0|2|0|0|0|0
256,192,286145,5,4
344,80,286385,2,0,B|368:88|368:88|368:72|400:56,1,69.9999976158143,0|8
168,80,286745,2,0,B|144:88|144:88|144:72|112:56,1,69.9999976158143,8|0
64,192,287105,5,0
200,232,287345,1,0
256,192,287465,1,8
312,232,287585,1,0
448,192,287825,1,8
400,64,288065,6,0,B|360:96|360:96|360:128|360:128|336:144|304:136,1,139.999995231629,0|8
112,64,288425,2,0,B|152:96|152:96|152:128|152:128|176:144|208:136,1,139.999995231629,0|0
256,192,288785,1,8
160,288,289025,5,0
195,227,289145,1,0
256,192,289265,1,10
317,227,289385,1,0
352,288,289505,1,8
256,192,289745,1,2
256,192,289865,1,0
256,192,289985,5,0
384,128,290225,1,0
344,88,290345,1,8
128,128,290585,1,8
168,88,290705,1,0
88,240,290945,6,0,B|88:312,1,69.9999976158143
200,240,291185,2,0,B|200:320,1,69.9999976158143,8|0
312,240,291425,2,0,B|312:320,1,69.9999976158143,0|0
424,240,291665,2,0,B|424:312,1,69.9999976158143,8|0
360,336,291905,5,0
152,336,292145,1,8
152,336,292265,1,0
256,160,292505,1,0
256,160,292625,1,8
255,12,292865,5,0
306,34,292985,1,8
326,85,293105,1,2
308,137,293225,1,0
255,159,293345,1,10
203,182,293465,1,0
185,234,293585,1,0
205,285,293705,1,8
256,307,293825,5,0
120,304,294065,2,0,B|104:304|104:304|80:272|56:288,1,69.9999976158143,0|8
392,304,294425,2,0,B|408:304|408:304|432:272|456:288,1,69.9999976158143,8|0
344,208,294785,5,0
168,208,295025,1,8
392,304,295265,1,0
120,304,295505,1,8
256,344,295745,5,0
120,240,295985,1,8
120,304,296105,1,0
392,304,296345,1,0
392,240,296465,1,8
256,288,296705,6,0,B|224:288|224:288|192:264,1,69.9999976158143
256,200,296945,2,0,B|288:200|288:200|320:176,1,69.9999976158143,10|0
256,112,297185,2,0,B|224:112|224:112|192:88,1,69.9999976158143,8|0
256,24,297425,2,0,B|288:24|288:24|320:0,1,69.9999976158143,2|0
336,72,297665,5,0
176,72,297905,1,0
176,72,298025,1,8
256,200,298265,1,8
256,200,298385,1,0
136,273,298625,5,0
187,320,298745,1,8
255,339,298865,1,0
322,320,298985,1,0
373,273,299105,1,8
307,248,299225,1,0
257,200,299345,1,0
242,131,299465,1,8
255,64,299585,6,0,B|207:160|303:160|255:272,2,209.999992847443,0|8|8
256,192,300545,12,4,301505
256,120,301745,5,0
256,192,301865,1,8
256,264,301985,1,0
136,192,302225,1,8
160,328,302465,5,0
224,296,302585,1,0
256,232,302705,1,10
288,296,302825,1,0
352,328,302945,1,8
376,192,303185,1,2
376,192,303305,1,0
376,192,303425,5,0
320,64,303665,2,0,B|312:104|352:128,1,69.9999976158143,8|0
192,64,304025,2,0,B|200:104|160:128,1,69.9999976158143,8|0
256,232,304385,5,2
120,216,304625,1,10
134,284,304745,1,0
180,336,304865,1,0
332,336,305105,1,10
378,284,305225,1,0
392,216,305345,5,0
496,120,305585,1,0
496,120,305705,2,0,B|452:151|396:121|397:68,1,139.999995231629,8|0
397,67,306065,1,8
320,184,306305,5,0
256,56,306545,1,10
256,328,306785,1,8
192,184,307025,1,2
64,248,307265,5,0
16,120,307505,1,8
15,119,307626,2,0,B|59:151|115:121|114:67,1,139.999995231629,0|8
114,67,307985,1,0
64,248,308225,5,0
128,248,308345,1,0
192,248,308465,1,10
256,248,308585,1,0
320,248,308705,1,2
384,248,308825,1,0
448,248,308945,1,8
336,160,309185,5,0
312,24,309425,1,0
312,24,309545,2,0,B|287:72|224:72|200:24,1,139.999995231629,8|8
200,24,309905,1,0
176,160,310145,5,0
200,296,310385,1,10
199,296,310505,2,0,B|222:248|286:248|310:296,1,139.999995231629,0|0
311,296,310865,1,10
256,80,311105,5,0
48,137,311345,1,0
48,136,311465,2,0,B|95:159|95:223|47:247,1,139.999995231629,8|8
46,247,311825,1,0
256,240,312065,5,2
464,248,312305,1,10
464,247,312425,2,0,B|416:223|416:159|464:136,1,139.999995231629
464,135,312785,1,10
256,160,313025,5,0
255,21,313265,1,0
274,34,313385,1,8
267,53,313505,1,0
245,53,313625,1,8
238,34,313745,1,0
376,273,313985,5,0
325,320,314105,1,8
257,339,314225,1,2
190,320,314345,1,0
139,273,314465,1,8
205,248,314585,1,0
255,200,314705,1,2
270,131,314825,1,8
257,64,314945,6,0,B|305:160|209:160|257:272,2,209.999992847443,0|8|8
256,192,315905,12,4,316865
256,16,317105,5,0
224,48,317225,1,8
256,80,317345,1,0
288,112,317465,1,8
256,144,317585,1,0
154,293,317825,5,2
304,192,318065,5,2
336,224,318185,1,8
368,192,318305,1,0
400,160,318425,1,0
432,192,318545,1,10
154,90,318785,5,0
256,368,319025,5,8
288,336,319145,1,0
256,304,319265,1,0
224,272,319385,1,0
256,240,319505,1,8
357,90,319745,5,0
208,192,319985,5,2
176,160,320105,1,8
144,192,320225,1,0
112,224,320345,1,0
80,192,320465,1,10
357,294,320705,5,0
320,160,320945,2,0,B|360:103,1,69.9999976158143,0|8
256,112,321185,1,0
192,160,321305,2,0,B|151:103,1,69.9999976158143,8|0
155,294,321665,5,2
192,160,321905,2,0,B|151:217,1,69.9999976158143,2|8
256,208,322145,1,0
320,160,322265,2,0,B|360:217,1,69.9999976158143,0|10
472,192,322625,5,0
368,288,322865,1,8
306,321,322985,1,0
256,372,323105,1,0
206,321,323225,1,0
144,288,323345,1,8
40,192,323585,5,0
93,55,323825,1,10
163,49,323945,1,0
190,113,324065,1,10
256,136,324185,1,0
322,113,324305,1,0
349,49,324425,1,0
419,55,324545,5,0
368,184,324785,2,0,B|392:168|392:168|408:184|432:184,1,69.9999976158143,0|8
360,304,325145,2,0,B|395:286|395:286|381:275|392:261,1,69.9999976158143,8|0
256,296,325505,5,2
118,260,325745,2,0,B|130:275|116:286|116:286|152:304,1,69.9999976158143,10|0
83,183,326106,2,0,B|104:184|120:168|120:168|144:184,1,69.9999976158143,0|10
256,104,326465,5,0
128,48,326705,2,0,B|168:104,1,69.9999976158143,8|0
200,240,327065,2,0,B|207:170,1,69.9999976158143,0|8
256,304,327425,5,0
304,170,327665,2,0,B|312:240,1,69.9999976158143,2|8
343,104,328025,2,0,B|384:48,1,69.9999976158143,8|2
256,104,328385,5,0
138,188,328625,1,0
188,236,328745,1,8
256,256,328865,1,0
324,236,328985,1,8
374,188,329105,1,0
256,256,329345,5,2
256,232,329465,1,8
256,208,329585,1,2
256,184,329705,1,0
256,160,329825,1,8
256,136,329945,1,0
256,112,330065,1,10
256,88,330185,1,8
256,64,330305,5,0
145,256,330545,1,0
145,256,330665,1,8
366,256,330905,1,0
366,256,331025,1,8
144,140,331265,2,2,B|188:140|224:200|224:200|256:228|288:200|288:200|320:140|368:140,1,279.999990463257,0|10
256,44,332225,5,6
256,192,332345,12,0,341825
