osu file format v14

[General]
AudioFilename: Good Time.mp3
AudioLeadIn: 0
PreviewTime: 60982
Countdown: 0
SampleSet: Soft
StackLeniency: 0.7
Mode: 0
LetterboxInBreaks: 1
WidescreenStoryboard: 0

[Editor]
DistanceSpacing: 1
BeatDivisor: 4
GridSize: 4
TimelineZoom: 1

[Metadata]
Title:Good Time (with Carly Rae Jepsen)
TitleUnicode:Good Time (with Carly Rae Jepsen)
Artist:Owl City
ArtistUnicode:Owl City
Creator:Kenezz
Version:Normal
Source:
Tags:adam young synthpop kiss the midsummer station
BeatmapID:230028
BeatmapSetID:55678

[Difficulty]
HPDrainRate:4
CircleSize:3.5
OverallDifficulty:4
ApproachRate:4
SliderMultiplier:1.6
SliderTickRate:1

[Events]
//Background and Video events
0,0,"BG.jpg",0,0
Video,0,"Bunzvlo.avi"
//Break Periods
2,76419,82519
//Storyboard Layer 0 (Background)
//Storyboard Layer 1 (Fail)
//Storyboard Layer 2 (Pass)
//Storyboard Layer 3 (Foreground)
//Storyboard Sound Samples

[TimingPoints]
15268,476.190476190476,4,2,1,80,1,0
44672,-100,4,2,1,30,0,0
45148,-100,4,2,1,80,0,0
45625,-100,4,2,1,80,0,0
57053,-100,4,2,1,60,0,0
58958,-100,4,2,1,80,0,0
59910,-133.333333333333,4,2,1,80,0,0
60982,-100,4,2,2,80,0,1
76220,-100,4,2,1,80,0,0
98006,-133.333333333333,4,2,1,80,0,0
98720,-100,4,2,1,80,0,0
110387,-100,4,2,1,60,0,0
112291,-100,4,2,1,80,0,0
114315,-100,4,2,2,80,0,1
129434,-100,4,2,2,80,0,0
129553,-100,4,2,2,80,0,1
144791,-100,4,1,0,80,0,0
144910,-100,4,2,1,80,0,0
156220,-100,4,2,1,60,0,0
158006,-100,4,2,1,80,0,0
160029,-100,4,2,2,80,0,1
175148,-100,4,2,2,80,0,0
175267,-100,4,2,2,80,0,1
186577,-100,4,2,2,60,0,1
189434,-100,4,2,2,50,0,1
190506,-100,4,2,2,80,0,0

[Colours]
Combo1 : 192,192,192
Combo2 : 0,128,0
Combo3 : 128,64,0
Combo4 : 0,64,128
SliderBorder : 255,255,255

[HitObjects]
60,40,14553,6,0,P|52:80|64:120,2,80,0|8|0,0:0|0:0|0:0,0:0:0:0:
132,76,15268,2,0,L|312:92,2,160,0|8|2,0:0|0:0|0:0,0:0:0:0:
68,224,16696,1,8,0:0:0:0:
176,344,17172,2,0,L|335:358,1,160,2|8,0:0|0:0,0:0:0:0:
448,244,18125,2,0,L|368:237,1,80,2|0,0:0|0:0,0:0:0:0:
288,228,18601,2,0,P|212:244|136:204,1,160,8|0,0:0|0:0,0:0:0:0:
56,72,19553,5,8,0:0:0:0:
204,12,20029,1,2,0:0:0:0:
296,144,20506,1,8,0:0:0:0:
296,144,20744,1,0,0:0:0:0:
296,144,20982,2,0,P|292:216|344:296,1,160,2|8,0:0|0:0,0:0:0:0:
492,252,21934,2,0,P|496:180|444:100,2,160,2|8|0,0:0|0:0|0:0,0:0:0:0:
376,364,23363,5,8,0:0:0:0:
256,256,23839,1,2,0:0:0:0:
100,212,24315,2,0,P|88:256|96:296,1,80,8|0,0:0|0:0,0:0:0:0:
132,360,24791,1,2,0:0:0:0:
256,256,25267,2,0,P|268:212|260:172,1,80,8|0,0:0|0:0,0:0:0:0:
216,112,25744,1,2,0:0:0:0:
72,44,26220,1,8,0:0:0:0:
28,196,26696,6,0,L|352:224,1,320,0|0,0:0|0:0,0:0:0:0:
504,244,28125,1,8,0:0:0:0:
408,372,28601,2,0,L|327:365,1,80,2|0,0:0|0:0,0:0:0:0:
248,352,29077,1,8,0:0:0:0:
104,280,29553,2,0,P|88:204|120:132,2,160,0|8|4,0:0|0:0|0:0,0:0:0:0:
248,352,30982,5,8,0:0:0:0:
248,352,31458,1,2,0:0:0:0:
396,288,31934,2,0,L|376:200,1,80,8|0,0:0|0:0,0:0:0:0:
300,192,32410,2,0,P|228:208|150:172,2,160,2|8|2,0:0|0:0|0:0,0:0:0:0:
404,68,33839,2,0,P|332:34|255:50,1,160,8|0,0:0|0:0,0:0:0:0:
152,172,34791,5,8,0:0:0:0:
152,172,35267,1,2,0:0:0:0:
216,320,35744,2,0,L|296:332,1,80,8|0,0:0|0:0,0:0:0:0:
372,348,36220,1,2,0:0:0:0:
472,220,36696,2,0,L|392:208,1,80,8|0,0:0|0:0,0:0:0:0:
312,196,37172,2,0,L|152:172,1,160,2|8,0:0|0:0,0:0:0:0:
0,144,38125,5,0,0:0:0:0:
124,244,38601,2,0,P|160:176|144:96,1,160,8|2,0:0|0:0,0:0:0:0:
304,72,39553,2,0,L|464:96,1,160,8|2,0:0|0:0,0:0:0:0:
408,248,40506,2,0,L|488:260,2,80,8|0|0,0:0|0:0|0:0,0:0:0:0:
256,192,41458,1,8,0:0:0:0:
104,136,41934,6,0,L|24:124,2,80,2|0|8,0:0|0:0|0:0,0:0:0:0:
160,76,42648,2,0,L|240:88,2,80,0|2|0,0:0|0:0|0:0,0:0:0:0:
104,136,43363,1,8,0:0:0:0:
120,296,43839,2,0,P|256:368|392:296,1,320,0|0,0:0|0:0,0:0:0:0:
464,152,45267,1,8,0:0:0:0:
344,44,45744,6,0,L|184:36,1,160,4|2,0:0|0:0,0:0:0:0:
60,136,46696,1,0,0:0:0:0:
84,296,47172,1,0,0:0:0:0:
236,340,47648,2,0,P|240:260|200:192,1,160,0|0,0:0|0:0,0:0:0:0:
276,44,48601,2,0,P|272:124|312:192,1,160,0|0,0:0|0:0,0:0:0:0:
452,248,49553,5,2,0:0:0:0:
428,88,50029,1,2,0:0:0:0:
276,44,50506,2,0,L|192:28,2,80,0|0|0,0:0|0:0|0:0,0:0:0:0:
296,120,51220,2,0,B|311:193|256:229|200:264|216:338,1,240,2|0,0:0|0:0,0:0:0:0:
296,336,52172,2,0,B|311:264|255:229|200:194|216:120,1,240,2|8,0:0|0:0,0:0:0:0:
352,36,53363,6,0,L|436:52,2,80,4|0|8,0:0|0:0|0:0,0:0:0:0:
216,120,54315,1,0,0:0:0:0:
232,280,54791,1,8,0:0:0:0:
372,356,55267,2,0,P|440:368|500:308,1,160,0|8,0:0|0:0,0:0:0:0:
464,152,56220,2,0,P|396:140|336:200,1,160,0|8,0:0|0:0,0:0:0:0:
256,340,57172,2,0,P|220:356|176:348,2,80,10|8|8,0:0|0:0|0:0,0:0:0:0:
212,272,57887,2,0,P|248:256|292:264,2,80,8|8|8,0:0|0:0|0:0,0:0:0:0:
132,288,58601,1,8,0:0:0:0:
48,152,59077,6,0,L|32:56,1,80
104,32,59553,2,0,L|117:110,1,80
132,168,60029,2,0,P|192:180|252:152,1,120.000004577637,2|8,0:0|0:0,0:0:0:0:
332,28,60982,5,4,0:0:0:0:
404,60,61220,2,0,L|420:156,2,80,0|8|0,0:0|0:0|0:0,0:0:0:0:
332,28,61934,1,2,0:0:0:0:
236,156,62410,1,8,0:0:0:0:
256,316,62887,2,0,P|324:284|408:300,1,160,2|8,0:0|0:0,0:0:0:0:
480,156,63839,2,0,P|412:188|328:172,1,160,2|8,0:0|0:0,0:0:0:0:
184,108,64791,5,0,0:0:0:0:
108,88,65029,2,0,L|92:4,2,80,0|8|0,0:0|0:0|0:0,0:0:0:0:
124,168,65744,1,2,0:0:0:0:
256,256,66220,1,8,0:0:0:0:
404,192,66696,2,0,L|389:113,1,80,2|0,0:0|0:0,0:0:0:0:
364,36,67172,2,0,P|300:64|212:32,2,160,8|2|8,0:0|0:0|0:0,0:0:0:0:
404,192,68601,5,0,0:0:0:0:
380,268,68839,2,0,P|372:308|384:348,2,80,0|8|0,0:0|0:0|0:0,0:0:0:0:
460,252,69553,1,2,0:0:0:0:
484,92,70029,1,8,0:0:0:0:
324,84,70506,2,0,P|332:44|320:4,2,80,2|0|8,0:0|0:0|0:0,0:0:0:0:
172,128,71458,2,0,P|148:200|176:280,1,160,2|8,0:0|0:0,0:0:0:0:
304,368,72410,6,0,L|384:348,1,80,2|0,0:0|0:0,0:0:0:0:
384,268,72887,2,0,L|456:227,1,80,8|0,0:0|0:0,0:0:0:0:
504,168,73363,2,0,P|428:172|368:104,1,160,0|8,0:0|0:0,0:0:0:0:
236,32,74315,6,0,L|156:52,1,80
156,132,74791,2,0,L|83:172,1,80,8|0,0:0|0:0,0:0:0:0:
36,232,75267,2,0,P|112:228|172:296,2,160,2|8|0,0:0|0:0|0:0,0:0:0:0:
144,308,83839,5,4,0:0:0:0:
168,144,84315,2,0,P|184:112|220:88,1,80,8|0,0:0|0:0,0:0:0:0:
300,80,84791,2,0,L|140:48,1,160,2|8,0:0|0:0,0:0:0:0:
248,172,85744,2,0,L|404:203,1,160,2|8,0:0|0:0,0:0:0:0:
444,360,86696,1,2,0:0:0:0:
444,360,86934,1,0,0:0:0:0:
444,360,87172,2,0,P|388:316|308:340,1,160,8|0,0:0|0:0,0:0:0:0:
152,364,88125,5,8,0:0:0:0:
152,364,88601,1,2,0:0:0:0:
52,240,89077,2,0,L|72:160,1,80,8|0,0:0|0:0,0:0:0:0:
104,88,89553,2,0,P|168:133|242:116,1,160,2|8,0:0|0:0,0:0:0:0:
269,268,90506,2,0,P|345:250|408:296,2,160,2|8|0,0:0|0:0|0:0,0:0:0:0:
152,364,91934,5,8,0:0:0:0:
152,364,92410,1,2,0:0:0:0:
52,240,92887,2,0,L|132:260,1,80,8|0,0:0|0:0,0:0:0:0:
192,208,93363,2,0,L|357:249,1,160,2|8,0:0|0:0,0:0:0:0:
416,204,94077,1,0,0:0:0:0:
388,128,94315,2,0,L|222:86,1,160,2|8,0:0|0:0,0:0:0:0:
76,56,95267,6,0,P|61:93|66:132,1,80,2|0,0:0|0:0,0:0:0:0:
60,212,95744,2,0,P|99:205|130:181,1,80,8|0,0:0|0:0,0:0:0:0:
204,148,96220,2,0,P|178:117|142:101,2,80,2|0|8,0:0|0:0|0:0,0:0:0:0:
292,280,97172,6,0,P|364:316|440:288,1,160,0|8,0:0|0:0,0:0:0:0:
372,188,98125,1,2,0:0:0:0:
372,188,98601,1,8,0:0:0:0:
220,104,99077,6,0,P|148:68|72:96,1,160,4|2,0:0|0:0,0:0:0:0:
36,248,100029,1,0,0:0:0:0:
140,368,100506,1,0,0:0:0:0:
292,320,100982,2,0,P|316:248|288:172,1,160,0|0,0:0|0:0,0:0:0:0:
188,48,101934,2,0,P|164:120|192:196,1,160,0|0,0:0|0:0,0:0:0:0:
292,320,102887,5,2,0:0:0:0:
292,320,103363,1,2,0:0:0:0:
444,268,103839,1,0,0:0:0:0:
444,268,104077,2,0,L|456:188,1,80,0|0,0:0|0:0,0:0:0:0:
396,132,104553,2,0,P|272:132|216:40,1,240,2|0,0:0|0:0,0:0:0:0:
295,42,105506,2,0,P|230:137|116:132,1,240,2|8,0:0|0:0,0:0:0:0:
28,264,106696,6,0,P|12:300|16:340,2,80,4|0|8,0:0|0:0|0:0,0:0:0:0:
180,308,107648,1,0,0:0:0:0:
336,348,108125,1,8,0:0:0:0:
448,228,108601,2,0,L|292:192,1,160,2|8,0:0|0:0,0:0:0:0:
240,40,109553,2,0,L|396:76,1,160,2|8,0:0|0:0,0:0:0:0:
448,228,110506,6,0,P|448:272|432:312,1,80,8|8,0:0|0:0,0:0:0:0:
368,344,110982,2,0,L|288:324,1,80,8|8,0:0|0:0,0:0:0:0:
212,348,111458,2,0,L|134:328,2,80,8|8|8,0:0|0:0|0:0,0:0:0:0:
164,196,112410,2,0,L|241:215,1,80
320,193,112887,2,0,L|397:212,1,80,0|0,0:0|0:0,0:0:0:0:
476,232,113363,2,0,P|460:152|496:84,1,160,2|8,0:0|0:0,0:0:0:0:
348,24,114315,5,4,0:0:0:0:
276,56,114553,2,0,P|284:100|272:136,2,80,0|8|0,0:0|0:0|0:0,0:0:0:0:
204,92,115267,1,2,0:0:0:0:
80,192,115744,1,8,0:0:0:0:
212,280,116220,2,0,P|201:318|209:356,1,80,2|0,0:0|0:0,0:0:0:0:
284,324,116696,2,0,L|448:344,2,160,8|2|8,0:0|0:0|0:0,0:0:0:0:
304,164,118125,5,0,0:0:0:0:
316,84,118363,2,0,L|398:94,2,80,0|8|0,0:0|0:0|0:0,0:0:0:0:
240,108,119077,1,2,0:0:0:0:
240,108,119553,1,8,0:0:0:0:
80,120,120029,2,0,P|60:196|92:272,1,160,2|8,0:0|0:0,0:0:0:0:
208,376,120982,2,0,P|228:300|196:224,1,160,2|8,0:0|0:0,0:0:0:0:
236,72,121934,5,0,0:0:0:0:
316,84,122172,2,0,L|395:74,2,80,0|8|0,0:0|0:0|0:0,0:0:0:0:
268,148,122887,1,2,0:0:0:0:
324,300,123363,1,8,0:0:0:0:
172,352,123839,2,0,L|92:361,1,80,2|0,0:0|0:0,0:0:0:0:
24,316,124315,2,0,P|0:236|28:168,1,160,8|2,0:0|0:0,0:0:0:0:
132,48,125267,1,8,0:0:0:0:
292,44,125744,6,0,L|304:132,1,80,2|0,0:0|0:0,0:0:0:0:
380,108,126220,2,0,L|392:196,1,80,8|0,0:0|0:0,0:0:0:0:
472,180,126696,2,0,L|484:268,1,80,0|0,0:0|0:0,0:0:0:0:
416,308,127172,2,0,P|352:276|276:320,1,160,8|0,0:0|0:0,0:0:0:0:
144,228,128125,1,8,0:0:0:0:
96,76,128601,2,0,P|160:108|236:64,1,160,2|8,0:0|0:0,0:0:0:0:
392,44,129553,6,0,P|428:28|472:36,1,80,4|0,0:0|0:0,0:0:0:0:
440,108,130029,2,0,L|428:200,1,80,8|0,0:0|0:0,0:0:0:0:
420,268,130506,1,2,0:0:0:0:
420,268,130982,1,8,0:0:0:0:
280,344,131458,2,0,P|244:360|200:352,1,80,2|0,0:0|0:0,0:0:0:0:
232,276,131934,2,0,L|210:103,2,160,8|2|8,0:0|0:0|0:0,0:0:0:0:
88,348,133363,5,0,0:0:0:0:
40,284,133601,2,0,P|48:240|40:200,1,80,0|8,0:0|0:0,0:0:0:0:
12,132,134077,2,0,L|100:144,1,80,0|2,0:0|0:0,0:0:0:0:
248,168,134791,1,8,0:0:0:0:
408,192,135267,2,0,L|487:202,2,80,2|0|8,0:0|0:0|0:0,0:0:0:0:
420,112,135982,1,0,0:0:0:0:
436,32,136220,2,0,P|372:52|288:16,1,160,2|8,0:0|0:0,0:0:0:0:
132,40,137172,6,0,L|120:120,1,80,0|0,0:0|0:0,0:0:0:0:
40,132,137648,2,0,L|28:212,2,80,8|0|0,0:0|0:0|0:0,0:0:0:0:
192,184,138601,1,8,0:0:0:0:
348,220,139077,2,0,L|336:300,1,80,2|0,0:0|0:0,0:0:0:0:
416,316,139553,2,0,L|440:152,2,160,8|2|8,0:0|0:0|0:0,0:0:0:0:
256,340,140982,5,0,0:0:0:0:
256,340,141220,1,0,0:0:0:0:
256,340,141458,1,8,0:0:0:0:
148,220,141934,1,2,0:0:0:0:
148,220,142172,1,0,0:0:0:0:
148,220,142410,1,8,0:0:0:0:
180,64,142887,6,0,P|148:43|105:48,1,80,2|0,0:0|0:0,0:0:0:0:
56,109,143363,2,0,P|88:129|128:125,1,80,8|0,0:0|0:0,0:0:0:0:
208,140,143839,2,0,L|328:116,2,120,2|2|0,0:0|0:0|0:0,0:0:0:0:
156,200,144791,5,4,0:0:0:0:
156,200,145267,1,8,0:0:0:0:
248,332,145744,2,0,L|405:300,1,160,8|8,0:0|0:0,0:0:0:0:
492,164,146696,1,8,0:0:0:0:
492,164,146934,1,0,0:0:0:0:
492,164,147172,2,0,P|500:128|488:88,1,80,8|0,0:0|0:0,0:0:0:0:
420,132,147648,2,0,P|360:152|308:132,2,120,8|0|0,0:0|0:0|0:0,0:0:0:0:
364,72,148601,5,8,0:0:0:0:
364,72,149077,1,8,0:0:0:0:
208,44,149553,2,0,B|178:72|158:106|158:106|124:87|80:78,1,160,8|8,0:0|0:0,0:0:0:0:
40,232,150506,2,0,L|56:328,1,80,8|0,0:0|0:0,0:0:0:0:
124,348,150982,2,0,P|160:340|200:352,1,80,8|0,0:0|0:0,0:0:0:0:
280,356,151458,2,0,L|420:304,2,120,8|0|0,0:0|0:0|0:0,0:0:0:0:
240,284,152410,5,8,0:0:0:0:
240,284,152887,1,8,0:0:0:0:
216,124,153363,1,8,0:0:0:0:
352,36,153839,1,8,0:0:0:0:
480,136,154315,1,8,0:0:0:0:
480,136,154553,1,0,0:0:0:0:
480,136,154791,2,0,P|464:184|476:248,1,80,8|0,0:0|0:0,0:0:0:0:
484,292,155267,2,0,P|432:268|376:288,2,120,8|0|0,0:0|0:0|0:0,0:0:0:0:
428,352,156220,6,0,P|396:372|356:364,1,80,8|8,0:0|0:0,0:0:0:0:
300,308,156696,2,0,P|261:299|228:320,1,80,8|8,0:0|0:0,0:0:0:0:
164,368,157172,2,0,L|112:284,1,80,8|8,0:0|0:0,0:0:0:0:
80,232,157648,1,8,0:0:0:0:
192,116,158125,5,0,0:0:0:0:
256,68,158363,1,0,0:0:0:0:
320,116,158601,1,0,0:0:0:0:
296,192,158839,1,0,0:0:0:0:
216,192,159077,1,2,0:0:0:0:
216,192,159553,1,0,0:0:0:0:
180,356,160029,5,4,0:0:0:0:
108,324,160267,2,0,L|92:228,2,80,0|8|0,0:0|0:0|0:0,0:0:0:0:
180,356,160982,1,2,0:0:0:0:
276,228,161458,1,8,0:0:0:0:
256,68,161934,2,0,P|188:100|104:84,1,160,2|8,0:0|0:0,0:0:0:0:
32,228,162887,2,0,P|100:196|184:212,1,160,2|8,0:0|0:0,0:0:0:0:
328,276,163839,5,0,0:0:0:0:
404,296,164077,2,0,L|420:380,2,80,0|8|0,0:0|0:0|0:0,0:0:0:0:
388,216,164791,1,0,0:0:0:0:
256,128,165267,1,8,0:0:0:0:
108,192,165744,2,0,L|123:271,1,80,2|0,0:0|0:0,0:0:0:0:
148,348,166220,2,0,P|212:320|300:352,2,160,8|2|8,0:0|0:0|0:0,0:0:0:0:
108,192,167648,5,0,0:0:0:0:
132,116,167887,2,0,P|140:76|128:36,2,80,0|8|0,0:0|0:0|0:0,0:0:0:0:
52,132,168601,1,2,0:0:0:0:
28,292,169077,1,8,0:0:0:0:
188,300,169553,2,0,P|180:340|192:380,2,80,2|0|8,0:0|0:0|0:0,0:0:0:0:
340,256,170506,2,0,P|364:184|336:104,1,160,2|8,0:0|0:0,0:0:0:0:
192,40,171458,6,0,L|184:132,1,80,0|0,0:0|0:0,0:0:0:0:
108,144,171934,2,0,L|100:236,1,80,8|0,0:0|0:0,0:0:0:0:
100,304,172410,2,0,B|141:322|156:360|156:360|181:327|226:321,1,160,0|8,0:3|0:0,0:0:0:0:
384,324,173363,2,0,P|396:288|388:248,2,80,0|0|8,0:0|0:0|0:0,0:0:0:0:
316,280,174077,1,0,0:0:0:0:
324,200,174315,2,0,P|312:141|330:85,2,120,2|2|0,0:0|0:0|0:0,0:0:0:0:
388,248,175267,6,0,L|480:260,1,80,4|0,0:0|0:0,0:0:0:0:
468,340,175744,2,0,L|376:328,1,80,8|0,0:0|0:0,0:0:0:0:
312,312,176220,1,0,0:0:0:0:
312,312,176696,1,8,0:0:0:0:
204,196,177172,1,2,0:0:0:0:
204,196,177410,1,2,0:0:0:0:
204,196,177648,2,0,L|43:175,2,160,8|2|8,0:0|0:0|0:0,0:0:0:0:
340,112,179077,5,2,0:0:0:0:
380,44,179315,2,0,P|416:32|456:44,2,80,0|8|0,0:0|0:0|0:0,0:0:0:0:
420,112,180029,1,2,0:0:0:0:
420,112,180506,1,8,0:0:0:0:
296,212,180982,2,0,P|260:224|220:212,2,80,0|0|8,0:0|0:0|0:0,0:0:0:0:
256,144,181696,1,0,0:0:0:0:
176,132,181934,2,0,L|192:296,1,160,0|8,0:0|0:0,0:0:0:0:
336,364,182887,5,0,0:0:0:0:
396,312,183125,2,0,L|388:230,1,80,0|8,0:0|0:0,0:0:0:0:
464,204,183601,2,0,L|456:124,1,80,0|0,0:0|0:0,0:0:0:0:
328,32,184315,1,8,0:0:0:0:
208,136,184791,1,2,0:0:0:0:
208,136,185029,1,2,0:0:0:0:
207,136,185267,2,0,P|193:213|230:282,2,160,8|2|8,0:0|0:0|0:0,0:0:0:0:
312,264,186696,6,0,P|312:304|292:340,1,80,2|8,0:0|0:0,0:0:0:0:
216,360,187172,2,0,L|120:352,1,80,0|0,1:0|0:3,0:0:0:0:
124,276,187648,2,0,L|33:243,2,80,2|0|8,0:0|0:0|0:0,0:0:0:0:
232,156,188601,2,0,L|322:188,2,80,8|0|8,0:0|0:3|0:0,0:0:0:0:
204,80,189315,1,8,0:0:0:0:
144,132,189553,2,0,P|104:200|124:276,2,160,8|8|0,0:0|0:0|0:0,0:0:0:0:
