osu file format v14

[General]
AudioFilename: Good Time.mp3
AudioLeadIn: 0
PreviewTime: 60982
Countdown: 0
SampleSet: Soft
StackLeniency: 0.7
Mode: 0
LetterboxInBreaks: 1
WidescreenStoryboard: 0

[Editor]
DistanceSpacing: 1.1
BeatDivisor: 6
GridSize: 4
TimelineZoom: 1

[Metadata]
Title:Good Time (with Carly Rae Jepsen)
TitleUnicode:Good Time (with Carly Rae Jepsen)
Artist:Owl City
ArtistUnicode:Owl City
Creator:Kenezz
Version:Hard
Source:
Tags:adam young synthpop kiss the midsummer station
BeatmapID:168794
BeatmapSetID:55678

[Difficulty]
HPDrainRate:6
CircleSize:4
OverallDifficulty:6
ApproachRate:7.5
SliderMultiplier:1.8
SliderTickRate:1

[Events]
//Background and Video events
0,0,"BG.jpg",0,0
Video,0,"Bunzvlo.avi"
//Break Periods
2,76419,82062
//Storyboard Layer 0 (Background)
//Storyboard Layer 1 (Fail)
//Storyboard Layer 2 (Pass)
//Storyboard Layer 3 (Foreground)
//Storyboard Sound Samples

[TimingPoints]
15268,476.190476190476,4,2,1,80,1,0
44672,-100,4,2,1,30,0,0
45148,-100,4,2,1,80,0,0
45387,-100,4,2,1,30,0,0
45625,-100,4,2,1,80,0,0
57053,-100,4,2,1,60,0,0
58958,-100,4,2,1,80,0,0
59910,-133.333333333333,4,2,1,80,0,0
60625,-100,4,2,2,80,0,0
60982,-100,4,2,2,80,0,1
76220,-100,4,2,1,80,0,0
98006,-133.333333333333,4,2,1,80,0,0
98720,-100,4,2,1,80,0,0
110387,-100,4,2,1,60,0,0
112291,-100,4,2,1,80,0,0
113244,-133.333333333333,4,2,1,80,0,0
113958,-100,4,2,1,80,0,0
114315,-100,4,2,2,80,0,1
129434,-100,4,2,2,80,0,0
129553,-100,4,2,2,80,0,1
144791,-100,4,1,0,80,0,0
144910,-100,4,2,1,80,0,0
156220,-100,4,2,1,60,0,0
158006,-100,4,2,1,80,0,0
158958,-133.333333333333,4,2,1,80,0,0
160029,-100,4,2,2,80,0,1
175148,-100,4,2,2,80,0,0
175267,-100,4,2,2,80,0,1
186577,-100,4,2,2,60,0,1
189434,-100,4,2,2,50,0,1
190506,-100,4,2,2,80,0,0

[Colours]
Combo1 : 192,192,192
Combo2 : 0,128,0
Combo3 : 128,64,0
Combo4 : 0,64,128
SliderBorder : 255,255,255

[HitObjects]
256,56,14553,5,0,0:0:0:0:
292,148,14791,1,8,0:0:0:0:
376,96,15029,1,0,0:0:0:0:
468,148,15268,5,0,0:0:0:0:
380,196,15506,1,0,0:0:0:0:
464,248,15744,2,0,B|456:312|396:352|332:332,2,180,8|2|8,0:0|0:0|0:0,0:0:0:0:
468,148,16934,1,0,0:0:0:0:
416,64,17172,6,0,B|240:24,1,180,2|8,0:0|0:0,0:0:0:0:
144,40,17887,1,0,0:0:0:0:
180,132,18125,1,2,0:0:0:0:
180,132,18363,1,0,0:0:0:0:
280,136,18601,2,0,B|280:204|224:248|160:232,1,180,8|0,0:0|0:0,0:0:0:0:
80,172,19315,1,0,0:0:0:0:
72,272,19553,6,0,B|32:360,1,90,8|0,0:0|0:0,0:0:0:0:
132,380,20029,2,0,B|142:340|190:306|250:311|278:340,1,180,2|8,0:0|0:0,0:0:0:0:
376,372,20744,1,0,0:0:0:0:
503,237,20982,6,0,B|493:277|444:311|385:306|356:276,1,180,2|8,0:0|0:0,0:0:0:0:
268,224,21696,1,0,0:0:0:0:
336,152,21934,2,0,B|384:152|412:192,1,90,2|0,0:0|0:0,0:0:0:0:
496,136,22410,2,0,B|352:24,1,180,8|0,0:0|0:0,0:0:0:0:
256,20,23125,1,0,0:0:0:0:
168,68,23363,6,0,B|192:108|240:116,1,90,8|0,0:0|0:0,0:0:0:0:
336,152,23839,2,0,B|368:244|316:324,1,180,2|8,0:0|0:0,0:0:0:0:
216,324,24553,1,0,0:0:0:0:
144,248,24791,6,0,B|168:69,1,180,2|8,0:0|0:0,0:0:0:0:
88,12,25506,1,0,0:0:0:0:
60,108,25744,2,0,B|35:286,1,180,2|8,0:0|0:0,0:0:0:0:
88,372,26458,6,0,B|132:408|172:372|212:336|256:372,1,180,2|0,0:0|0:0,0:0:0:0:
316,292,27172,1,8,0:0:0:0:
388,224,27410,2,0,B|445:257|425:357|373:373,1,180,2|0,0:0|0:0,0:0:0:0:
316,292,28125,1,8,0:0:0:0:
248,220,28363,1,0,0:0:0:0:
184,144,28601,6,0,B|212:108|208:60,1,90,2|0,0:0|0:0,0:0:0:0:
304,59,29077,2,0,B|300:108|328:144,1,90,8|0,0:0|0:0,0:0:0:0:
404,208,29553,1,0,0:0:0:0:
436,116,29791,2,0,B|492:44,2,90,2|8|0,0:0|0:0|0:0,0:0:0:0:
500,192,30506,5,4,0:0:0:0:
476,288,30744,1,0,0:0:0:0:
404,356,30982,2,0,B|312:344,1,90,8|0,0:0|0:0,0:0:0:0:
80,336,31458,2,0,B|136:376|208:352|228:292,1,180,2|8,0:0|0:0,0:0:0:0:
136,256,32172,1,0,0:0:0:0:
96,164,32410,6,0,B|84:116|44:92,1,90,2|0,0:0|0:0,0:0:0:0:
104,12,32887,1,8,0:0:0:0:
160,88,33125,1,0,0:0:0:0:
256,72,33363,2,0,B|344:100,1,90,2|0,0:0|0:0,0:0:0:0:
436,132,33839,2,0,B|416:192|344:216|288:176,1,180,8|0,0:0|0:0,0:0:0:0:
188,184,34553,1,0,0:0:0:0:
132,264,34791,6,0,B|92:288|80:336,1,90,8|0,0:0|0:0,0:0:0:0:
180,348,35267,2,0,B|356:312,1,180,2|8,0:0|0:0,0:0:0:0:
440,364,35982,1,0,0:0:0:0:
440,264,36220,2,0,B|404:172|456:92,1,180,2|8,0:0|0:0,0:0:0:0:
400,12,36934,1,0,0:0:0:0:
340,88,37172,2,0,B|292:100|256:64,1,90,2|0,0:0|0:0,0:0:0:0:
168,20,37648,2,0,B|173:115|95:176,1,180,8|0,0:0|0:0,0:0:0:0:
0,164,38363,1,0,0:0:0:0:
40,256,38601,6,0,B|80:284|128:268,1,90,8|0,0:0|0:0,0:0:0:0:
212,220,39077,2,0,B|396:232,1,180,2|8,0:0|0:0,0:0:0:0:
484,260,39791,1,0,0:0:0:0:
412,328,40029,2,0,B|232:316,1,180,2|8,0:0|0:0,0:0:0:0:
144,364,40744,1,0,0:0:0:0:
124,268,40982,2,0,B|148:232|140:180,1,90,2|0,0:0|0:0,0:0:0:0:
232,148,41458,1,8,0:0:0:0:
280,236,41696,1,0,0:0:0:0:
372,204,41934,6,0,B|364:152|388:116,1,90,2|0,0:0|0:0,0:0:0:0:
448,40,42410,1,8,0:0:0:0:
492,128,42648,1,0,0:0:0:0:
472,224,42887,2,0,B|480:276|456:312,1,90,2|0,0:0|0:0,0:0:0:0:
364,348,43363,2,0,B|292:280|196:312,1,180,8|0,0:0|0:0,0:0:0:0:
100,336,44077,5,0,0:0:0:0:
132,240,44315,1,8,0:0:0:0:
32,244,44553,1,0,0:0:0:0:
32,244,44791,6,0,B|24:192|47:157,1,90,2|0,0:0|0:0,0:0:0:0:
140,124,45267,2,0,B|212:192|308:160,1,180,8|4,0:0|0:0,0:0:0:0:
352,72,45982,5,0,0:0:0:0:
264,28,46220,1,2,0:0:0:0:
228,120,46458,2,0,B|204:216,1,90,0|0,0:0|0:0,0:0:0:0:
164,296,46934,1,0,0:0:0:0:
232,368,47172,1,0,0:0:0:0:
332,364,47410,6,0,B|432:360|468:264,1,180,2|0,0:0|0:0,0:0:0:0:
484,168,48125,1,0,0:0:0:0:
496,68,48363,2,0,B|424:44|372:108|384:164,1,180,2|0,0:0|0:0,0:0:0:0:
316,236,49077,1,0,0:0:0:0:
222,216,49315,1,0,0:0:0:0:
164,300,49553,6,0,B|72:300,1,90,2|0,0:0|0:0,0:0:0:0:
132,216,50029,2,0,B|220:216,1,90,2|0,0:0|0:0,0:0:0:0:
292,144,50506,1,0,0:0:0:0:
276,48,50744,1,0,0:0:0:0:
196,104,50982,1,0,0:0:0:0:
100,116,51220,6,0,P|34:177|41:264,1,180,2|0,0:0|0:0,0:0:0:0:
132,216,51934,1,0,0:0:0:0:
163,317,52172,2,0,P|225:266|227:169,1,180,2|0,0:0|0:0,0:0:0:0:
308,116,52887,1,8,0:0:0:0:
388,172,53125,1,0,0:0:0:0:
464,236,53363,6,0,B|476:284|444:320,1,90,4|0,0:0|0:0,0:0:0:0:
360,268,53839,1,8,0:0:0:0:
388,172,54077,1,0,0:0:0:0:
476,124,54315,2,0,B|488:76|456:40,1,90,0|0,0:0|0:0,0:0:0:0:
360,28,54791,1,8,0:0:0:0:
308,116,55029,6,0,B|208:88|140:156,1,180,2|0,0:0|0:0,0:0:0:0:
44,152,55744,1,8,0:0:0:0:
16,56,55982,2,0,B|116:84|184:16,1,180,2|0,0:0|0:0,0:0:0:0:
256,84,56696,1,8,0:0:0:0:
216,176,56934,1,0,0:0:0:0:
228,276,57172,5,10,0:0:0:0:
228,276,57410,1,8,0:0:0:0:
300,344,57648,1,8,0:0:0:0:
300,344,57887,1,8,0:0:0:0:
396,360,58125,1,8,0:0:0:0:
396,360,58363,1,8,0:0:0:0:
464,304,58601,2,0,B|472:180,1,90,8|0,0:0|0:0,0:0:0:0:
472,124,59077,5,8,0:0:0:0:
376,40,59315,1,0,0:0:0:0:
472,124,59553,1,8,0:0:0:0:
376,40,59791,1,0,0:0:0:0:
376,128,60029,2,0,P|328:156|256:136,1,135.000005149842,2|8,0:0|0:0,0:0:0:0:
255,135,60982,5,4,0:0:0:0:
260,44,61220,2,0,B|208:36|180:80,1,90,0|8,0:0|0:0,0:0:0:0:
255,135,61696,1,0,0:0:0:0:
184,196,61934,2,0,B|229:249|313:233|337:181,1,180,2|8,0:0|0:0,0:0:0:0:
416,140,62648,1,0,0:0:0:0:
436,308,62887,6,0,B|260:352,1,180,2|8,0:0|0:0,0:0:0:0:
252,252,63601,1,0,0:0:0:0:
164,208,63839,2,0,B|114:159|32:182|12:236,1,180,2|8,0:0|0:0,0:0:0:0:
100,284,64553,1,0,0:0:0:0:
116,380,64791,6,0,B|168:376|188:328,1,90,0|0,0:0|0:0,0:0:0:0:
252,252,65267,1,8,0:0:0:0:
304,168,65506,1,0,0:0:0:0:
340,76,65744,2,0,B|252:60,1,90,2|0,0:0|0:0,0:0:0:0:
204,144,66220,2,0,B|156:160|120:132,1,90,8|0,0:0|0:0,0:0:0:0:
64,20,66696,6,0,B|152:36,1,90,2|0,0:0|0:0,0:0:0:0:
252,60,67172,1,8,0:0:0:0:
348,76,67410,1,0,0:0:0:0:
440,28,67648,2,0,P|448:106|379:176,1,180,2|8,0:0|0:0,0:0:0:0:
288,192,68363,1,0,0:0:0:0:
348,268,68601,5,0,0:0:0:0:
436,312,68839,2,0,B|416:360|368:360,1,90,0|8,0:0|0:0,0:0:0:0:
268,356,69315,1,0,0:0:0:0:
208,280,69553,2,0,B|204:100,1,180,2|8,0:0|0:0,0:0:0:0:
136,28,70267,1,0,0:0:0:0:
72,104,70506,6,0,B|76:284,1,180,2|8,0:0|0:0,0:0:0:0:
144,356,71220,1,0,0:0:0:0:
208,280,71458,2,0,B|216:228|264:216,1,90,2|0,0:0|0:0,0:0:0:0:
328,292,71934,2,0,B|412:264,1,90,8|0,0:0|0:0,0:0:0:0:
460,176,72410,5,2,0:0:0:0:
360,172,72648,1,0,0:0:0:0:
316,84,72887,1,8,0:0:0:0:
368,0,73125,1,0,0:0:0:0:
468,8,73363,1,2,0:0:0:0:
512,88,73601,1,0,0:0:0:0:
460,176,73839,2,0,B|480:272|416:344,1,180,8|0,0:0|0:0,0:0:0:0:
332,296,74553,5,0,0:0:0:0:
256,356,74791,2,0,B|168:340,1,90,8|0,0:0|0:0,0:0:0:0:
84,288,75267,2,0,B|64:192|128:120,2,180,2|8|0,0:0|0:0|0:0,0:0:0:0:
160,272,82887,5,2,0:0:0:0:
104,356,83125,2,0,B|140:388|188:368,1,90,0|8,0:0|0:0,0:0:0:0:
260,300,83601,2,0,B|352:296,1,90,0|4,0:0|0:0,0:0:0:0:
448,292,84077,5,0,0:0:0:0:
488,200,84315,2,0,B|398:203,1,90,8|0,0:0|0:0,0:0:0:0:
308,164,84791,2,0,B|260:203|178:176|160:116,1,180,2|8,0:0|0:0,0:0:0:0:
255,79,85506,1,0,0:0:0:0:
160,116,85744,2,0,B|145:54|63:26|15:66,1,180,2|8,0:0|0:0,0:0:0:0:
72,148,86458,1,0,0:0:0:0:
4,220,86696,6,0,B|24:308,1,90,2|0,0:0|0:0,0:0:0:0:
108,356,87172,2,0,B|192:312|280:364,1,180,8|0,0:0|0:0,0:0:0:0:
380,364,87887,1,0,0:0:0:0:
476,332,88125,2,0,B|458:287|413:270,1,90,8|0,0:0|0:0,0:0:0:0:
316,256,88601,6,0,B|223:276|151:203,1,180,2|8,0:0|0:0,0:0:0:0:
72,148,89315,1,0,0:0:0:0:
60,48,89553,2,0,B|160:8,1,90,2|0,0:0|0:0,0:0:0:0:
244,24,90029,2,0,B|252:68|298:93,1,90,8|0,0:0|0:0,0:0:0:0:
364,168,90506,5,2,0:0:0:0:
316,256,90744,1,2,0:0:0:0:
256,336,90982,2,0,B|64:320,1,180,8|0,0:0|0:0,0:0:0:0:
8,248,91696,1,0,0:0:0:0:
68,168,91934,6,0,B|247:182,1,180,8|2,0:0|0:0,0:0:0:0:
288,92,92648,1,0,0:0:0:0:
364,28,92887,2,0,B|396:64|384:112,1,90,8|0,0:0|0:0,0:0:0:0:
340,200,93363,2,0,B|360:288|448:336,1,180,2|8,0:0|0:0,0:0:0:0:
504,256,94077,1,0,0:0:0:0:
472,164,94315,2,0,B|452:76|364:28,1,180,2|8,0:0|0:0,0:0:0:0:
272,60,95029,1,0,0:0:0:0:
176,36,95267,6,0,B|125:37|99:80,1,90,2|0,0:0|0:0,0:0:0:0:
13,129,95744,2,0,B|40:171|88:173,1,90,8|0,0:0|0:0,0:0:0:0:
170,229,96220,2,0,B|194:185|172:143,1,90,2|0,0:0|0:0,0:0:0:0:
272,152,96696,2,0,B|292:244|228:320,1,180,8|0,0:0|0:0,0:0:0:0:
304,380,97410,1,0,0:0:0:0:
304,380,97648,1,8,0:0:0:0:
372,308,97887,1,0,0:0:0:0:
372,308,98125,6,0,B|376:236|434:194,1,135.000005149842,2|8,0:0|0:0,0:0:0:0:
256,12,99077,6,0,B|204:84,1,90,4|0,0:0|0:0,0:0:0:0:
120,32,99553,1,2,0:0:0:0:
116,132,99791,2,0,B|104:180|128:220,1,90
56,288,100267,1,0,0:0:0:0:
24,196,100506,1,0,0:0:0:0:
116,132,100744,6,0,B|204:180|284:120,1,180,2|0,0:0|0:0,0:0:0:0:
376,156,101458,1,0,0:0:0:0:
484,152,101696,2,0,B|489:87|429:39|364:56,1,180,2|0,0:0|0:0,0:0:0:0:
272,20,102410,1,0,0:0:0:0:
200,84,102648,6,0,B|168:172,1,90,0|2,0:0|0:0,0:0:0:0:
240,264,103125,2,0,B|271:180,1,90,0|2,0:0|0:0,0:0:0:0:
336,276,103601,2,0,B|304:364,1,90,0|0,0:0|0:0,0:0:0:0:
208,352,104077,1,0,0:0:0:0:
132,288,104315,1,0,0:0:0:0:
92,380,104553,6,0,B|30:367|0:290|36:236,1,180,2|0,0:0|0:0,0:0:0:0:
40,140,105267,1,0,0:0:0:0:
88,56,105506,2,0,B|264:20,1,180,2|0,0:0|0:0,0:0:0:0:
364,12,106220,1,8,0:0:0:0:
424,88,106458,1,0,0:0:0:0:
424,88,106696,6,0,B|420:140|448:172,1,90,4|0,0:0|0:0,0:0:0:0:
484,264,107172,1,8,0:0:0:0:
436,352,107410,1,0,0:0:0:0:
372,276,107648,2,0,B|376:224|348:192,1,90,0|0,0:0|0:0,0:0:0:0:
276,260,108125,1,8,0:0:0:0:
200,320,108363,6,0,B|76:352,1,90,2|0,0:0|0:0,0:0:0:0:
20,308,108839,1,0,0:0:0:0:
76,228,109077,2,0,B|200:196,1,90,8|0,0:0|0:0,0:0:0:0:
220,124,109553,1,2,0:0:0:0:
128,92,109791,2,0,B|4:124,2,90,0|8|0,0:0|0:0|0:0,0:0:0:0:
204,28,110506,5,8,0:0:0:0:
300,52,110744,1,8,0:0:0:0:
312,152,110982,1,8,0:0:0:0:
240,220,111220,1,8,0:0:0:0:
148,188,111458,1,8,0:0:0:0:
128,92,111696,1,8,0:0:0:0:
52,156,111934,2,0,B|36:200|52:244,1,90,8|8,0:0|0:0,0:0:0:0:
76,340,112410,5,8,0:0:0:0:
200,316,112648,1,0,0:0:0:0:
76,340,112887,1,8,0:0:0:0:
200,316,113125,1,0,0:0:0:0:
288,352,113363,2,0,B|316:392|376:392|408:368,1,135.000005149842,2|8,0:0|0:0,0:0:0:0:
408,367,114315,6,0,B|456:275,1,90,4|0,0:0|0:0,0:0:0:0:
488,196,114791,1,8,0:0:0:0:
440,108,115029,1,0,0:0:0:0:
404,16,115267,2,0,B|360:28|344:76,1,90,2|0,0:0|0:0,0:0:0:0:
260,28,115744,2,0,B|243:77|199:89,1,90,8|0,0:0|0:0,0:0:0:0:
224,184,116220,6,0,B|280:192|348:136|344:76,1,180,2|8,0:0|0:0,0:0:0:0:
440,108,116934,1,0,0:0:0:0:
416,200,117172,2,0,B|256:284,1,180,2|8,0:0|0:0,0:0:0:0:
192,360,117887,1,0,0:0:0:0:
96,332,118125,1,0,0:0:0:0:
24,264,118363,6,0,B|-4:176,1,90,0|8,0:0|0:0,0:0:0:0:
24,84,118839,1,0,0:0:0:0:
88,8,119077,2,0,B|140:36|140:132|88:160,1,180,2|8,0:0|0:0,0:0:0:0:
140,244,119791,1,0,0:0:0:0:
232,276,120029,6,0,B|240:368,1,90,2|0,0:0|0:0,0:0:0:0:
340,376,120506,2,0,B|332:286,1,90,8|0,0:0|0:0,0:0:0:0:
412,228,120982,2,0,B|385:175|440:96|499:103,2,180,2|8|0,0:0|0:0|0:0,0:0:0:0:
508,204,122172,5,0,0:0:0:0:
499,103,122410,1,8,0:0:0:0:
440,28,122648,1,0,0:0:0:0:
340,24,122887,2,0,B|296:40|252:28,1,90,2|0,0:0|0:0,0:0:0:0:
216,120,123363,2,0,B|260:104|304:116,1,90,8|0,0:0|0:0,0:0:0:0:
396,152,123839,6,0,B|464:208|448:316,1,180,2|8,0:0|0:0,0:0:0:0:
352,340,124553,1,0,0:0:0:0:
268,284,124791,2,0,B|200:228|216:120,1,180,2|8,0:0|0:0,0:0:0:0:
144,52,125506,1,0,0:0:0:0:
48,72,125744,5,2,0:0:0:0:
48,72,125982,1,0,0:0:0:0:
104,156,126220,1,8,0:0:0:0:
104,156,126458,1,0,0:0:0:0:
20,208,126696,1,2,0:0:0:0:
20,208,126934,1,0,0:0:0:0:
60,300,127172,6,0,B|224:372,1,180,8|0,0:0|0:0,0:0:0:0:
228,272,127887,1,0,0:0:0:0:
316,320,128125,1,8,0:0:0:0:
408,288,128363,1,0,0:0:0:0:
364,200,128601,2,0,B|396:140|492:160|496:232,2,180,2|8|4,0:0|0:0|0:0,0:0:0:0:
268,184,129791,6,0,B|248:140|200:128,1,90,0|8,0:0|0:0,0:0:0:0:
168,36,130267,1,0,0:0:0:0:
268,28,130506,2,0,B|288:72|336:84,1,90,2|0,0:0|0:0,0:0:0:0:
436,232,130982,2,0,B|416:188|368:176,1,90,8|0,0:0|0:0,0:0:0:0:
268,184,131458,6,0,B|168:336,1,180,2|8,0:0|0:0,0:0:0:0:
72,356,132172,1,0,0:0:0:0:
20,272,132410,2,0,B|120:120,1,180,2|8,0:0|0:0,0:0:0:0:
168,36,133125,1,0,0:0:0:0:
268,24,133363,1,0,0:0:0:0:
364,56,133601,6,0,B|352:104|304:116,1,90,0|8,0:0|0:0,0:0:0:0:
260,204,134077,1,0,0:0:0:0:
368,204,134315,2,0,B|308:288|376:368,1,180,2|8,0:0|0:0,0:0:0:0:
432,288,135029,1,0,0:0:0:0:
368,204,135267,6,0,B|416:124,1,90,2|0,0:0|0:0,0:0:0:0:
370,10,135744,2,0,B|324:88,1,90,8|0,0:0|0:0,0:0:0:0:
260,160,136220,2,0,B|224:212|132:196|112:140,1,180,2|8,0:0|0:0,0:0:0:0:
56,56,136934,1,0,0:0:0:0:
8,144,137172,1,0,0:0:0:0:
56,228,137410,6,0,B|104:248|120:288,1,90,0|8,0:0|0:0,0:0:0:0:
164,376,137887,1,0,0:0:0:0:
232,304,138125,1,2,0:0:0:0:
324,340,138363,2,0,B|372:320|388:280,2,90,0|8|0,0:0|0:0|0:0,0:0:0:0:
308,244,139077,2,0,B|324:188|420:168|456:220,1,180,2|8,0:0|0:0,0:0:0:0:
204,140,140029,2,0,B|188:196|92:216|56:164,1,180,2|8,0:0|0:0,0:0:0:0:
32,68,140744,1,0,0:0:0:0:
124,104,140982,6,0,B|140:64|188:44,1,90
284,16,141458,1,8,0:0:0:0:
368,68,141696,1,0,0:0:0:0:
396,164,141934,2,0,B|346:175|310:147,1,90,2|0,0:0|0:0,0:0:0:0:
204,140,142410,2,0,B|224:324,1,180,8|2,0:0|0:0,0:0:0:0:
304,380,143125,1,0,0:0:0:0:
344,288,143363,1,8,0:0:0:0:
440,316,143601,1,0,0:0:0:0:
480,224,143839,2,0,B|520:160|488:96,2,135,2|2|0,0:0|0:0|0:0,0:0:0:0:
408,156,144791,5,4,0:0:0:0:
376,64,145029,1,0,0:0:0:0:
284,100,145267,2,0,B|204:60,1,90,8|0,0:0|0:0,0:0:0:0:
112,96,145744,1,8,0:0:0:0:
400,288,146220,1,8,0:0:0:0:
204,356,146696,6,0,B|156:340|116:364,1,90,8|0,0:0|0:0,0:0:0:0:
20,336,147172,1,8,0:0:0:0:
80,260,147410,1,0,0:0:0:0:
8,192,147648,2,0,B|19:148|81:133|118:167,2,135,8|0|0,0:0|0:0|0:0,0:0:0:0:
80,260,148601,6,0,B|128:276|168:252,1,90,8|0,0:0|0:0,0:0:0:0:
304,160,149077,2,0,B|256:144|216:168,1,90,8|0,0:0|0:0,0:0:0:0:
120,168,149553,1,8,0:0:0:0:
392,216,150029,1,8,0:0:0:0:
308,28,150506,6,0,B|356:44|396:20,1,90,8|0,0:0|0:0,0:0:0:0:
492,48,150982,1,8,0:0:0:0:
432,124,151220,1,0,0:0:0:0:
504,192,151458,2,0,B|493:236|431:251|394:217,2,135,8|0|0,0:0|0:0|0:0,0:0:0:0:
432,124,152410,6,0,B|372:112|340:152,1,90,8|0,0:0|0:0,0:0:0:0:
264,88,152887,1,8,0:0:0:0:
188,152,153125,1,0,0:0:0:0:
92,168,153363,2,0,B|88:236|152:280|216:248,1,180,8|8,0:0|0:0,0:0:0:0:
48,352,154315,6,0,B|40:304|0:280,1,90,8|0,0:0|0:0,0:0:0:0:
0,188,154791,1,8,0:0:0:0:
32,92,155029,1,0,0:0:0:0:
123,59,155267,2,0,B|156:100|136:160|92:168,2,135,8|0|0,0:0|0:0|0:0,0:0:0:0:
220,32,156220,5,8,0:0:0:0:
232,132,156458,1,8,0:0:0:0:
328,152,156696,1,8,0:0:0:0:
388,72,156934,1,8,0:0:0:0:
480,108,157172,1,8,0:0:0:0:
480,208,157410,1,8,0:0:0:0:
380,240,157648,2,0,B|340:320,1,90,8|8,0:0|0:0,0:0:0:0:
248,360,158125,5,8,0:0:0:0:
144,288,158363,1,0,0:0:0:0:
248,360,158601,1,8,0:0:0:0:
144,288,158839,1,0,0:0:0:0:
44,252,159077,2,0,B|70:185|24:125,1,135.000005149842,2|0,0:0|0:0,0:0:0:0:
24,124,160029,6,0,B|70:144|108:113,1,90,4|0,0:0|0:0,0:0:0:0:
188,56,160506,1,8,0:0:0:0:
284,32,160744,1,0,0:0:0:0:
372,80,160982,2,0,B|404:164,1,90,2|0,0:0|0:0,0:0:0:0:
368,320,161458,2,0,B|336:236,1,90,8|0,0:0|0:0,0:0:0:0:
181,217,161934,6,0,B|270:262|276:360,1,180,2|8,0:0|0:0,0:0:0:0:
368,320,162648,1,0,0:0:0:0:
464,320,162887,2,0,B|457:247|390:210|334:235,1,180,2|8,0:0|0:0,0:0:0:0:
296,144,163601,1,0,0:0:0:0:
236,64,163839,1,0,0:0:0:0:
140,80,164077,6,0,B|91:82|63:37,2,90,0|8|0,0:0|0:0|0:0,0:0:0:0:
88,164,164791,2,0,B|52:252,1,90,2|0,0:0|0:0,0:0:0:0:
109,371,165267,2,0,B|144:288,1,90,8|0,0:0|0:0,0:0:0:0:
240,316,165744,5,2,0:0:0:0:
336,344,165982,1,0,0:0:0:0:
404,272,166220,1,8,0:0:0:0:
380,176,166458,1,0,0:0:0:0:
284,144,166696,2,0,B|256:88|292:16|368:28,2,180,2|8|0,0:0|0:0|0:0,0:0:0:0:
220,224,167887,6,0,B|200:272|156:280,1,90,0|8,0:0|0:0,0:0:0:0:
60,312,168363,1,0,0:0:0:0:
20,220,168601,2,0,B|40:172|84:164,1,90,2|0,0:0|0:0,0:0:0:0:
108,68,169077,1,8,0:0:0:0:
200,108,169315,1,0,0:0:0:0:
284,56,169553,6,0,P|316:120|416:120,1,180,2|8,0:0|0:0,0:0:0:0:
436,216,170267,1,0,0:0:0:0:
372,292,170506,2,0,P|340:228|240:228,1,180,2|8,0:0|0:0,0:0:0:0:
276,320,171220,1,0,0:0:0:0:
180,352,171458,5,2,0:0:0:0:
120,264,171696,1,0,0:0:0:0:
40,320,171934,2,0,L|4:236,1,90,8|0,0:0|0:0,0:0:0:0:
24,73,172410,2,0,L|60:156,1,90,2|0,0:0|0:3,0:3:0:0:
156,172,172887,2,0,P|232:208|296:140,1,180,8|0,0:0|0:0,0:0:0:0:
360,76,173601,2,0,P|384:124|356:192,1,90,0|8,0:0|0:0,0:0:0:0:
372,256,174077,1,0,0:0:0:0:
429,338,174315,2,0,P|368:360|308:332,2,135,2|2|0,0:0|0:0|0:0,0:0:0:0:
372,256,175267,5,4,0:0:0:0:
308,332,175506,2,0,L|212:368,1,90,0|8,0:0|0:0,0:0:0:0:
124,352,175982,1,0,0:0:0:0:
40,300,176220,2,0,P|64:252|36:184,1,90,2|0,0:0|0:0,0:0:0:0:
139,57,176696,2,0,P|115:105|120:140,1,90,8|0,0:0|0:3,0:0:0:0:
216,112,177172,5,2,0:0:0:0:
280,36,177410,1,2,0:0:0:0:
380,36,177648,1,8,0:0:0:0:
432,120,177887,1,0,0:0:0:0:
388,208,178125,2,0,P|314:253|252:191,2,180,2|8|2,0:0|0:0|0:0,0:0:0:0:
452,284,179315,6,0,L|516:364,2,90,0|8|0,0:0|0:0|0:0,0:0:0:0:
388,208,180029,2,0,P|327:153|253:199,1,180,2|8,0:0|0:0,0:0:0:0:
204,284,180744,1,0,0:0:0:0:
148,204,180982,6,0,L|56:164,2,90,2|0|8,0:0|0:0|0:0,0:0:0:0:
204,284,181696,1,0,0:0:0:0:
300,264,181934,2,0,L|392:304,2,90,2|0|8,0:0|0:0|0:0,0:0:0:0:
272,360,182648,1,0,0:0:0:0:
204,284,182887,6,0,P|168:316|100:296,1,90
132,216,183363,1,8,0:0:0:0:
36,196,183601,1,0,0:0:0:0:
24,96,183839,2,0,P|64:92|108:136,1,90,2|0,0:0|0:0,0:0:0:0:
275,174,184315,2,0,P|233:178|196:152,1,90,8|0,0:0|0:3,0:0:0:0:
260,76,184791,5,2,0:0:0:0:
352,112,185029,1,2,0:0:0:0:
372,208,185267,1,8,0:0:0:0:
296,272,185506,1,0,0:0:0:0:
200,244,185744,2,0,P|148:184|52:208,2,180,2|8|2,0:0|0:0|0:0,0:0:0:0:
224,340,186934,5,8,0:0:0:0:
296,272,187172,1,0,1:0:0:0:
384,320,187410,1,0,0:3:0:0:
400,224,187648,1,2,0:0:0:0:
480,280,187887,1,0,0:0:0:0:
492,180,188125,2,0,P|502:136|490:93,1,90,8|0,0:0|0:0,0:0:0:0:
288,44,188601,5,8,0:0:0:0:
216,112,188839,1,0,0:3:0:0:
128,64,189077,1,8,0:0:0:0:
112,160,189315,1,8,0:0:0:0:
24,116,189553,2,0,P|12:160|24:204,1,90,8|0,0:0|0:0,0:0:0:0:
106,342,190029,2,0,P|118:299|108:256,1,90,8|0,0:0|0:0,0:0:0:0:
112,160,190506,1,0,0:0:0:0:
