osu file format v14

[General]
AudioFilename: Good Time.mp3
AudioLeadIn: 0
PreviewTime: 60982
Countdown: 0
SampleSet: Soft
StackLeniency: 0.7
Mode: 0
LetterboxInBreaks: 1
WidescreenStoryboard: 0

[Editor]
DistanceSpacing: 1
BeatDivisor: 4
GridSize: 4
TimelineZoom: 1

[Metadata]
Title:Good Time (with Carly Rae Jepsen)
TitleUnicode:Good Time (with Carly Rae Jepsen)
Artist:Owl City
ArtistUnicode:Owl City
Creator:Kenezz
Version:Easy
Source:
Tags:adam young synthpop kiss the midsummer station
BeatmapID:168801
BeatmapSetID:55678

[Difficulty]
HPDrainRate:2
CircleSize:3
OverallDifficulty:2
ApproachRate:2
SliderMultiplier:1.4
SliderTickRate:1

[Events]
//Background and Video events
0,0,"BG.jpg",0,0
Video,0,"Bunzvlo.avi"
//Break Periods
2,76419,82279
//Storyboard Layer 0 (Background)
//Storyboard Layer 1 (Fail)
//Storyboard Layer 2 (Pass)
//Storyboard Layer 3 (Foreground)
//Storyboard Sound Samples

[TimingPoints]
15268,476.190476190476,4,2,1,80,1,0
44672,-100,4,2,1,30,0,0
45148,-100,4,2,1,80,0,0
45625,-100,4,2,1,80,0,0
57053,-100,4,2,1,60,0,0
58958,-100,4,2,1,80,0,0
59910,-133.333333333333,4,2,1,80,0,0
60982,-100,4,2,2,80,0,1
76220,-100,4,2,1,80,0,0
98006,-133.333333333333,4,2,1,80,0,0
98720,-100,4,2,1,80,0,0
110387,-100,4,2,1,60,0,0
112291,-100,4,2,1,80,0,0
114315,-100,4,2,2,80,0,1
129434,-100,4,2,2,80,0,0
129553,-100,4,2,2,80,0,1
144791,-100,4,1,0,80,0,0
144910,-100,4,2,1,80,0,0
156220,-100,4,2,1,60,0,0
158006,-100,4,2,1,80,0,0
160029,-100,4,2,2,80,0,1
175148,-100,4,2,2,80,0,0
175267,-100,4,2,2,80,0,1
186577,-100,4,2,2,60,0,1
189434,-100,4,2,2,50,0,1
190506,-100,4,2,2,80,0,0

[Colours]
Combo1 : 192,192,192
Combo2 : 0,128,0
Combo3 : 128,64,0
Combo4 : 0,64,128
SliderBorder : 255,255,255

[HitObjects]
44,40,14791,5,8,0:0:0:0:
184,20,15268,1,0,0:0:0:0:
124,148,15744,6,0,B|100:224|28:244,1,140,8|2,0:0|0:0,0:0:0:0:
48,384,16696,1,8,0:0:0:0:
184,344,17172,2,0,B|208:268|280:248,1,140,2|8,0:0|0:0,0:0:0:0:
388,160,18125,2,0,B|252:124,1,140,2|8,0:0|0:0,0:0:0:0:
156,20,19077,1,0,0:0:0:0:
296,12,19553,6,0,B|432:48,1,140,8|2,0:0|0:0,0:0:0:0:
500,172,20506,1,8,0:0:0:0:
456,304,20982,1,2,0:0:0:0:
324,348,21458,2,0,B|280:376|220:348|212:304,2,140,8|2|8,0:0|0:0|0:0,0:0:0:0:
308,208,22887,1,0,0:0:0:0:
172,180,23363,6,0,L|28:208,1,140,8|2,0:0|0:0,0:0:0:0:
24,68,24315,1,8,0:0:0:0:
164,56,24791,2,0,L|308:28,1,140,2|8,0:0|0:0,0:0:0:0:
440,20,25744,1,2,0:0:0:0:
492,148,26220,1,8,0:0:0:0:
444,280,26696,6,0,P|332:356|216:284,1,280,0|0,0:0|0:0,0:0:0:0:
88,344,28125,1,8,0:0:0:0:
20,224,28601,2,0,L|28:80,1,140,2|8,0:0|0:0,0:0:0:0:
152,20,29553,2,0,L|136:304,1,280,0|4,0:0|0:0,0:0:0:0:
276,324,30982,6,0,P|323:361|396:339,1,140,8|2,0:0|0:0,0:0:0:0:
499,247,31934,2,0,P|451:209|378:231,1,140,8|2,0:0|0:0,0:0:0:0:
276,324,32887,1,8,0:0:0:0:
276,324,33363,2,0,P|138:288|156:168,1,280,2|0,0:0|0:0,0:0:0:0:
236,60,34791,6,0,P|188:22|117:43,1,140,8|2,0:0|0:0,0:0:0:0:
13,137,35744,2,0,P|60:174|133:152,1,140,8|2,0:0|0:0,0:0:0:0:
236,60,36696,1,8,0:0:0:0:
236,60,37172,2,0,P|373:95|356:216,1,280,0|0,0:0|0:0,0:0:0:0:
288,328,38601,6,0,L|144:336,1,140,8|2,0:0|0:0,0:0:0:0:
20,280,39553,1,8,0:0:0:0:
36,140,40029,2,0,P|92:184|156:172,1,140,2|8,0:0|0:0,0:0:0:0:
248,68,40982,2,0,P|192:24|128:36,1,140,0|8,0:0|0:0,0:0:0:0:
156,172,41934,6,0,B|245:184|299:255|253:373|148:348|106:250|213:183|294:225|321:310,1,420,2|8,0:0|0:0,0:0:0:0:
456,356,43839,1,0,0:0:0:0:
504,224,44315,1,8,0:0:0:0:
444,96,44791,2,0,P|376:100|324:52,1,140,0|8,0:0|0:0,0:0:0:0:
188,36,45744,6,0,L|32:20,1,140,4|2,0:0|0:0,0:0:0:0:
8,156,46696,1,0,0:0:0:0:
96,264,47172,1,0,0:0:0:0:
144,132,47648,2,0,P|261:87|313:206,1,280,0|0,0:0|0:0,0:0:0:0:
328,344,49077,1,0,0:0:0:0:
464,308,49553,6,0,L|480:152,1,140,2|2,0:0|0:0,0:0:0:0:
380,68,50506,1,0,0:0:0:0:
380,68,50982,1,0,0:0:0:0:
360,208,51458,2,0,P|242:252|190:133,1,280
68,60,52887,1,8,0:0:0:0:
44,196,53363,6,0,P|80:248|52:316,1,140,4|8,0:0|0:0,0:0:0:0:
208,324,54315,2,0,L|316:236,1,140,0|8,0:0|0:0,0:0:0:0:
468,188,55267,2,0,P|432:136|460:68,1,140,0|8,0:0|0:0,0:0:0:0:
304,60,56220,2,0,L|196:148,1,140,0|8,0:0|0:0,0:0:0:0:
48,196,57172,5,10,0:0:0:0:
84,344,57648,1,8,0:0:0:0:
224,284,58125,1,8,0:0:0:0:
84,344,58601,1,8,0:0:0:0:
48,196,59077,2,0,P|76:136|52:68,1,140,0|0,0:0|0:0,0:0:0:0:
160,28,60029,2,0,L|264:40,1,105.000004005432,2|8,0:0|0:0,0:0:0:0:
352,152,60982,6,0,L|208:136,1,140,4|8,0:0|0:0,0:0:0:0:
88,196,61934,1,2,0:0:0:0:
104,336,62410,1,8,0:0:0:0:
244,336,62887,2,0,P|300:380|368:376,2,140,2|8|2,0:0|0:0|0:0,0:0:0:0:
344,240,64315,1,8,0:0:0:0:
322,103,64791,6,0,P|388:100|444:144,1,140,0|8,0:0|0:0,0:0:0:0:
476,280,65744,1,2,0:0:0:0:
344,240,66220,1,8,0:0:0:0:
444,144,66696,2,0,L|352:36,1,140,2|8,0:0|0:0,0:0:0:0:
212,40,67648,2,0,P|152:24|108:80,1,140,2|8,0:0|0:0,0:0:0:0:
120,220,68601,6,0,P|76:274|16:258,2,140,0|8|2,0:0|0:0|0:0,0:0:0:0:
256,192,70029,1,8,0:0:0:0:
392,164,70506,2,0,P|435:109|495:125,2,140,2|8|2,0:0|0:0|0:0,0:0:0:0:
488,268,71934,1,8,0:0:0:0:
392,372,72410,6,0,L|252:372,1,140,2|8,0:0|0:0,0:0:0:0:
304,244,73363,2,0,L|164:244,1,140,0|8,0:0|0:0,0:0:0:0:
80,356,74315,1,0,0:0:0:0:
0,240,74791,1,8,0:0:0:0:
84,128,75267,2,0,P|136:36|285:77,1,280,2|0,0:0|0:0,0:0:0:0:
8,148,83839,5,4,0:0:0:0:
72,24,84315,2,0,P|128:44|144:116,1,140,8|2,0:0|0:0,0:0:0:0:
100,248,85267,1,8,0:0:0:0:
184,360,85744,1,2,0:0:0:0:
320,320,86220,2,0,P|372:376|380:256,1,280,8|8,0:0|0:0,0:0:0:0:
256,192,87648,1,0,0:0:0:0:
292,56,88125,6,0,L|428:16,1,140,8|2,0:0|0:0,0:0:0:0:
504,132,89077,1,8,0:0:0:0:
476,268,89553,1,2,0:0:0:0:
352,336,90029,2,0,L|216:376,2,140,8|2|8,0:0|0:0|0:0,0:0:0:0:
332,196,91458,5,0,0:0:0:0:
256,80,91934,2,0,P|192:64|136:120,1,140,8|2,0:0|0:0,0:0:0:0:
28,192,92887,1,8,0:0:0:0:
4,332,93363,2,0,P|68:348|124:292,1,140,2|8,0:0|0:0,0:0:0:0:
220,204,94315,1,2,0:0:0:0:
260,336,94791,1,8,0:0:0:0:
400,340,95267,6,0,P|516:224|380:40,1,420,2|8,0:0|0:0,0:0:0:0:
252,32,97172,2,0,L|112:44,1,140,0|8,0:0|0:0,0:0:0:0:
120,160,98125,2,0,L|16:168,1,105.000004005432,2|8,0:0|0:0,0:0:0:0:
48,292,99077,6,0,P|124:340|300:284,1,280,4|0,0:0|0:0,0:0:0:0:
424,232,100506,1,0,0:0:0:0:
464,92,100982,2,0,P|388:44|212:100,1,280,0|0,0:0|0:0,0:0:0:0:
88,152,102410,1,0,0:0:0:0:
184,256,102887,6,0,P|240:304|304:276,1,140,2|2,0:0|0:0,0:0:0:0:
424,232,103839,1,0,0:0:0:0:
464,96,104315,1,0,0:0:0:0:
324,120,104791,2,0,L|52:44,1,280,0|0,0:0|0:0,0:0:0:0:
8,176,106220,1,8,0:0:0:0:
68,304,106696,6,0,P|120:268|192:296,1,140,4|8,0:0|0:0,0:0:0:0:
328,312,107648,2,0,P|395:335|447:299,1,140,0|8,0:0|0:0,0:0:0:0:
468,160,108601,2,0,P|360:60|384:228,1,420,2|8,0:0|0:0,0:0:0:0:
256,288,110506,6,0,P|188:264|136:300,1,140,8|8,0:0|0:0,0:0:0:0:
132,160,111458,2,0,P|80:196|12:172,1,140,8|8,0:0|0:0,0:0:0:0:
68,44,112410,1,0,0:0:0:0:
208,28,112887,1,0,0:0:0:0:
280,148,113363,2,0,L|256:288,1,140,2|8,0:0|0:0,0:0:0:0:
388,236,114315,6,0,L|412:96,2,140,4|8|2,0:0|0:0|0:0,0:0:0:0:
256,192,115744,1,8,0:0:0:0:
124,148,116220,2,0,L|100:288,2,140,2|8|2,0:0|0:0|0:0,0:0:0:0:
228,52,117648,1,8,0:0:0:0:
360,96,118125,6,0,P|384:152|472:168,1,140,0|8,0:0|0:0,0:0:0:0:
508,304,119077,1,2,0:0:0:0:
380,356,119553,1,8,0:0:0:0:
256,288,120029,2,0,P|232:232|144:216,1,140,2|8,0:0|0:0,0:0:0:0:
48,128,120982,2,0,P|32:244|184:288,1,280,2|0,0:0|0:0,0:0:0:0:
280,376,122410,5,8,0:0:0:0:
380,280,122887,2,0,P|419:229|490:226,1,140,2|8,0:0|0:0,0:0:0:0:
455,90,123839,2,0,P|391:97|339:49,1,140,2|8,0:0|0:0,0:0:0:0:
228,132,124791,2,0,P|276:184|268:248,1,140,2|8,0:0|0:0,0:0:0:0:
180,360,125744,5,2,0:0:0:0:
48,312,126220,1,8,0:0:0:0:
160,228,126696,1,0,0:0:0:0:
36,160,127172,1,8,0:0:0:0:
156,88,127648,2,0,P|221:99|281:62,1,140,0|8,0:0|0:0,0:0:0:0:
284,204,128601,2,0,P|212:192|158:229,1,140,2|8,0:0|0:0,0:0:0:0:
256,332,129553,5,4,0:0:0:0:
388,284,130029,2,0,P|420:230|398:160,1,140,8|2,0:0|0:0,0:0:0:0:
256,192,130982,1,8,0:0:0:0:
112,222,131458,2,0,P|90:158|123:100,2,140,2|8|2,0:0|0:0|0:0,0:0:0:0:
252,264,132887,1,8,0:0:0:0:
336,156,133363,6,0,L|476:168,1,140,0|8,0:0|0:0,0:0:0:0:
504,304,134315,1,2,0:0:0:0:
380,368,134791,1,8,0:0:0:0:
280,272,135267,2,0,B|196:204|92:316|0:248,1,280,2|2,0:0|0:0,0:0:0:0:
4,108,136696,1,8,0:0:0:0:
144,120,137172,6,0,P|217:137|266:101,1,140,0|8,0:0|0:0,0:0:0:0:
400,64,138125,1,0,0:0:0:0:
480,176,138601,1,8,0:0:0:0:
368,264,139077,2,0,P|294:246|245:282,1,140,2|8,0:0|0:0,0:0:0:0:
112,320,140029,1,2,0:0:0:0:
32,208,140506,1,8,0:0:0:0:
116,96,140982,5,0,0:0:0:0:
116,96,141458,1,8,0:0:0:0:
252,136,141934,1,2,0:0:0:0:
252,136,142410,1,8,0:0:0:0:
244,276,142887,2,0,L|348:372,1,140,2|8,0:0|0:0,0:0:0:0:
420,252,143839,2,0,L|500:324,2,105,2|2|0,0:0|0:0|0:0,0:0:0:0:
376,196,144791,6,0,P|384:120|348:40,1,140,4|8,0:0|0:0,0:0:0:0:
224,40,145744,1,8,0:0:0:0:
236,180,146220,1,8,0:0:0:0:
375,196,146696,2,0,P|439:253|312:296,1,280,8|8,0:0|0:0,0:0:0:0:
236,180,148125,1,0,0:0:0:0:
192,312,148601,6,0,L|56:352,2,140,8|8|8,0:0|0:0|0:0,0:0:0:0:
280,200,150029,1,8,0:0:0:0:
136,188,150506,2,0,P|72:130|199:87,1,280,8|8,0:0|0:0,0:0:0:0:
280,200,151934,1,0,0:0:0:0:
320,72,152410,6,0,P|384:48|460:80,1,140,8|8,0:0|0:0,0:0:0:0:
368,184,153363,2,0,L|324:320,1,140,8|8,0:0|0:0,0:0:0:0:
192,312,154315,2,0,P|128:336|52:304,1,140,8|8,0:0|0:0,0:0:0:0:
144,200,155267,2,0,L|188:64,1,140,8|0,0:0|0:0,0:0:0:0:
324,36,156220,5,8,0:0:0:0:
324,176,156696,1,8,0:0:0:0:
456,124,157172,1,8,0:0:0:0:
456,264,157648,1,8,0:0:0:0:
336,340,158125,2,0,L|196:364,1,140,0|0,0:0|0:0,0:0:0:0:
64,316,159077,2,0,P|24:256|40:188,1,140,2|0,0:0|0:0,0:0:0:0:
100,68,160029,6,0,L|240:44,1,140,4|8,0:0|0:0,0:0:0:0:
352,124,160982,1,2,0:0:0:0:
256,228,161458,1,8,0:0:0:0:
140,309,161934,2,0,P|256:376|372:308,1,280,2|2,0:0|0:0,0:0:0:0:
480,216,163363,1,8,0:0:0:0:
472,76,163839,6,0,L|336:32,1,140,0|8,0:0|0:0,0:0:0:0:
200,52,164791,1,0,0:0:0:0:
112,160,165267,1,8,0:0:0:0:
156,292,165744,2,0,P|104:340|28:336,2,140,2|8|2,0:0|0:0|0:0,0:0:0:0:
256,192,167172,1,8,0:0:0:0:
356,292,167648,6,0,P|408:340|484:336,1,140,0|8,0:0|0:0,0:0:0:0:
456,200,168601,2,0,L|496:64,1,140,2|8,0:0|0:0,0:0:0:0:
364,16,169553,1,2,0:0:0:0:
256,108,170029,1,8,0:0:0:0:
124,56,170506,2,0,L|84:192,1,140,2|8,0:0|0:0,0:0:0:0:
44,324,171458,5,0,0:0:0:0:
44,324,171934,1,8,0:0:0:0:
180,292,172410,1,0,0:3:0:0:
180,292,172887,1,8,0:0:0:0:
308,344,173363,2,0,L|332:204,1,140,0|8,0:0|0:0,0:0:0:0:
468,168,174315,2,0,L|444:308,1,140,2|8,0:0|0:0,0:0:0:0:
308,344,175267,6,0,P|261:284|201:275,1,140,4|8,0:0|0:0,0:0:0:0:
60,284,176220,1,0,0:0:0:0:
20,148,176696,1,8,0:0:0:0:
132,64,177172,2,0,B|211:17|320:67|303:130|287:193|396:244|476:200,1,420,2|8,0:0|0:0,0:0:0:0:
436,64,179077,5,2,0:0:0:0:
476,200,179553,1,8,0:0:0:0:
452,336,180029,2,0,P|375:337|318:304,1,140,2|8,0:0|0:0,0:0:0:0:
200,236,180982,1,0,0:0:0:0:
312,148,181458,1,8,0:0:0:0:
190,76,181934,2,0,P|136:46|60:48,1,140,0|8,0:0|0:0,0:0:0:0:
24,184,182887,5,0,0:0:0:0:
72,316,183363,1,8,0:0:0:0:
208,348,183839,1,0,0:0:0:0:
332,280,184315,1,8,0:0:0:0:
324,140,184791,2,0,B|273:91|158:79|94:150|159:263|282:218|278:123|183:58|113:63,1,420,2|8,0:0|0:0,0:0:0:0:
60,192,186696,6,0,P|80:256|68:328,1,140,2|0,0:0|1:0,0:0:0:0:
204,364,187648,2,0,P|239:307|303:270,1,140,2|8,0:0|0:0,0:0:0:0:
280,132,188601,2,0,P|212:129|149:93,2,140,8|8|8,0:0|0:0|0:0,0:0:0:0:
404,68,190029,1,8,0:0:0:0:
464,192,190506,1,0,0:0:0:0:
