osu file format v13

[General]
AudioFilename: Owl City - Good Time (Acoustic).MP3
AudioLeadIn: 0
PreviewTime: 151982
Countdown: 0
SampleSet: Soft
StackLeniency: 0.7
Mode: 0
LetterboxInBreaks: 0
WidescreenStoryboard: 0

[Editor]
DistanceSpacing: 1
BeatDivisor: 4
GridSize: 4
TimelineZoom: 1.1

[Metadata]
Title:Good Time (Acoustic)
TitleUnicode:Good Time (Acoustic)
Artist:Owl City
ArtistUnicode:Owl City
Creator:HelloSCV
Version:Normal
Source:
Tags:The Midsummer Station EP Adam Young Xinely eLtigreXXx KokoroStudiox3
BeatmapID:571602
BeatmapSetID:149602

[Difficulty]
HPDrainRate:4
CircleSize:3
OverallDifficulty:4
ApproachRate:5
SliderMultiplier:1.4
SliderTickRate:2

[Events]
//Background and Video events
0,0,"bg.jpg",0,0
//Break Periods
2,67592,74061
//Storyboard Layer 0 (Background)
//Storyboard Layer 1 (Fail)
//Storyboard Layer 2 (Pass)
//Storyboard Layer 3 (Foreground)
//Storyboard Sound Samples

[TimingPoints]
507,491.803278688525,4,2,1,40,1,0
4441,-100,4,2,1,40,0,0
20179,-100,4,2,1,50,0,0
32966,-100,4,2,3,40,0,0
33211,-100,4,2,1,50,0,0
38867,-100,4,2,3,60,0,0
38990,-100,4,2,1,60,0,0
42802,-100,4,2,3,50,0,0
42925,-100,4,2,1,60,0,0
46736,-100,4,2,3,50,0,0
46859,-100,4,2,1,60,0,0
51654,-100,4,2,2,70,0,1
54359,-100,4,2,4,60,0,1
54482,-100,4,2,2,70,0,1
62228,-100,4,2,4,60,0,1
62351,-100,4,2,2,70,0,1
67392,-100,4,2,2,70,0,0
75261,-100,4,2,1,50,0,0
88047,-100,4,2,3,40,0,0
88170,-100,4,2,1,50,0,0
90998,-100,4,2,1,60,0,0
93949,-100,4,2,3,50,0,0
94072,-100,4,2,1,60,0,0
97884,-100,4,2,3,50,0,0
98007,-100,4,2,1,60,0,0
101818,-100,4,2,3,50,0,0
101941,-100,4,2,1,60,0,0
106736,-100,4,2,2,70,0,1
109441,-100,4,2,4,60,0,1
109564,-100,4,2,2,70,0,1
117310,-100,4,2,4,60,0,1
117433,-100,4,2,2,70,0,1
121244,-100,4,2,4,60,0,1
121490,-100,4,2,2,70,0,1
121982,-100,4,2,2,70,0,0
122474,-100,4,2,2,70,0,1
125179,-100,4,2,4,60,0,1
125302,-100,4,2,2,70,0,1
133047,-100,4,2,4,60,0,1
133170,-100,4,2,2,70,0,1
138211,-100,4,2,1,50,0,0
150015,-100,4,2,1,30,0,0
151982,-100,4,2,1,5,0,0
153949,-100,4,2,2,70,0,1
169195,-100,4,2,2,70,0,0
169687,-100,4,2,2,70,0,1
184933,-100,4,2,2,70,0,0
185425,-100,4,2,2,70,0,1
185547,-100,4,2,2,70,0,0
201162,-100,4,2,2,50,0,0
201285,-100,4,2,2,40,0,0
203129,-100,4,2,2,30,0,0
205097,-100,4,2,2,20,0,0
207064,-100,4,2,2,10,0,0
209031,-100,4,2,2,5,0,0

[Colours]
Combo1 : 192,192,192
Combo2 : 155,255,255
Combo3 : 74,165,255

[HitObjects]
208,256,4441,5,0,0:0:0:0:
208,256,4933,2,0,P|272:284|344:264,2,140,2|0|2,0:0|0:0|0:0,0:0:0:0:
200,208,6162,1,0,0:0:0:0:
196,160,6408,2,0,P|156:132|68:144,1,140,0|2,0:0|0:0,0:0:0:0:
124,272,7392,2,0,L|112:356,2,70,0|0|2,0:0|0:0|0:0,0:0:0:0:
256,220,8375,5,0,0:0:0:0:
388,176,8867,2,0,P|400:224|368:312,2,140,2|0|2,0:0|0:0|0:0,0:0:0:0:
360,136,10097,1,0,0:0:0:0:
356,88,10343,2,0,P|384:56|484:56,1,140,0|2,0:0|0:0,0:0:0:0:
488,192,11326,2,0,P|488:226|479:260,2,70,0|0|2,0:0|0:0|0:0,0:0:0:0:
348,204,12310,5,0,0:0:0:0:
220,144,12802,2,0,P|196:104|212:12,1,140,2|0,0:0|0:0,0:0:0:0:
72,44,13785,2,0,L|-4:32,2,70,2|0|0,0:0|0:0|0:0,0:0:0:0:
64,184,14769,2,0,L|140:172,1,70,2|0,0:0|0:0,0:0:0:0:
172,204,15261,2,0,L|323:180,1,140,0|2,0:0|0:0,0:0:0:0:
440,240,16244,6,0,P|448:164|368:56,2,210,0|0|0,0:0|0:0|0:0,0:0:0:0:
304,204,18211,2,0,P|232:196|168:236,1,140,0|2,0:0|0:0,0:0:0:0:
268,332,19195,2,0,P|340:340|404:300,1,140,0|2,0:0|0:0,0:0:0:0:
420,168,20179,5,0,0:0:0:0:
348,48,20670,2,0,P|411:29|484:47,2,140,2|0|2,0:0|0:0|0:0,0:0:0:0:
312,80,21900,1,0,0:0:0:0:
264,92,22146,2,0,L|104:68,1,140,0|2,0:0|0:0,0:0:0:0:
80,204,23129,2,0,L|149:214,2,70,0|0|2,0:0|0:0|0:0,0:0:0:0:
124,336,24113,5,0,0:0:0:0:
252,284,24605,2,0,P|276:224|268:148,2,140,2|0|2,0:0|0:0|0:0,0:0:0:0:
260,332,25834,1,0,0:0:0:0:
300,360,26080,2,0,P|372:356|424:316,1,140,0|2,0:0|0:0,0:0:0:0:
408,176,27064,2,0,P|408:140|420:108,2,70,0|0|2,0:0|0:0|0:0,0:0:0:0:
424,315,28047,5,0,0:0:0:0:
304,240,28539,2,0,L|160:280,1,140,2|0,0:0|0:0,0:0:0:0:
68,184,29523,2,0,L|135:165,1,70,2|0,0:0|0:0,0:0:0:0:
180,148,30015,2,0,P|228:100|232:28,1,140,0|2,0:0|0:0,0:0:0:0:
92,40,30998,2,0,L|16:44,2,70,0|0|2,0:0|0:0|0:0,0:0:0:0:
180,148,31982,6,0,P|120:168|84:232,1,140,0|2,0:0|0:0,0:0:0:0:
80,280,32720,2,0,L|28:144,1,140
124,48,33703,1,8,0:3:0:0:
172,64,33949,2,0,P|204:72|300:36,1,140,0|8,0:0|0:3,0:0:0:0:
440,48,34933,2,0,L|436:192,1,140,8|0,0:0|0:0,0:0:0:0:
364,312,35916,5,8,0:3:0:0:
228,280,36408,2,0,L|152:296,1,70
116,272,36900,2,0,L|40:288,2,70,8|0|0,0:0|0:0|0:0,0:0:0:0:
156,240,37638,2,0,P|192:172|176:108,1,140,8|0,0:3|0:0,0:0:0:0:
300,40,38621,2,0,L|444:16,1,140
476,48,39359,1,0,0:0:0:0:
360,128,39851,5,8,0:3:0:0:
492,176,40343,2,0,L|500:248,1,70,0|0,0:0|0:0,0:0:0:0:
476,288,40834,2,0,L|468:360,2,70,8|0|0,0:0|0:0|0:0,0:0:0:0:
440,256,41572,2,0,P|388:212|308:212,1,140,8|0,0:3|0:0,0:0:0:0:
180,212,42556,2,0,P|128:163|122:97,1,140,0|0,0:0|0:0,0:0:0:0:
140,52,43293,1,0,0:0:0:0:
28,136,43785,6,0,L|44:276,1,140,8|0,0:3|0:0,0:0:0:0:
88,300,44523,1,0,0:0:0:0:
128,272,44769,2,0,L|136:342,2,70,8|0|0,0:0|0:0|0:0,0:0:0:0:
176,288,45507,2,0,P|236:256|308:272,1,140,8|0,0:3|0:0,0:0:0:0:
440,260,46490,2,0,P|382:224|360:153,1,140,0|0,0:0|0:0,0:0:0:0:
380,112,47228,1,0,0:0:0:0:
260,40,47720,6,0,P|228:24|188:24,2,70,8|0|0,0:3|0:0|0:0,0:0:0:0:
260,88,48457,1,0,0:0:0:0:
236,132,48703,2,0,L|256:208,2,70,8|0|0,0:0|0:0|0:0,0:0:0:0:
120,212,49687,2,0,L|96:288,1,70
144,264,50179,2,0,P|184:260|224:268,1,70,8|0,0:3|0:0,0:0:0:0:
256,288,50670,2,0,L|208:124,1,140,8|0,0:0|0:0,0:0:0:0:
168,24,51654,5,12,0:3:0:0:
132,56,51900,2,0,L|124:216,1,140,0|8,0:0|0:3,0:0:0:0:
96,236,52638,2,0,P|156:212|236:228,1,140,0|0,1:0|0:0,0:0:0:0:
316,332,53621,2,0,P|256:356|176:340,2,140,8|8|0,0:3|0:3|1:0,0:0:0:0:
240,216,55097,1,0,0:0:0:0:
372,264,55588,5,8,0:3:0:0:
408,232,55834,2,0,L|420:84,1,140,0|8,0:0|0:3,0:0:0:0:
408,44,56572,2,0,P|352:20|272:40,1,140,0|0,1:0|0:0,0:0:0:0:
176,132,57556,1,8,0:3:0:0:
212,268,58047,2,0,P|230:294|271:310,1,70,8|8,0:3|0:3,0:0:0:0:
310,306,58539,2,0,P|366:264|435:274,1,140,0|0,1:0|0:0,0:0:0:0:
492,144,59523,5,8,0:3:0:0:
464,104,59769,2,0,L|480:36,2,70,0|0|8,0:0|0:0|0:3,0:0:0:0:
420,124,60507,2,0,P|364:92|280:100,1,140,0|0,1:0|0:0,0:0:0:0:
152,116,61490,2,0,P|88:96|48:32,2,140,8|8|0,0:3|0:3|1:0,0:0:0:0:
290,123,62966,1,0,0:0:0:0:
224,244,63457,6,0,L|232:316,1,70,8|0,0:3|0:0,0:0:0:0:
268,280,63949,2,0,L|352:276,1,70,0|8,0:0|0:3,0:0:0:0:
372,312,64441,2,0,L|381:242,2,70,0|0|0,1:0|0:0|0:0,0:0:0:0:
480,224,65425,2,0,L|472:80,1,140,8|8,0:3|0:3,0:0:0:0:
428,60,66162,1,8,0:3:0:0:
396,100,66408,2,0,P|328:124|260:92,1,140,0|0,1:0|0:0,0:0:0:0:
144,32,67392,5,4,0:0:0:0:
136,76,75261,5,8,0:3:0:0:
220,188,75752,2,0,P|152:212|80:204,2,140,0|8|0,0:0|0:0|0:0,0:0:0:0:
260,160,76982,1,8,0:3:0:0:
296,124,77228,2,0,P|352:108|432:144,1,140,0|8,0:0|0:3,0:0:0:0:
348,256,78211,2,0,L|340:336,2,70,8|0|0,0:0|0:0|0:0,0:0:0:0:
296,124,79195,5,8,0:3:0:0:
172,188,79687,2,0,P|108:196|44:156,2,140,0|8|0,0:0|0:0|0:0,0:0:0:0:
220,196,80916,1,8,0:3:0:0:
256,228,81162,2,0,L|232:376,1,140,0|8,0:0|0:3,0:0:0:0:
92,368,82146,2,0,L|103:298,2,70,8|0|0,0:0|0:0|0:0,0:0:0:0:
8,272,83129,6,0,P|36:248|48:208,1,70,8|0,0:3|0:0,0:0:0:0:
60,168,83621,2,0,L|36:20,1,140,0|8,0:0|0:0,0:0:0:0:
164,88,84605,2,0,L|236:76,2,70,0|8|0,0:0|0:3|0:0,0:0:0:0:
200,212,85588,2,0,L|252:264|252:264,1,70,8|0,0:3|0:0,0:0:0:0:
292,288,86080,2,0,L|280:364,2,70,8|0|0,0:0|0:0|0:0,0:0:0:0:
432,288,87064,6,0,L|412:148,1,140,8|0,0:3|0:0,0:0:0:0:
440,108,87802,2,0,P|376:128|300:104,1,140
188,32,88785,1,0,0:0:0:0:
140,44,89031,2,0,B|75:65|75:65|39:133,2,140,0|0|8,0:0|0:0|0:0,0:0:0:0:
272,96,90507,1,0,0:0:0:0:
400,40,90998,6,0,P|434:103|420:174,1,140,8|0,0:3|0:0,0:0:0:0:
368,296,91982,2,0,P|367:337|384:368,2,70,8|0|0,0:0|0:0|0:0,0:0:0:0:
392,252,92720,2,0,L|244:276,1,140,8|0,0:3|0:0,0:0:0:0:
132,344,93703,2,0,P|112:280|136:208,1,140
172,184,94441,1,0,0:0:0:0:
308,148,94933,6,0,P|368:164|440:128,1,140,8|0,0:3|0:0,0:0:0:0:
320,56,95916,2,0,P|284:56|235:83,2,70,8|0|0,0:0|0:0|0:0,0:0:0:0:
364,32,96654,2,0,L|212:12,1,140,8|0,0:3|0:0,0:0:0:0:
92,60,97638,2,0,P|56:120|64:196,1,140
88,228,98375,1,0,0:0:0:0:
188,324,98867,6,0,L|328:336,1,140,8|0,0:3|0:0,0:0:0:0:
448,268,99851,2,0,L|512:296,2,70,8|0|0,0:0|0:0|0:0,0:0:0:0:
400,268,100588,2,0,B|376:200|376:200|384:116,1,140,8|0,0:3|0:0,0:0:0:0:
480,32,101572,2,0,L|320:28,1,140
292,24,102310,1,0,0:0:0:0:
188,116,102802,6,0,P|164:140|148:184,2,70,8|0|0,0:3|0:0|0:0,0:0:0:0:
232,132,103539,1,0,0:0:0:0:
280,124,103785,2,0,L|348:80,2,70,8|0|0,0:0|0:0|0:0,0:0:0:0:
404,188,104769,2,0,L|480:216,1,70
460,260,105261,2,0,P|460:296|476:332,1,70,8|0,0:3|0:0,0:0:0:0:
504,364,105752,2,0,L|372:315,1,140,8|0,0:0|0:0,0:0:0:0:
284,208,106736,5,12,0:3:0:0:
240,184,106982,2,0,P|164:176|108:220,1,140,0|8,0:0|0:3,0:0:0:0:
84,248,107720,2,0,L|68:108,1,140,0|0,1:0|0:0,0:0:0:0:
192,48,108703,2,0,B|260:64|260:64|328:36,2,140,8|8|0,0:3|0:3|1:0,0:0:0:0:
56,20,110179,1,0,0:0:0:0:
152,120,110670,5,8,0:3:0:0:
184,156,110916,2,0,L|192:300,1,140,0|8,0:0|0:3,0:0:0:0:
164,336,111654,2,0,P|228:348|300:308,1,140,0|0,1:0|0:0,0:0:0:0:
348,188,112638,1,8,0:3:0:0:
484,220,113129,2,0,L|491:289,1,70,8|8,0:3|0:3,0:0:0:0:
492,336,113621,2,0,P|420:320|356:351,1,140,0|0,1:0|0:0,0:0:0:0:
220,348,114605,5,8,0:3:0:0:
194,306,114851,2,0,P|185:239|217:172,1,140,0|8,0:0|0:3,0:0:0:0:
261,156,115588,2,0,P|294:105|287:26,1,140,0|0,1:0|0:0,0:0:0:0:
152,64,116572,2,0,L|12:52,2,140,8|8|0,0:3|0:3|1:0,0:0:0:0:
140,204,118047,1,0,0:0:0:0:
200,332,118539,6,0,P|236:332|268:320,1,70,8|0,0:3|0:0,0:0:0:0:
300,284,119031,2,0,P|324:268|364:264,1,70,0|8,0:0|0:3,0:0:0:0:
412,280,119523,2,0,L|388:140,1,140,0|0,1:0|0:0,0:0:0:0:
248,128,120507,2,0,P|263:61|316:17,2,140,8|8|0,0:3|0:3|1:0,0:0:0:0:
360,212,121982,1,0,0:0:0:0:
332,348,122474,5,12,0:3:0:0:
288,328,122720,2,0,P|220:320|160:360,1,140,0|8,0:0|0:3,0:0:0:0:
116,344,123457,2,0,L|92:204,1,140,0|0,1:0|0:0,0:0:0:0:
204,124,124441,2,0,L|227:261,2,140,8|8|0,0:3|0:3|1:0,0:0:0:0:
64,104,125916,1,0,0:0:0:0:
188,36,126408,5,8,0:3:0:0:
232,60,126654,2,0,P|292:76|364:48,1,140,0|8,0:0|0:3,0:0:0:0:
400,16,127392,2,0,P|448:64|456:144,1,140,0|0,1:0|0:0,0:0:0:0:
396,260,128375,1,8,0:3:0:0:
260,236,128867,2,0,L|184:264,1,70,8|8,0:3|0:3,0:0:0:0:
152,240,129359,2,0,L|64:364,1,140,0|0,1:0|0:0,0:0:0:0:
0,232,130343,5,8,0:3:0:0:
32,192,130588,2,0,B|73:133|73:133|144:116,1,140,0|8,0:0|0:3,0:0:0:0:
180,144,131326,2,0,P|248:164|308:136,1,140,0|0,1:0|0:0,0:0:0:0:
392,24,132310,2,0,P|392:92|440:144,2,140,8|8|0,0:3|0:3|1:0,0:0:0:0:
264,76,133785,1,0,0:0:0:0:
124,68,134277,6,0,L|104:136,1,70,8|0,0:3|0:0,0:0:0:0:
72,172,134769,2,0,L|88:240,1,70,0|8,0:0|0:3,0:0:0:0:
136,252,135261,2,0,L|140:324,2,70,0|0|0,1:0|0:0|0:0,0:0:0:0:
240,160,136244,2,0,P|300:140|380:164,1,140,8|8,0:3|0:3,0:0:0:0:
388,204,136982,1,8,0:3:0:0:
352,240,137228,2,0,P|328:308|356:372,1,140,0|0,1:0|0:0,0:0:0:0:
472,296,138211,5,4,0:0:0:0:
488,252,138457,1,0,0:0:0:0:
484,204,138703,2,0,L|472:128,2,70,2|0|0,0:0|0:0|0:0,0:0:0:0:
240,60,140179,2,0,L|84:68,1,140,0|2,0:0|0:0,0:0:0:0:
88,208,141162,2,0,L|155:190,2,70,0|0|2,0:0|0:0|0:0,0:0:0:0:
168,324,142146,5,0,0:0:0:0:
212,308,142392,1,0,0:0:0:0:
260,312,142638,2,0,L|336:344,2,70,2|0|0,0:0|0:0|0:0,0:0:0:0:
492,156,144113,2,0,L|512:8,1,140,0|2,0:0|0:0,0:0:0:0:
378,62,145097,2,0,L|368:131,2,70,0|0|2,0:0|0:0|0:0,0:0:0:0:
236,68,146080,5,0,0:0:0:0:
224,116,146326,1,0,0:0:0:0:
192,152,146572,2,0,L|128:184,2,70,2|0|0,0:0|0:0|0:0,0:0:0:0:
376,256,147802,1,0,0:0:0:0:
352,212,148047,2,0,L|380:72,1,140,0|2,0:0|0:0,0:0:0:0:
480,172,149031,2,0,L|500:274,2,105,0|2|0,0:0|0:0|0:0,0:0:0:0:
256,192,150015,12,0,151982,0:0:0:0:
364,144,153949,5,12,0:3:0:0:
328,180,154195,2,0,L|340:332,1,140,0|8,0:0|0:3,0:0:0:0:
344,368,154933,2,0,P|396:332|472:332,1,140,0|0,1:0|0:0,0:0:0:0:
508,196,155916,1,8,0:3:0:0:
436,76,156408,1,8,0:3:0:0:
404,112,156654,1,8,0:3:0:0:
368,148,156900,2,0,L|208:140,1,140,0|0,1:0|0:0,0:0:0:0:
88,156,157884,5,8,0:3:0:0:
120,192,158129,2,0,P|144:256|116:332,1,140,0|8,0:0|0:3,0:0:0:0:
80,348,158867,2,0,P|148:340|216:360,1,140,0|0,1:0|0:0,0:0:0:0:
356,380,159851,1,8,0:3:0:0:
448,272,160343,1,8,0:3:0:0:
444,224,160588,1,8,0:3:0:0:
440,176,160834,2,0,L|432:36,1,140,0|0,1:0|0:0,0:0:0:0:
300,84,161818,5,8,0:3:0:0:
256,60,162064,2,0,B|188:32|188:32|104:48,1,140,0|8,0:0|0:3,0:0:0:0:
88,80,162802,2,0,L|80:224,1,140,0|0,1:0|0:0,0:0:0:0:
176,320,163785,1,8,0:3:0:0:
292,244,164277,1,8,0:3:0:0:
340,240,164523,1,8,0:3:0:0:
388,236,164769,2,0,B|456:232|456:232|500:288,1,140,0|0,1:0|0:0,0:0:0:0:
480,152,165752,6,0,L|488:80,1,70,8|0,0:3|0:0,0:0:0:0:
440,96,166244,2,0,L|388:44,1,70,0|8,0:0|0:3,0:0:0:0:
364,88,166736,2,0,L|268:88,1,70,0|0,1:0|0:0,0:0:0:0:
260,52,167228,1,0,0:0:0:0:
120,68,167720,2,0,L|124:216,1,140,8|8,0:3|0:3,0:0:0:0:
168,232,168457,1,8,0:3:0:0:
212,256,168703,2,0,B|276:228|276:228|344:256,1,140,0|0,1:0|0:0,0:0:0:0:
468,312,169687,5,12,0:3:0:0:
444,268,169933,2,0,L|456:192,2,70,0|0|8,0:0|0:0|0:3,0:0:0:0:
424,312,170670,2,0,P|360:340|288:328,1,140,0|0,1:0|0:0,0:0:0:0:
168,268,171654,1,8,0:3:0:0:
36,316,172146,1,8,0:3:0:0:
52,268,172392,1,8,0:3:0:0:
28,224,172638,2,0,L|16:80,1,140,0|0,1:0|0:0,0:0:0:0:
140,148,173621,5,8,0:3:0:0:
176,116,173867,2,0,P|200:104|248:100,2,70,0|0|8,0:0|0:0|0:3,0:0:0:0:
180,164,174605,2,0,P|200:216|168:296,1,140,0|0,1:0|0:0,0:0:0:0:
292,364,175588,1,8,0:3:0:0:
424,316,176080,1,8,0:3:0:0:
408,268,176326,1,8,0:3:0:0:
412,220,176572,2,0,L|424:144,2,70,0|0|0,1:0|0:0|0:0,0:0:0:0:
276,260,177556,5,8,0:3:0:0:
236,236,177802,2,0,L|196:176,2,70,0|0|8,0:0|0:0|0:3,0:0:0:0:
220,280,178539,2,0,P|152:280|96:328,1,140,0|0,1:0|0:0,0:0:0:0:
0,224,179523,1,8,0:3:0:0:
36,88,180015,1,8,0:3:0:0:
80,112,180261,1,8,0:3:0:0:
120,136,180507,2,0,L|259:126,1,140,0|0,1:0|0:0,0:0:0:0:
384,192,181490,6,0,L|453:187,1,70,8|0,0:3|0:0,0:0:0:0:
432,232,181982,2,0,L|471:289,1,70,0|8,0:0|0:3,0:0:0:0:
424,296,182474,2,0,L|393:358,2,70,0|0|0,1:0|0:0|0:0,0:0:0:0:
284,300,183457,2,0,L|208:308,1,70,8|0,0:3|0:0,0:0:0:0:
184,344,183949,2,0,L|139:282,1,70,8|8,0:3|0:3,0:0:0:0:
96,296,184441,2,0,L|155:161,1,140,0|0,1:0|0:0,0:0:0:0:
176,124,185179,1,0,0:0:0:0:
204,84,185425,5,12,0:3:0:0:
312,172,185916,2,0,L|384:156,1,70,0|8,0:0|0:3,0:0:0:0:
412,120,186408,2,0,P|412:188|456:252,1,140,0|0,1:0|0:0,0:0:0:0:
340,336,187392,1,8,0:3:0:0:
208,284,187884,2,0,L|132:300,1,70,8|8,0:3|0:3,0:0:0:0:
92,292,188375,2,0,P|48:236|52:168,1,140,0|0,1:0|0:0,0:0:0:0:
144,64,189359,5,8,0:3:0:0:
280,100,189851,2,0,L|352:88,1,70,0|8,0:0|0:3,0:0:0:0:
372,44,190343,2,0,L|480:148,1,140,0|0,1:0|0:0,0:0:0:0:
368,232,191326,2,0,L|348:320,1,70,8|0,0:3|0:0,0:0:0:0:
320,336,191818,2,0,P|300:308|268:288,1,70,8|8,0:3|0:3,0:0:0:0:
224,280,192310,2,0,P|153:292|106:349,1,140,0|0,1:0|0:0,0:0:0:0:
36,224,193293,5,8,0:3:0:0:
148,140,193785,2,0,L|164:68,1,70,0|8,0:0|0:3,0:0:0:0:
196,36,194277,2,0,P|256:20|324:60,1,140,0|0,1:0|0:0,0:0:0:0:
372,188,195261,1,8,0:3:0:0:
496,124,195752,2,0,L|488:44,1,70,8|8,0:3|0:3,0:0:0:0:
448,80,196244,2,0,L|461:219,1,140,0|0,1:0|0:0,0:0:0:0:
368,324,197228,6,0,L|272:332,1,70,8|0,0:3|0:0,0:0:0:0:
268,292,197720,2,0,L|172:300,1,70,0|8,0:0|0:3,0:0:0:0:
160,328,198211,2,0,P|123:332|92:320,2,70,0|0|0,1:0|0:0|0:0,0:0:0:0:
156,188,199195,2,0,L|168:120,1,70,8|0,0:3|0:0,0:0:0:0:
176,72,199687,2,0,P|200:88|240:96,1,70,8|8,0:3|0:3,0:0:0:0:
288,96,200179,2,0,P|352:124|380:192,1,140,0|0,1:0|0:0,0:0:0:0:
360,324,201162,5,4,0:0:0:0:
256,192,201408,12,0,209031,0:0:0:0:
