osu file format v13

[General]
AudioFilename: Owl City - Good Time (Acoustic).MP3
AudioLeadIn: 0
PreviewTime: 151982
Countdown: 0
SampleSet: Soft
StackLeniency: 0.7
Mode: 0
LetterboxInBreaks: 0
WidescreenStoryboard: 0

[Editor]
DistanceSpacing: 1.1
BeatDivisor: 4
GridSize: 4
TimelineZoom: 1.9

[Metadata]
Title:Good Time (Acoustic)
TitleUnicode:Good Time (Acoustic)
Artist:Owl City
ArtistUnicode:Owl City
Creator:HelloSCV
Version:Hard
Source:
Tags:The Midsummer Station EP Adam Young Xinely eLtigreXXx KokoroStudiox3
BeatmapID:369629
BeatmapSetID:149602

[Difficulty]
HPDrainRate:5
CircleSize:4
OverallDifficulty:6
ApproachRate:7
SliderMultiplier:1.6
SliderTickRate:2

[Events]
//Background and Video events
0,0,"bg.jpg",0,0
//Break Periods
2,67592,74361
//Storyboard Layer 0 (Background)
//Storyboard Layer 1 (Fail)
//Storyboard Layer 2 (Pass)
//Storyboard Layer 3 (Foreground)
//Storyboard Sound Samples

[TimingPoints]
507,491.803278688525,4,2,1,40,1,0
4441,-125,4,2,1,40,0,0
20179,-100,4,2,1,50,0,0
35916,-100,4,2,1,50,0,0
38867,-100,4,2,3,60,0,0
38990,-100,4,2,1,60,0,0
42802,-100,4,2,3,50,0,0
42925,-100,4,2,1,60,0,0
46736,-100,4,2,3,50,0,0
46859,-100,4,2,1,60,0,0
51654,-100,4,2,2,70,0,1
54359,-100,4,2,4,60,0,1
54482,-100,4,2,2,70,0,1
62228,-100,4,2,4,60,0,1
62351,-100,4,2,2,70,0,1
67392,-100,4,2,2,70,0,0
75261,-125,4,2,1,50,0,0
88047,-125,4,2,3,40,0,0
88170,-125,4,2,1,50,0,0
90998,-100,4,2,1,60,0,0
93949,-100,4,2,3,50,0,0
94072,-100,4,2,1,60,0,0
97884,-100,4,2,3,50,0,0
98007,-100,4,2,1,60,0,0
101818,-100,4,2,3,50,0,0
101941,-100,4,2,1,60,0,0
106736,-100,4,2,2,70,0,1
109441,-100,4,2,4,60,0,1
109564,-100,4,2,2,70,0,1
117310,-100,4,2,4,60,0,1
117433,-100,4,2,2,70,0,1
121982,-100,4,2,2,70,0,0
122474,-100,4,2,2,70,0,1
125179,-100,4,2,4,60,0,1
125302,-100,4,2,2,70,0,1
133047,-100,4,2,4,60,0,1
133170,-100,4,2,2,70,0,1
138211,-125,4,2,1,50,0,0
150015,-125,4,2,1,30,0,0
151982,-125,4,2,1,5,0,0
153949,-100,4,2,2,70,0,1
156654,-100,4,2,4,60,0,1
156777,-100,4,2,2,70,0,1
164523,-100,4,2,4,60,0,1
164646,-100,4,2,2,70,0,1
169195,-100,4,2,2,70,0,0
169687,-100,4,2,2,70,0,1
172392,-100,4,2,4,60,0,1
172515,-100,4,2,2,70,0,1
180261,-100,4,2,4,60,0,1
180384,-100,4,2,2,70,0,1
184933,-100,4,2,2,70,0,0
185425,-100,4,2,2,70,0,1
185547,-100,4,2,2,70,0,0
201162,-100,4,2,2,50,0,0
201285,-100,4,2,2,40,0,0
203129,-100,4,2,2,30,0,0
205097,-100,4,2,2,20,0,0
207064,-100,4,2,2,10,0,0
209031,-100,4,2,2,5,0,0

[Colours]
Combo1 : 192,192,192
Combo2 : 155,255,255
Combo3 : 74,165,255

[HitObjects]
140,280,4441,5,0,0:0:0:0:
140,280,4933,2,0,P|196:304|264:288,2,128,2|0|2,0:0|0:0|0:0,0:0:0:0:
112,200,6162,1,0,0:0:0:0:
180,152,6408,2,0,P|188:96|144:32,1,128,0|2,0:0|0:0,0:0:0:0:
108,108,7146,1,0,0:0:0:0:
180,152,7392,2,0,L|248:148,1,64,0|0,0:0|0:0,0:0:0:0:
328,152,7884,2,0,P|368:172|392:252,1,128,2|0,0:0|0:0,0:0:0:0:
244,176,8867,6,0,P|241:131|298:70,2,128,2|0|2,0:0|0:0|0:0,0:0:0:0:
252,260,10097,1,0,0:0:0:0:
196,320,10343,2,0,P|148:336|72:304,1,128,0|2,0:0|0:0,0:0:0:0:
56,232,11080,1,0,0:0:0:0:
88,156,11326,2,0,L|80:88,2,64,0|0|2,0:0|0:0|0:0,0:0:0:0:
280,264,12310,5,0,0:0:0:0:
180,104,12802,2,0,P|236:76|308:76,2,128,2|0|2,0:0|0:0|0:0,0:0:0:0:
176,188,14031,1,0,0:0:0:0:
176,272,14277,2,0,P|136:260|92:184,1,128,0|2,0:0|0:0,0:0:0:0:
176,188,15015,1,0,0:0:0:0:
248,232,15261,2,0,P|256:264|252:300,1,64
200,356,15752,1,2,0:0:0:0:
340,268,16244,6,0,L|368:140,1,128,0|2,0:0|0:0,0:0:0:0:
348,60,16982,2,0,P|316:32|220:36,1,128
160,64,17720,1,2,0:0:0:0:
112,132,17966,1,0,0:0:0:0:
172,192,18211,6,0,B|178:221|178:221|176:257,1,64,0|0,0:0|0:0,0:0:0:0:
104,296,18703,2,0,B|97:266|97:266|99:232,1,64,2|0,0:0|0:0,0:0:0:0:
172,192,19195,2,0,L|304:196,1,128,0|2,0:0|0:0,0:0:0:0:
299,195,20179,5,0,0:0:0:0:
376,232,20425,1,0,0:0:0:0:
440,180,20670,2,0,L|452:100,1,80,2|0,0:0|0:0,0:0:0:0:
368,112,21162,2,0,P|304:104|252:20,1,160,0|2,0:0|0:0,0:0:0:0:
176,68,21900,1,0,0:0:0:0:
120,132,22146,6,0,B|108:172|108:172|116:216,1,80,0|0,0:0|0:0,0:0:0:0:
152,288,22638,1,2,0:0:0:0:
228,256,22884,1,0,0:0:0:0:
296,308,23129,2,0,L|384:324,2,80,0|0|2,0:0|0:0|0:0,0:0:0:0:
220,340,23867,1,0,0:0:0:0:
228,256,24113,5,0,0:0:0:0:
300,212,24359,1,0,0:0:0:0:
340,140,24605,2,0,P|344:104|336:60,1,80,2|0,0:0|0:0,0:0:0:0:
264,104,25097,2,0,L|92:116,1,160,0|2,0:0|0:0,0:0:0:0:
48,176,25834,1,0,0:0:0:0:
128,196,26080,6,0,P|160:224|136:335,1,160,0|2,0:0|0:0,0:0:0:0:
143,329,26818,1,0,0:0:0:0:
224,356,27064,2,0,L|300:320,1,80
380,320,27556,2,0,P|396:276|500:248,1,160,2|0,0:0|0:0,0:0:0:0:
492,164,28293,5,0,0:0:0:0:
416,132,28539,2,0,P|400:92|404:48,1,80,2|0,0:0|0:0,0:0:0:0:
324,84,29031,2,0,B|288:104|248:88|248:88|204:72|164:92,1,160,0|2,0:0|0:0,0:0:0:0:
124,160,29769,1,0,0:0:0:0:
208,164,30015,6,0,L|220:268,1,80
228,328,30507,1,2,0:0:0:0:
217,243,30752,1,0,0:0:0:0:
284,192,30998,2,0,L|296:296,2,80,0|0|2,0:0|0:0|0:0,0:0:0:0:
124,52,31982,6,0,L|100:140,1,80
76,208,32474,1,2,0:0:0:0:
160,200,32720,2,0,L|192:276,1,80,0|0,0:0|1:0,0:0:0:0:
176,356,33211,1,2,0:0:0:0:
256,332,33457,2,0,L|344:352,1,80,0|8,0:0|0:3,0:0:0:0:
420,340,33949,5,0,0:0:0:0:
432,208,34195,1,0,0:0:0:0:
496,324,34441,1,8,0:3:0:0:
376,268,34687,1,0,0:0:0:0:
504,240,34933,2,0,P|496:164|424:128,1,160,0|0,1:0|0:0,0:0:0:0:
240,224,35916,6,0,P|204:228|156:204,1,80,8|0,0:3|0:0,0:0:0:0:
136,132,36408,1,0,0:0:0:0:
84,196,36654,2,0,L|72:276,1,80,0|8,0:0|0:0,0:0:0:0:
56,356,37146,1,0,0:0:0:0:
136,324,37392,1,0,0:0:0:0:
220,328,37638,6,0,L|380:368,1,160,8|0,0:3|0:0,0:0:0:0:
456,348,38375,1,8,0:3:0:0:
400,288,38621,2,0,P|381:254|424:149,1,160,0|0,0:0|0:0,0:0:0:0:
504,124,39359,1,0,0:0:0:0:
312,52,39851,6,0,L|220:64,1,80,8|0,0:3|0:0,0:0:0:0:
172,124,40343,1,0,0:0:0:0:
88,108,40588,2,0,P|52:80|32:40,2,80,0|8|0,0:0|0:0|0:0,0:0:0:0:
172,124,41326,1,0,0:0:0:0:
240,172,41572,6,0,P|264:212|220:312,1,160,8|0,0:3|0:0,0:0:0:0:
188,236,42310,1,8,0:3:0:0:
160,156,42556,2,0,P|208:96|292:108,1,160
348,156,43293,1,0,0:0:0:0:
140,296,43785,6,0,P|116:264|116:216,1,80,8|0,0:3|0:0,0:0:0:0:
160,156,44277,1,0,0:0:0:0:
120,80,44523,1,0,0:0:0:0:
184,28,44769,2,0,L|276:40,1,80,8|0,0:0|0:0,0:0:0:0:
348,52,45261,1,0,0:0:0:0:
412,104,45507,6,0,P|440:136|432:248,1,160,8|0,0:3|0:0,0:0:0:0:
352,268,46244,1,8,0:3:0:0:
268,280,46490,2,0,P|295:207|372:184,1,160,0|0,0:0|0:0,0:0:0:0:
432,246,47228,1,0,0:0:0:0:
156,156,47720,6,0,L|76:164,1,80,8|0,0:3|0:0,0:0:0:0:
80,312,48211,2,0,L|160:304,1,80
200,228,48703,1,8,0:0:0:0:
120,235,48949,1,0,0:0:0:0:
40,243,49195,1,0,0:0:0:0:
252,292,49687,6,0,P|272:264|280:216,1,80,0|0,0:0|0:0,0:0:0:0:
233,74,50179,2,0,P|224:113|232:152,1,80,8|0,0:3|0:0,0:0:0:0:
353,258,50670,2,0,P|349:179|308:112,1,160,8|0,0:0|0:0,0:0:0:0:
148,52,51654,5,12,0:3:0:0:
96,112,51900,2,0,P|96:156|108:192,1,80
224,268,52392,2,0,P|236:232|236:188,1,80,8|0,0:3|1:2,0:0:0:0:
136,336,53129,1,0,0:0:0:0:
292,272,53621,6,0,B|332:256|372:264|372:264|396:308|440:312,2,160,8|8|0,0:3|0:3|1:0,0:0:0:0:
216,308,54851,1,0,0:0:0:0:
148,260,55097,2,0,P|144:224|156:172,1,80
212,120,55588,5,8,0:3:0:0:
268,188,55834,2,0,P|304:192|348:180,1,80
228,40,56326,2,0,P|191:42|150:61,1,80,8|0,0:3|1:0,0:0:0:0:
8,156,57064,1,0,0:0:0:0:
144,256,57556,6,0,P|132:217|112:182,1,80,8|0,0:3|0:0,0:0:0:0:
88,308,58047,2,0,P|60:336|40:372,1,80,8|8,0:3|0:3,0:0:0:0:
160,332,58539,2,0,B|216:324|268:360|320:352,1,160,0|0,1:0|0:0,0:0:0:0:
404,360,59277,1,0,0:0:0:0:
368,284,59523,5,8,0:3:0:0:
416,212,59769,2,0,L|444:128,1,80
336,208,60261,1,8,0:3:0:0:
296,128,60507,2,0,P|252:108|152:148,1,160,0|0,1:0|0:0,0:0:0:0:
152,336,61490,6,0,P|191:307|206:201,2,160,8|8|0,0:3|0:3|1:0,0:0:0:0:
68,348,62720,1,0,0:0:0:0:
152,336,62966,2,0,L|240:360,1,80
304,316,63457,5,8,0:3:0:0:
364,256,63703,1,0,0:0:0:0:
261,154,63949,1,0,0:0:0:0:
283,234,64195,1,8,0:3:0:0:
342,121,64441,1,0,1:0:0:0:
272,72,64687,1,0,0:0:0:0:
192,100,64933,2,0,P|152:104|108:88,1,80,0|8,0:0|0:3,0:0:0:0:
20,48,65425,6,0,L|32:148,1,80,8|0,0:3|0:0,0:0:0:0:
116,256,65916,2,0,L|104:356,1,80,8|8,0:3|0:3,0:0:0:0:
44,220,66408,2,0,P|76:188|184:212,1,160,0|0,1:0|0:0,0:0:0:0:
204,288,67146,1,0,0:0:0:0:
244,152,67392,5,12,0:3:0:0:
244,152,75261,5,8,0:3:0:0:
244,152,75752,2,0,P|276:176|368:172,2,128,0|8|0,0:0|0:0|0:0,0:0:0:0:
224,72,76982,1,8,0:3:0:0:
160,128,77228,2,0,L|144:268,1,128,0|8,0:0|0:3,0:0:0:0:
136,340,77966,1,0,0:0:0:0:
72,288,78211,2,0,B|40:288|13:313,2,64,8|0|0,0:0|0:0|0:0,0:0:0:0:
208,384,79195,5,8,0:3:0:0:
36,236,79687,2,0,L|52:92,2,128,0|8|0,0:0|0:0|0:0,0:0:0:0:
112,272,80916,1,8,0:3:0:0:
160,204,81162,2,0,P|200:192|276:236,1,128,0|8,0:0|0:3,0:0:0:0:
292,312,81900,1,0,0:0:0:0:
372,336,82146,2,0,P|396:336|436:312,1,64,8|0,0:0|0:0,0:0:0:0:
448,236,82638,2,0,P|436:192|468:104,1,128,0|8,0:0|0:3,0:0:0:0:
512,52,83375,5,0,0:0:0:0:
458,114,83621,2,0,L|320:120,1,128,0|8,0:0|0:0,0:0:0:0:
164,124,84605,1,0,0:0:0:0:
120,196,84851,1,8,0:3:0:0:
176,256,85097,2,0,P|188:288|148:376,1,128,0|8,0:0|0:3,0:0:0:0:
108,304,85834,1,0,0:0:0:0:
176,256,86080,2,0,L|248:260,1,64,8|0,0:0|0:0,0:0:0:0:
324,268,86572,1,0,0:0:0:0:
324,268,87064,6,0,P|384:248|412:192,1,128,8|0,0:3|0:0,0:0:0:0:
388,111,87802,2,0,P|415:56|474:34,1,128
472,120,88539,1,0,0:0:0:0:
424,188,88785,1,0,0:0:0:0:
340,184,89031,6,0,L|272:160,1,64
228,96,89523,2,0,L|167:117,1,64
92,80,90015,2,0,P|124:128|120:208,1,128,8|0,0:0|0:0,0:0:0:0:
52,348,90998,6,0,P|88:364|132:368,1,80,8|0,0:3|0:0,0:0:0:0:
196,320,91490,1,0,0:0:0:0:
276,344,91736,1,0,0:0:0:0:
352,308,91982,2,0,P|384:292|432:292,1,80,8|0,0:0|0:0,0:0:0:0:
408,372,92474,1,0,0:0:0:0:
352,308,92720,6,0,P|344:228|384:148,1,160,8|0,0:3|0:0,0:0:0:0:
444,104,93457,1,8,0:3:0:0:
448,188,93703,2,0,P|380:160|368:68,1,160
412,12,94441,1,0,0:0:0:0:
362,81,94687,1,0,0:0:0:0:
308,148,94933,6,0,L|228:160,1,80,8|0,0:3|0:0,0:0:0:0:
144,148,95425,1,0,0:0:0:0:
96,80,95670,1,0,0:0:0:0:
112,164,95916,2,0,P|116:200|108:248,1,80,8|0,0:0|0:0,0:0:0:0:
48,304,96408,1,0,0:0:0:0:
116,356,96654,6,0,P|168:364|240:284,1,160,8|0,0:3|0:0,0:0:0:0:
240,208,97392,1,8,0:3:0:0:
228,124,97638,2,0,P|273:61|350:61,1,160
396,132,98375,1,0,0:0:0:0:
312,136,98621,1,0,0:0:0:0:
350,61,98867,6,0,L|360:236,1,160,8|0,0:3|0:0,0:0:0:0:
328,300,99605,1,0,0:0:0:0:
412,288,99851,2,0,B|440:316|440:316|456:356,2,80,8|0|0,0:0|0:0|0:0,0:0:0:0:
328,300,100588,2,0,B|248:316|248:316|156:288,1,160,8|0,0:3|0:0,0:0:0:0:
96,260,101326,1,8,0:3:0:0:
20,296,101572,2,0,L|120:156,1,160
164,100,102310,1,0,0:0:0:0:
232,152,102556,1,0,0:0:0:0:
316,144,102802,6,0,P|350:129|380:96,1,80,8|0,0:3|0:0,0:0:0:0:
232,152,103293,2,0,P|197:166|167:199,1,80
164,280,103785,1,8,0:0:0:0:
228,336,104031,1,0,0:0:0:0:
312,320,104277,1,0,0:0:0:0:
396,176,104769,6,0,L|376:96,1,80
331,242,105261,2,0,L|312:320,1,80,8|0,0:3|0:0,0:0:0:0:
254,183,105752,2,0,P|323:147|395:175,1,160,8|0,0:0|0:0,0:0:0:0:
312,320,106736,5,12,0:3:0:0:
236,296,106982,2,0,P|199:278|171:244,1,80,0|0,0:0|0:0,0:0:0:0:
168,86,107474,2,0,P|181:123|179:163,1,80,8|0,0:3|1:0,0:0:0:0:
36,232,108211,1,0,0:0:0:0:
180,164,108703,6,0,B|220:152|258:170|258:170|296:188|336:176,2,160,8|8|0,0:3|0:3|1:0,0:0:0:0:
208,240,109933,1,0,0:0:0:0:
160,304,110179,2,0,P|130:335|91:344,1,80,0|0,0:0|0:0,0:0:0:0:
92,264,110670,5,8,0:3:0:0:
128,192,110916,2,0,P|132:152|116:108,1,80
0,72,111408,2,0,P|-4:112|12:156,1,80,8|0,0:3|1:0,0:0:0:0:
208,188,112146,1,0,0:0:0:0:
372,222,112638,6,0,L|380:318,1,80,8|0,0:3|0:0,0:0:0:0:
280,222,113129,2,0,L|208:188,1,80,8|8,0:3|0:3,3:0:0:0:
328,142,113621,2,0,L|458:51,1,160,0|0,1:0|0:0,0:0:0:0:
468,140,114359,1,0,0:0:0:0:
404,200,114605,5,8,0:3:0:0:
452,272,114851,2,0,B|420:308|376:312,1,80
228,272,115343,1,8,0:3:0:0:
292,216,115588,2,0,P|312:288|264:352,1,160,0|0,1:0|0:0,0:0:0:0:
376,200,116572,6,0,L|388:32,2,160,8|8|0,0:3|0:3|1:0,0:0:0:0:
316,260,117802,1,0,0:0:0:0:
232,252,118047,2,0,P|200:260|164:296,1,80
144,372,118539,5,8,0:3:0:0:
144,372,118785,1,0,0:0:0:0:
52,300,119031,1,0,0:0:0:0:
52,300,119277,1,8,0:3:0:0:
136,220,119523,1,0,1:0:0:0:
136,220,119769,1,0,0:0:0:0:
72,112,120015,2,0,P|76:72|96:36,1,80,0|8,0:3|0:3,0:3:0:0:
216,52,120507,6,0,P|190:83|156:102,1,80,8|0,0:3|0:0,0:0:0:0:
58,218,120998,2,0,P|97:211|136:220,1,80,8|8,0:3|0:3,0:0:0:0:
212,292,121490,2,0,P|224:252|324:188,1,160,0|0,1:0|0:0,0:0:0:0:
400,188,122228,1,0,0:0:0:0:
284,88,122474,5,12,0:3:0:0:
224,140,122720,2,0,P|183:153|143:145,1,80
316,12,123211,2,0,P|348:40|364:80,1,80,8|0,0:3|1:0,0:0:0:0:
356,280,123949,1,0,0:0:0:0:
152,260,124441,6,0,P|175:184|227:125,2,160,8|8|0,0:3|0:3|1:0,0:0:0:0:
164,344,125670,1,0,0:0:0:0:
88,308,125916,2,0,P|76:272|80:224,1,80
112,152,126408,5,8,0:3:0:0:
168,84,126654,2,0,P|188:116|196:160,1,80
260,296,127146,2,0,P|254:256|260:216,1,80,8|0,0:3|1:0,0:0:0:0:
414,126,127884,1,0,0:0:0:0:
424,288,128375,6,0,P|459:306|498:312,1,80,8|0,0:3|0:0,0:0:0:0:
431,203,128867,2,0,P|429:163|414:126,1,80,8|8,0:3|0:3,0:0:0:0:
355,235,129359,2,0,P|280:284|256:348,1,160,0|0,1:0|0:0,0:0:0:0:
176,380,130097,1,0,0:0:0:0:
92,356,130343,5,8,0:3:0:0:
136,206,130588,2,0,P|146:244|140:284,1,80
52,208,131080,1,8,0:3:0:0:
100,132,131326,2,0,P|176:136|220:212,1,160,0|0,1:0|0:0,0:0:0:0:
376,264,132310,6,0,B|420:260|436:216|436:216|424:172|452:140,2,160,8|8|0,0:3|0:3|1:0,0:0:0:0:
292,260,133539,1,0,0:0:0:0:
212,240,133785,2,0,P|236:200|272:180,1,80
292,260,134277,6,0,L|288:344,1,80,8|0,0:3|0:0,0:0:0:0:
132,224,134769,2,0,L|135:144,1,80,0|8,0:0|0:3,0:0:0:0:
212,240,135261,1,0,1:0:0:0:
160,308,135507,1,0,0:0:0:0:
80,288,135752,2,0,P|56:252|52:216,1,80,0|8,0:0|0:3,0:0:0:0:
135,144,136244,6,0,L|132:224,1,80,8|0,0:3|0:0,0:0:0:0:
216,116,136736,2,0,L|219:36,1,80,8|8,0:3|0:3,0:0:0:0:
304,96,137228,2,0,L|296:255,1,160,0|0,1:0|0:0,0:0:0:0:
296,340,137966,1,0,0:0:0:0:
368,300,138211,5,4,0:0:0:0:
368,300,138457,1,0,0:0:0:0:
452,300,138703,2,0,L|504:340,2,64,2|0|0,0:0|0:0|0:0,0:0:0:0:
312,136,140179,6,0,P|280:144|254:164,1,64,0|0,0:0|0:0,0:0:0:0:
192,216,140670,2,0,P|176:184|172:156,1,64,2|0,0:0|0:0,0:0:0:0:
228,92,141162,1,0,0:0:0:0:
144,76,141408,1,0,0:0:0:0:
204,16,141654,1,2,0:0:0:0:
192,216,142146,5,0,0:0:0:0:
192,216,142392,1,0,0:0:0:0:
260,264,142638,2,0,L|328:264,2,64,2|0|0,0:0|0:0|0:0,0:0:0:0:
116,232,144113,6,0,P|100:204|100:160,1,64
160,116,144605,2,0,P|176:144|176:188,1,64,2|0,0:0|0:0,0:0:0:0:
208,256,145097,1,0,0:0:0:0:
260,192,145343,1,0,0:0:0:0:
248,108,145588,1,2,0:0:0:0:
208,256,146080,6,0,L|270:270,1,64
352,280,146572,1,2,0:0:0:0:
432,260,146818,1,0,0:0:0:0:
376,200,147064,1,0,0:0:0:0:
376,200,147802,1,0,0:0:0:0:
320,140,148047,6,0,B|288:132|288:132|248:140,1,64
156,248,148539,2,0,B|188:256|188:256|228:248,1,64,2|0,0:0|0:0,0:0:0:0:
284,208,149031,1,0,0:0:0:0:
124,172,149400,1,2,0:0:0:0:
172,328,149769,1,0,0:0:0:0:
256,192,150015,12,0,151982,0:0:0:0:
192,260,153949,5,12,0:3:0:0:
116,228,154195,2,0,P|111:267|120:306,1,80,0|0,0:0|0:0,0:0:0:0:
188,176,154687,2,0,P|192:136|183:97,1,80,8|0,0:3|1:0,0:0:0:0:
32,152,155425,1,0,0:0:0:0:
188,176,155916,6,0,L|361:167,2,160,8|8|0,0:3|0:3|1:0,0:0:0:0:
128,240,157146,1,0,0:0:0:0:
212,264,157392,2,0,P|228:304|228:348,1,80
316,360,157884,5,8,0:3:0:0:
360,284,158129,2,0,P|352:244|356:204,1,80
232,104,158621,2,0,P|228:148|216:188,1,80,8|0,0:3|1:0,0:0:0:0:
100,304,159359,1,0,0:0:0:0:
232,104,159851,6,0,P|268:124|288:168,1,80,8|0,0:3|0:0,0:0:0:0:
429,183,160343,2,0,P|395:204|356:204,1,80,8|8,0:3|0:3,0:0:0:0:
261,317,160834,2,0,P|259:278|280:244,2,80,0|0|0,1:0|0:0|0:0,0:0:0:0:
344,304,161572,1,0,0:0:0:0:
388,232,161818,5,8,0:3:0:0:
288,140,162064,2,0,L|192:140,1,80
132,284,162556,1,8,0:3:0:0:
212,256,162802,2,0,P|184:216|76:220,1,160,0|0,1:0|0:0,0:0:0:0:
164,68,163785,6,0,L|344:88,2,160,8|8|0,0:3|0:3|1:0,0:0:0:0:
96,116,165015,1,0,0:0:0:0:
172,152,165261,2,0,P|196:180|204:236,1,80
104,304,165752,5,8,0:3:0:0:
120,220,165998,1,0,0:0:0:0:
240,296,166244,1,0,0:0:0:0:
256,380,166490,1,8,0:3:0:0:
376,292,166736,1,0,1:0:0:0:
392,208,166982,1,0,0:0:0:0:
412,128,167228,2,0,P|448:144|472:188,1,80,0|8,0:0|0:3,0:0:0:0:
316,232,167720,6,0,L|392:208,1,80,8|0,0:3|0:0,0:0:0:0:
196,172,168211,2,0,L|120:148,1,80,8|8,0:3|0:3,0:0:0:0:
256,124,168703,2,0,L|256:292,1,160,0|0,1:0|0:0,0:0:0:0:
256,368,169441,1,0,0:0:0:0:
256,284,169687,5,12,0:3:0:0:
180,252,169933,2,0,P|144:264|112:296,1,80
336,316,170425,2,0,P|372:304|404:272,1,80,8|0,0:3|1:0,0:0:0:0:
376,112,171162,1,0,0:0:0:0:
504,220,171654,6,0,L|488:380,2,160,8|8|0,0:3|0:3|1:0,0:0:0:0:
420,208,172884,1,0,0:0:0:0:
384,132,173129,2,0,L|296:140,1,80
220,148,173621,5,8,0:3:0:0:
264,219,173867,2,0,P|253:257|226:287,1,80
100,227,174359,2,0,L|180:220,1,80,8|0,0:3|1:0,0:0:0:0:
352,212,175097,1,0,0:0:0:0:
364,44,175588,6,0,P|324:40|284:64,1,80,8|0,0:3|0:0,0:0:0:0:
318,195,176080,2,0,P|342:163|344:124,1,80,8|8,0:3|0:3,0:0:0:0:
220,7,176572,2,0,P|207:83|260:140,1,160,0|0,1:0|0:0,0:0:0:0:
344,124,177310,1,0,0:0:0:0:
416,172,177556,5,8,0:3:0:0:
360,236,177802,2,0,P|348:276|352:320,1,80
500,180,178293,2,0,P|490:139|464:103,1,80,8|0,0:3|1:0,0:0:0:0:
308,44,179031,1,0,0:0:0:0:
416,172,179523,6,0,B|404:212|428:248|428:248|456:288|444:328,2,160,8|8|0,0:3|0:3|1:0,0:0:0:0:
368,100,180752,1,0,0:0:0:0:
328,176,180998,2,0,P|288:188|244:172,1,80
258,25,181490,6,0,L|288:100,1,80,8|0,0:3|0:0,0:0:0:0:
144,180,181982,2,0,L|173:105,1,80,0|8,0:0|0:3,0:0:0:0:
252,177,182474,1,0,1:0:0:0:
264,260,182720,1,0,0:0:0:0:
276,344,182966,2,0,P|312:360|356:364,1,80,0|8,0:0|0:3,0:0:0:0:
264,260,183457,6,0,P|224:272|196:308,1,80,8|0,0:3|0:0,0:0:0:0:
324,199,183949,2,0,P|291:177|252:176,1,80,8|8,0:3|0:3,3:0:0:0:
380,260,184441,2,0,P|404:188|352:124,1,160,0|0,1:0|0:0,0:0:0:0:
272,112,185179,1,0,0:0:0:0:
188,128,185425,6,0,P|148:132|92:112,2,80,12|0|0,0:3|0:0|0:0,0:0:0:0:
272,112,186162,2,0,P|312:108|368:128,2,80,8|0|0,0:3|1:0|0:0,0:0:0:0:
244,192,186900,2,0,L|256:288,1,80,0|8,0:0|0:3,0:0:0:0:
228,352,187392,6,0,P|188:328|172:288,1,80,8|0,0:3|0:0,0:0:0:0:
253,271,187884,1,8,0:3:0:0:
336,264,188129,2,0,P|332:303|309:334,1,80,8|0,0:3|1:0,3:0:0:0:
228,352,188621,1,0,0:0:0:0:
309,334,188867,2,0,L|392:348,1,80
468,324,189359,6,0,P|488:292|492:240,2,80,8|0|0,0:3|0:0|0:0,0:0:0:0:
408,264,190097,2,0,P|388:232|384:180,2,80,8|0|0,0:3|1:0|0:0,0:0:0:0:
464,200,190834,2,0,L|476:112,1,80,0|8,0:0|0:3,0:0:0:0:
432,48,191326,5,8,0:3:0:0:
332,132,191572,1,0,0:0:0:0:
360,4,191818,1,8,0:3:0:0:
412,124,192064,1,8,0:3:0:0:
300,56,192310,2,0,P|252:120|276:192,1,160,0|0,1:0|0:0,0:0:0:0:
320,264,193047,1,0,0:0:0:0:
280,340,193293,6,0,P|244:368|204:376,2,80,8|0|0,0:3|0:0|0:0,0:0:0:0:
320,264,194031,2,0,P|364:255|404:266,2,80,8|0|0,0:3|1:0|0:0,0:0:0:0:
236,264,194769,2,0,P|204:244|180:204,1,80,0|8,0:0|0:3,0:0:0:0:
264,184,195261,6,0,L|328:128,1,80,8|0,0:3|0:0,0:0:0:0:
336,48,195752,1,8,0:3:0:0:
256,76,195998,2,0,L|172:76,1,80,8|0,0:3|1:0,0:0:0:0:
92,76,196490,1,0,0:0:0:0:
24,128,196736,2,0,P|54:152|98:160,1,80
176,152,197228,5,8,0:3:0:0:
136,260,197474,1,0,0:0:0:0:
244,204,197720,1,0,0:0:0:0:
264,320,197966,1,8,0:3:0:0:
324,220,198211,2,0,P|320:176|300:144,1,80,0|0,1:0|0:0,0:0:0:0:
220,120,198703,2,0,L|200:32,1,80,0|8,0:0|0:3,0:0:0:0:
120,24,199195,5,8,0:3:0:0:
0,80,199441,1,0,0:0:0:0:
132,104,199687,1,8,0:3:0:0:
16,164,199933,1,8,0:3:0:0:
139,182,200179,2,0,L|120:24,1,160,0|0,1:0|0:0,0:0:0:0:
204,40,200916,1,0,0:0:0:0:
288,24,201162,5,4,0:0:0:0:
256,192,201285,12,0,209031,0:0:0:0:
