osu file format v12

[General]
AudioFilename: Owl City - Gold (Acoustic).MP3
AudioLeadIn: 0
PreviewTime: 107006
Countdown: 0
SampleSet: Soft
StackLeniency: 0.7
Mode: 0
LetterboxInBreaks: 0
WidescreenStoryboard: 1

[Editor]
Bookmarks: 147413,160213
DistanceSpacing: 1
BeatDivisor: 4
GridSize: 4

[Metadata]
Title:Gold (Acoustic)
TitleUnicode:Gold (Acoustic)
Artist:Owl City
ArtistUnicode:Owl City
Creator:HelloSCV
Version:Normal
Source:
Tags:The Midsummer Station Adam Young
BeatmapID:300421
BeatmapSetID:115642

[Difficulty]
HPDrainRate:3
CircleSize:3
OverallDifficulty:3
ApproachRate:5
SliderMultiplier:1.1
SliderTickRate:1

[Events]
//Background and Video events
0,0,"bg.jpg",0,0
//Break Periods
2,147606,159006
//Storyboard Layer 0 (Background)
//Storyboard Layer 1 (Fail)
//Storyboard Layer 2 (Pass)
//Storyboard Layer 3 (Foreground)
//Storyboard Sound Samples
//Background Colour Transformations
3,100,163,162,255

[TimingPoints]
6606,400,4,2,1,50,1,0
10606,-100,4,2,22,40,0,0
10806,-100,4,2,1,50,0,0
17006,-100,4,2,22,40,0,0
17206,-100,4,2,1,50,0,0
24406,-100,4,2,21,50,0,0
24606,-100,4,2,1,50,0,0
30806,-100,4,2,21,50,0,0
31006,-100,4,2,1,50,0,0
35406,-100,4,2,20,50,0,0
35606,-100,4,2,1,50,0,0
37206,-100,4,2,21,50,0,0
37406,-100,4,2,1,50,0,0
41806,-100,4,2,20,50,0,0
42006,-100,4,2,1,50,0,0
43406,-125,4,2,1,40,0,0
45006,-100,4,2,1,70,0,1
48806,-100,4,2,20,70,0,1
49006,-100,4,2,1,70,0,1
55206,-100,4,2,20,70,0,1
55406,-100,4,2,1,70,0,1
62806,-100,4,2,21,70,0,1
63006,-100,4,2,1,70,0,1
69206,-100,4,2,21,70,0,1
69406,-100,4,2,1,70,0,1
70606,-100,4,2,1,60,0,0
74406,-100,4,2,21,60,0,0
74606,-100,4,2,1,60,0,0
75606,-100,4,2,21,60,0,0
75806,-100,4,2,1,60,0,0
87206,-100,4,2,21,60,0,0
87406,-100,4,2,1,60,0,0
88406,-100,4,2,21,60,0,0
88606,-100,4,2,1,60,0,0
94806,-100,4,2,21,60,0,0
95006,-100,4,2,1,60,0,0
99406,-100,4,2,21,60,0,0
99606,-100,4,2,1,60,0,0
101206,-100,4,2,21,60,0,0
101406,-100,4,2,1,60,0,0
105806,-100,4,2,21,60,0,0
106006,-100,4,2,1,60,0,0
107406,-125,4,2,1,40,0,0
109006,-100,4,2,1,70,0,1
112806,-100,4,2,20,70,0,1
113006,-100,4,2,1,70,0,1
126806,-100,4,2,21,70,0,1
127006,-100,4,2,1,70,0,1
133206,-100,4,2,21,70,0,1
133406,-100,4,2,1,70,0,1
134206,-100,4,2,1,70,0,0
134606,-100,4,2,1,70,0,1
147406,-100,4,2,1,50,0,0
160206,-100,4,2,1,60,0,0
164006,-100,4,2,20,60,0,0
164206,-100,4,2,1,60,0,0
165206,-100,4,2,20,60,0,0
165406,-100,4,2,1,60,0,0
171406,-125,4,2,1,30,0,0
173006,-100,4,2,1,70,0,1
190806,-100,4,2,21,70,0,1
191006,-100,4,2,1,70,0,1
197206,-100,4,2,21,70,0,1
197406,-100,4,2,1,70,0,1
198206,-100,4,2,1,70,0,0
198606,-100,4,2,1,70,0,1
211406,-100,4,2,1,50,0,0
215206,-100,4,2,20,50,0,0
215406,-100,4,2,1,50,0,0
221606,-100,4,2,20,50,0,0
221806,-100,4,2,1,50,0,0
224206,-100,4,2,1,30,0,0
224306,-100,4,2,1,10,0,0
229006,-100,4,2,1,5,0,0

[Colours]
Combo1 : 40,148,255
Combo2 : 255,255,164
Combo3 : 164,209,255

[HitObjects]
52,312,6606,2,0,P|108:328|212:220,1,220,2|8,1:2|0:0,0:0:0:0:
204,116,7806,1,0,0:0:0:0:
260,112,8006,2,0,P|324:133|361:197,1,110,0|0,0:0|0:0,0:0:0:0:
354,220,8606,2,0,P|391:258|444:272,2,110,0|8|0,0:0|0:0|0:0,0:0:0:0:
244,212,9806,6,0,P|176:192|84:236,2,165,2|2|0,1:2|1:2|0:0,0:0:0:0:
292,240,11206,2,0,L|320:120,1,110,0|0,0:0|1:0,0:0:0:0:
332,80,11806,1,2,1:2:0:0:
436,40,12206,2,0,P|444:96|420:152,1,110,8|0,0:0|0:0,0:0:0:0:
316,160,13006,6,0,P|244:156|164:272,1,220,2|8,1:2|0:0,0:0:0:0:
176,376,14206,1,0,0:0:0:0:
124,364,14406,2,0,P|84:300|80:256,1,110
76,212,15006,2,0,P|72:156|40:108,1,110,0|8,0:0|0:0,0:0:0:0:
136,52,15806,1,0,0:0:0:0:
240,92,16206,6,0,P|312:136|388:120,2,165,2|2|0,1:2|1:2|0:0,0:0:0:0:
208,48,17606,2,0,L|164:164,1,110,0|0,0:0|1:0,0:0:0:0:
148,200,18206,1,2,1:2:0:0:
56,260,18606,2,0,P|100:300|152:308,1,110,8|0,0:0|0:0,0:0:0:0:
260,308,19406,5,2,1:2:0:0:
292,204,19806,2,0,P|312:144|348:112,1,110,0|8,0:0|0:0,0:0:0:0:
456,96,20606,1,0,0:0:0:0:
376,20,21006,2,0,L|264:32,2,110,0|0|8,0:0|0:0|0:0,0:0:0:0:
456,96,22206,1,0,0:0:0:0:
420,200,22606,5,2,1:2:0:0:
324,256,23006,2,0,L|296:320,2,55,0|2|8,0:0|1:2|0:0,0:0:0:0:
244,180,23806,1,0,0:0:0:0:
148,124,24206,2,0,P|180:88|240:72,2,110,0|2|8,0:0|1:2|0:0,0:0:0:0:
144,236,25406,1,0,0:0:0:0:
208,324,25806,5,2,1:2:0:0:
308,276,26206,2,0,P|356:300|392:348,1,110,0|8,0:0|0:0,0:0:0:0:
488,292,27006,1,0,0:0:0:0:
476,240,27206,2,0,L|456:124,1,110
443,78,27806,1,0,0:0:0:0:
336,56,28206,2,0,P|284:68|236:112,1,110,8|0,0:0|0:0,0:0:0:0:
224,212,29006,5,2,1:2:0:0:
168,208,29206,2,0,L|96:204,2,55,0|0|2,0:0|0:0|1:2,0:0:0:0:
204,252,29806,2,0,L|284:340,1,110,8|0,0:0|0:0,0:0:0:0:
316,372,30406,2,0,P|384:324|476:344,1,165,0|2,0:0|1:2,0:0:0:0:
472,224,31406,1,8,0:0:0:0:
432,120,31806,1,0,0:0:0:0:
332,168,32206,6,0,P|276:164|224:128,1,110,2|0,1:2|0:0,0:0:0:0:
160,52,33006,2,0,P|140:28|116:8,2,55,8|0|0,0:0|0:0|0:0,0:0:0:0:
136,104,33606,2,0,P|136:160|172:212,1,110
208,240,34206,1,0,0:0:0:0:
284,160,34606,6,0,L|272:96,2,55,8|0|0,0:0|0:0|0:0,0:0:0:0:
296,216,35206,2,0,P|316:268|368:312,1,110
404,328,35806,1,0,0:0:0:0:
456,232,36206,1,8,0:0:0:0:
432,124,36606,1,0,0:0:0:0:
432,124,36806,2,0,P|368:132|304:56,1,165,0|2,0:0|1:2,0:0:0:0:
196,72,37806,2,0,P|208:128|240:176,1,110,8|0,0:0|0:0,0:0:0:0:
228,280,38606,6,0,P|282:275|324:242,1,110,2|0,1:2|0:0,0:0:0:0:
408,168,39406,2,0,P|424:192|432:224,2,55,8|0|0,0:0|0:0|0:0,0:0:0:0:
360,140,40006,2,0,P|312:120|280:72,1,110
268,20,40606,1,0,0:0:0:0:
160,48,41006,6,0,L|104:24,2,55,8|0|0,0:0|0:0|0:0,0:0:0:0:
128,92,41606,2,0,L|156:216,1,110
164,252,42206,1,0,0:0:0:0:
272,276,42606,1,8,0:0:0:0:
348,196,43006,1,2,1:2:0:0:
316,92,43406,6,0,P|364:88|408:108,1,88
444,204,44206,2,0,P|431:250|397:284,1,88,0|0,0:0|0:0,0:0:0:0:
296,292,45006,6,0,P|252:264|192:256,1,110,6|0,1:2|0:0,0:0:0:0:
96,304,45806,2,0,P|80:332|64:352,2,55,8|0|0,0:0|0:0|0:0,0:0:0:0:
112,252,46406,2,0,P|116:196|88:140,1,110
60,104,47006,2,0,L|180:96,1,110,0|8,0:0|0:0,0:0:0:0:
276,120,47806,1,0,0:0:0:0:
368,56,48206,5,2,1:2:0:0:
392,164,48606,2,0,L|416:276,1,110,0|8,0:0|0:0,0:0:0:0:
308,252,49406,1,0,0:0:0:0:
228,328,49806,1,0,0:0:0:0:
184,228,50206,2,0,P|148:200|76:196,1,110,2|8,1:2|0:0,0:0:0:0:
104,304,51006,1,0,0:0:0:0:
184,228,51406,6,0,L|272:144,1,110,2|0,1:2|0:0,0:0:0:0:
372,128,52206,2,0,L|352:72,2,55,8|0|0,0:0|0:0|0:0,0:0:0:0:
428,120,52806,2,0,L|416:240,1,110
412,284,53406,2,0,P|368:272|300:304,1,110,0|8,0:0|0:0,0:0:0:0:
220,360,54206,1,0,0:0:0:0:
148,276,54606,5,2,1:2:0:0:
140,168,55006,2,0,P|196:176|236:216,1,110,0|8,0:0|0:0,0:0:0:0:
252,320,55806,1,0,0:0:0:0:
360,344,56206,1,0,0:0:0:0:
452,288,56606,2,0,P|476:236|468:176,1,110,2|8,1:2|0:0,0:0:0:0:
424,84,57406,1,0,0:0:0:0:
356,172,57806,6,0,P|304:184|248:164,1,110,6|0,1:2|0:0,0:0:0:0:
200,68,58606,2,0,P|252:56|308:76,1,110,8|0,0:0|0:0,0:0:0:0:
356,172,59406,1,0,0:0:0:0:
352,280,59806,1,0,0:0:0:0:
264,344,60206,2,0,L|140:324,1,110,8|0,0:0|0:0,0:0:0:0:
92,236,61006,5,2,1:2:0:0:
104,128,61406,2,0,L|112:68,2,55,0|2|8,0:0|1:2|0:0,0:0:0:0:
192,192,62206,1,0,0:0:0:0:
252,100,62606,2,0,P|292:68|356:60,1,110,0|2,0:0|1:2,0:0:0:0:
340,168,63406,1,8,0:0:0:0:
264,244,63806,1,0,0:0:0:0:
156,232,64206,6,0,P|120:188|116:124,1,110,2|0,1:2|0:0,0:0:0:0:
84,32,65006,2,0,P|132:28|188:56,1,110,8|0,0:0|0:0,0:0:0:0:
268,128,65806,1,0,0:0:0:0:
372,160,66206,2,0,P|424:160|476:132,2,110,0|8|0,0:0|0:0|0:0,0:0:0:0:
348,52,67406,5,2,1:2:0:0:
268,128,67806,2,0,L|220:176,2,55,0|2|8,0:0|1:2|0:0,0:0:0:0:
216,32,68606,1,0,0:0:0:0:
152,120,69006,2,0,P|140:172|164:228,1,110,0|2,0:0|1:2,0:0:0:0:
256,276,69806,2,0,P|304:268|352:224,1,110,8|0,0:0|0:0,0:0:0:0:
392,128,70606,5,2,1:2:0:0:
288,160,71006,1,0,0:0:0:0:
180,136,71406,2,0,P|140:120|96:64,1,110,8|0,0:0|0:0,0:0:0:0:
68,24,72006,2,0,L|36:196,1,165
20,296,73006,1,8,0:0:0:0:
120,344,73406,1,0,0:0:0:0:
224,304,73806,5,2,1:2:0:0:
244,196,74206,2,0,P|296:216|328:272,2,110,0|8|0,0:0|0:0|0:0,0:0:0:0:
188,188,75206,2,0,P|124:172|72:88,1,165,0|2,0:0|1:2,0:0:0:0:
184,80,76206,1,8,0:0:0:0:
288,116,76606,1,0,0:0:0:0:
332,216,77006,5,2,1:2:0:0:
292,320,77406,2,0,P|348:332|404:308,1,110,0|8,0:0|0:0,0:0:0:0:
468,232,78206,1,0,0:0:0:0:
428,192,78406,2,0,P|404:136|412:84,1,110
428,36,79006,1,0,0:0:0:0:
320,36,79406,2,0,L|208:68,1,110,8|0,0:0|0:0,0:0:0:0:
136,144,80206,5,2,1:2:0:0:
240,176,80606,1,0,0:0:0:0:
348,152,81006,2,0,L|400:136,2,55,8|0|0,0:0|0:0|0:0,0:0:0:0:
360,204,81606,2,0,L|304:320,1,110,0|0,0:0|1:0,0:0:0:0:
284,352,82206,1,2,1:2:0:0:
196,284,82606,2,0,P|148:268|84:284,1,110,8|0,0:0|0:0,0:0:0:0:
4,344,83406,5,2,1:2:0:0:
16,236,83806,2,0,L|28:120,1,110,0|8,0:0|0:0,0:0:0:0:
120,68,84606,1,0,0:0:0:0:
188,156,85006,2,0,P|236:176|296:172,2,110,0|0|8,0:0|0:0|0:0,0:0:0:0:
256,68,86206,1,0,0:0:0:0:
364,88,86606,5,2,1:2:0:0:
396,192,87006,2,0,P|368:240|316:268,1,110,0|8,0:0|0:0,0:0:0:0:
212,276,87806,1,0,0:0:0:0:
128,204,88206,2,0,P|104:252|112:316,2,110,0|2|8,0:0|1:2|0:0,0:0:0:0:
224,152,89406,1,0,0:0:0:0:
272,52,89806,5,2,1:2:0:0:
380,40,90206,1,0,0:0:0:0:
452,120,90606,2,0,P|452:176|424:228,1,110,8|0,0:0|0:0,0:0:0:0:
396,268,91206,2,0,P|344:276|292:320,1,110
268,356,91806,1,0,0:0:0:0:
164,320,92206,2,0,P|140:292|120:216,1,110,8|0,0:0|0:0,0:0:0:0:
140,116,93006,5,2,1:2:0:0:
180,76,93206,2,0,L|220:36,2,55,0|0|2,0:0|0:0|1:2,0:0:0:0:
188,132,93806,2,0,L|212:252,1,110,8|0,0:0|0:0,0:0:0:0:
220,292,94406,2,0,P|288:248|372:256,1,165,0|2,0:0|1:2,0:0:0:0:
472,288,95406,1,8,0:0:0:0:
484,180,95806,1,0,0:0:0:0:
420,92,96206,6,0,L|304:36,1,110,2|0,1:2|0:0,0:0:0:0:
212,64,97006,2,0,L|144:64,2,55,8|0|0,0:0|0:0|0:0,0:0:0:0:
184,112,97606,2,0,P|156:172|200:264,1,165
292,304,98606,6,0,P|280:336|256:356,2,55,8|0|0,0:0|0:0|0:0,0:0:0:0:
292,248,99206,2,0,P|328:184|424:172,1,165
508,220,100206,1,8,0:0:0:0:
500,112,100606,1,0,0:0:0:0:
500,112,100806,2,0,P|448:88|336:84,1,165,0|2,0:0|1:2,0:0:0:0:
248,140,101806,2,0,P|212:172|148:196,1,110,8|0,0:0|0:0,0:0:0:0:
48,208,102606,5,2,1:2:0:0:
108,300,103006,1,0,0:0:0:0:
216,324,103406,2,0,L|256:368,2,55,8|0|0,0:0|0:0|0:0,0:0:0:0:
268,308,104006,2,0,L|300:128,1,165,0|0,0:0|0:0,0:0:0:0:
380,72,105006,6,0,P|400:104|404:136,2,55,8|0|0,0:0|0:0|0:0,0:0:0:0:
332,44,105606,2,0,P|256:44|192:116,1,165
172,212,106606,1,8,0:0:0:0:
84,280,107006,1,2,1:2:0:0:
184,320,107406,6,0,L|280:288,1,88
328,200,108206,2,0,L|424:168,1,88
488,96,109006,6,0,P|448:72|384:68,1,110,6|0,1:2|0:0,0:0:0:0:
276,76,109806,2,0,L|196:40,2,55,8|0|0,0:0|0:0|0:0,0:0:0:0:
284,132,110406,2,0,P|256:184|272:244,1,110
300,276,111006,2,0,P|307:329|280:376,1,110,0|8,0:0|0:0,0:0:0:0:
200,304,111806,1,0,0:0:0:0:
96,336,112206,5,0,1:1:0:0:
88,228,112606,2,0,L|80:112,1,110,0|8,0:0|0:0,0:0:0:0:
176,68,113406,1,0,0:0:0:0:
260,140,113806,1,0,0:0:0:0:
368,160,114206,2,0,P|424:148|472:100,2,110,2|8|0,1:2|0:0|0:0,0:0:0:0:
260,140,115406,6,0,P|212:172|184:220,1,110,2|0,1:2|0:0,0:0:0:0:
180,324,116206,2,0,L|200:384,2,55,8|0|0,0:0|0:0|0:0,0:0:0:0:
144,284,116806,2,0,P|96:260|28:268,1,110
4,304,117406,2,0,L|12:192,1,110,0|8,0:0|0:0,0:0:0:0:
96,120,118206,1,0,0:0:0:0:
204,120,118606,5,2,1:2:0:0:
292,184,119006,2,0,L|316:236,2,55,0|2|8,0:0|1:2|0:0,0:0:0:0:
304,76,119806,1,0,0:0:0:0:
412,104,120206,1,0,0:0:0:0:
448,208,120606,2,0,L|464:264,2,55,2|0|8,1:2|0:0|0:0,0:0:0:0:
368,284,121406,1,0,0:0:0:0:
260,276,121806,6,0,L|152:240,1,110,6|0,1:2|0:0,0:0:0:0:
144,132,122606,2,0,L|248:166,1,110,8|0,0:0|0:0,0:0:0:0:
348,212,123406,1,0,0:0:0:0:
352,320,123806,1,0,0:0:0:0:
248,292,124206,2,0,P|200:288|132:308,1,110
44,356,125006,5,2,1:2:0:0:
60,248,125406,2,0,L|68:188,2,55,0|2|8,0:0|1:2|0:0,0:0:0:0:
164,208,126206,1,0,0:0:0:0:
272,192,126606,2,0,L|380:244,1,110,0|2,0:0|1:2,0:0:0:0:
472,284,127406,1,8,0:0:0:0:
472,176,127806,1,0,0:0:0:0:
420,80,128206,6,0,P|388:40|320:24,1,110,2|0,1:2|0:0,0:0:0:0:
224,44,129006,2,0,P|180:84|168:140,1,110,8|0,0:0|0:0,0:0:0:0:
196,236,129806,1,0,0:0:0:0:
92,200,130206,2,0,P|72:148|76:88,2,110,0|8|0,0:0|0:0|0:0,0:0:0:0:
196,236,131406,5,2,1:2:0:0:
304,220,131806,2,0,L|352:264,2,55,0|2|8,0:0|1:2|0:0,0:0:0:0:
232,136,132606,1,0,0:0:0:0:
340,124,133006,2,0,L|460:136,1,110,0|2,0:0|1:2,0:0:0:0:
508,228,133806,1,8,0:0:0:0:
496,336,134206,1,0,0:0:0:0:
388,356,134606,6,0,P|336:356|276:332,1,110,6|0,1:2|0:0,0:0:0:0:
180,292,135406,2,0,L|120:304,2,55,8|0|0,0:0|0:0|0:0,0:0:0:0:
224,260,136006,2,0,P|256:216|260:152,1,110
272,108,136606,2,0,P|308:64|372:48,1,110,0|8,0:0|0:0,0:0:0:0:
368,156,137406,1,0,0:0:0:0:
476,160,137806,5,2,1:2:0:0:
496,268,138206,2,0,L|508:336,2,55,0|2|8,0:0|1:2|0:0,0:0:0:0:
400,324,139006,1,0,0:0:0:0:
292,300,139406,1,0,0:0:0:0:
220,216,139806,2,0,L|152:224,2,55,2|0|8,1:2|0:0|0:0,0:0:0:0:
328,192,140606,1,0,0:0:0:0:
408,120,141006,6,0,P|368:88|300:88,1,110,0|0,1:1|0:0,0:0:0:0:
200,80,141806,2,0,L|144:44,2,55,8|0|0,0:0|0:0|0:0,0:0:0:0:
232,124,142406,2,0,P|248:180|240:232,1,110
208,276,143006,2,0,L|320:308,1,110,0|8,0:0|0:0,0:0:0:0:
420,336,143806,1,0,0:0:0:0:
384,228,144206,5,2,1:2:0:0:
432,128,144606,2,0,L|476:92,2,55,0|2|8,0:0|1:2|0:0,0:0:0:0:
324,132,145406,1,0,0:0:0:0:
224,88,145806,1,0,0:0:0:0:
116,112,146206,2,0,L|88:228,1,110,2|8,1:2|0:0,0:0:0:0:
108,328,147006,1,0,0:0:0:0:
216,356,147406,5,4,0:0:0:0:
208,228,160206,6,0,L|112:156,2,110,2|0|8,1:2|0:0|0:0,0:0:0:0:
316,220,161406,1,0,0:0:0:0:
420,260,161806,2,0,P|428:212|404:152,1,110
384,104,162406,2,0,L|408:48,2,55,0|8|0,0:0|0:0|0:0,0:0:0:0:
332,120,163006,1,0,0:0:0:0:
224,116,163406,6,0,P|180:152|160:208,2,110,2|0|8,1:2|0:0|0:2,0:0:0:0:
268,216,164606,1,0,0:0:0:0:
196,300,165006,2,0,P|144:308|88:280,1,110,0|2,0:0|1:2,0:0:0:0:
56,244,165606,2,0,P|52:212|44:184,2,55,0|8|0,0:0|0:0|0:0,0:0:0:0:
40,296,166206,1,0,0:0:0:0:
148,308,166606,6,0,P|196:300|252:264,1,110,2|0,1:2|0:0,0:0:0:0:
324,188,167406,1,8,0:0:0:0:
432,192,167806,2,0,L|476:232,2,55
388,92,168606,1,0,0:0:0:0:
280,84,169006,2,0,L|172:112,1,110,8|0,0:0|0:0,0:0:0:0:
88,184,169806,5,2,1:2:0:0:
192,220,170206,2,0,L|228:276,2,55,0|2|8,0:0|1:2|0:0,0:0:0:0:
88,184,171006,1,2,1:2:0:0:
176,116,171406,6,0,L|272:128,1,88,0|0,0:0|0:0,0:0:0:0:
308,228,172206,2,0,L|404:240,1,88
320,320,173006,6,0,P|264:312|224:268,1,110,6|0,1:2|0:0,0:0:0:0:
164,184,173806,2,0,L|116:156,2,55,8|0|0,0:0|0:0|0:0,0:0:0:0:
204,148,174406,2,0,L|320:156,1,110
368,160,175006,2,0,P|344:216|356:264,1,110,0|8,0:0|0:0,0:0:0:0:
440,332,175806,1,0,0:0:0:0:
336,364,176206,5,2,1:2:0:0:
236,320,176606,2,0,L|180:272,2,55,0|2|8,0:0|1:2|0:0,0:0:0:0:
272,216,177406,1,0,0:0:0:0:
224,116,177806,1,0,0:0:0:0:
116,120,178206,2,0,L|68:160,2,55,2|0|8,1:2|0:0|0:0,0:0:0:0:
172,24,179006,1,0,0:0:0:0:
280,36,179406,6,0,P|316:84|324:136,1,110,2|0,1:2|0:0,0:0:0:0:
344,240,180206,2,0,P|364:260|392:272,2,55,8|0|0,0:0|0:0|0:0,0:0:0:0:
292,220,180806,2,0,P|236:212|176:236,1,110
148,268,181406,2,0,L|160:144,1,110,0|8,0:0|0:0,0:0:0:0:
168,48,182206,1,0,0:0:0:0:
260,108,182606,5,2,1:2:0:0:
368,88,183006,2,0,L|424:64,2,55,0|2|8,0:0|1:2|0:0,0:0:0:0:
328,192,183806,1,0,0:0:0:0:
340,300,184206,1,0,0:0:0:0:
444,340,184606,2,0,L|496:364,2,55,2|0|8,1:2|0:0|0:0,0:0:0:0:
428,232,185406,1,0,0:0:0:0:
340,300,185806,6,0,L|228:320,1,110,6|0,1:2|0:0,0:0:0:0:
208,212,186606,2,0,L|96:172,1,110,8|0,0:0|0:0,0:0:0:0:
32,92,187406,1,0,0:0:0:0:
124,36,187806,1,0,0:0:0:0:
224,80,188206,2,0,P|268:104|332:96,1,110,8|0,0:0|0:0,0:0:0:0:
424,52,189006,5,2,1:2:0:0:
456,156,189406,2,0,L|472:212,2,55,0|2|8,0:0|1:2|0:0,0:0:0:0:
360,212,190206,1,0,0:0:0:0:
252,208,190606,2,0,P|200:192|164:144,1,110,0|2,0:0|1:2,0:0:0:0:
172,40,191406,2,0,P|224:56|260:104,1,110,8|0,0:0|0:0,0:0:0:0:
252,208,192206,6,0,L|316:316,1,110,2|0,1:2|0:0,0:0:0:0:
404,248,193006,2,0,L|512:288,1,110,8|0,0:0|0:0,0:0:0:0:
508,176,193806,1,0,0:0:0:0:
476,72,194206,2,0,P|440:32|384:16,2,110,0|8|0,0:0|0:0|0:0,0:0:0:0:
380,128,195406,5,2,1:2:0:0:
288,188,195806,2,0,L|264:244,2,55,0|2|8,0:0|1:2|0:0,0:0:0:0:
284,80,196606,1,0,0:0:0:0:
192,140,197006,2,0,L|84:156,1,110,0|2,0:0|1:2,0:0:0:0:
48,260,197806,2,0,L|156:244,1,110,8|0,0:0|0:0,0:0:0:0:
268,228,198606,6,0,P|318:239|363:291,1,110,6|0,1:2|0:0,0:0:0:0:
432,360,199406,2,0,P|456:356|488:340,2,55,8|0|0,0:0|0:0|0:0,0:0:0:0:
376,368,200006,2,0,L|256:356,1,110
212,348,200606,2,0,P|176:316|160:256,1,110,0|8,0:0|0:0,0:0:0:0:
192,152,201406,1,0,0:0:0:0:
84,176,201806,5,2,1:2:0:0:
116,72,202206,2,0,L|148:20,2,55,0|2|8,0:0|1:2|0:0,0:0:0:0:
192,152,203006,1,0,0:0:0:0:
300,164,203406,1,0,0:0:0:0:
404,132,203806,2,0,L|464:120,2,55,2|0|8,1:2|0:0|0:0,0:0:0:0:
324,56,204606,1,0,0:0:0:0:
300,164,205006,6,0,L|280:280,1,110,2|0,1:2|0:0,0:0:0:0:
172,272,205806,2,0,L|132:316,2,55,8|0|0,0:0|0:0|0:0,0:0:0:0:
192,220,206406,2,0,P|200:168|180:116,1,110
144,72,207006,2,0,P|192:48|256:48,1,110,0|8,0:0|0:0,0:0:0:0:
352,80,207806,1,0,0:0:0:0:
460,60,208206,5,2,1:2:0:0:
480,168,208606,2,0,L|464:232,2,55,0|2|8,0:0|1:2|0:0,0:0:0:0:
372,188,209406,1,0,0:0:0:0:
312,280,209806,1,0,0:0:0:0:
212,328,210206,2,0,L|156:344,2,55,2|0|8,1:2|0:0|0:0,0:0:0:0:
224,220,211006,1,0,0:0:0:0:
200,112,211406,6,0,P|168:72|112:48,2,110,6|0|8,1:2|0:0|0:0,0:0:0:0:
224,220,212606,1,0,0:0:0:0:
268,256,212806,2,0,P|312:272|384:260,1,110
476,220,213606,2,0,P|492:192|496:160,1,55,0|8,0:0|0:0,0:0:0:0:
496,60,214206,1,0,0:0:0:0:
388,32,214606,6,0,P|392:96|424:140,2,110,2|0|8,1:2|0:0|0:0,0:0:0:0:
496,60,215806,1,0,0:0:0:0:
508,116,216006,2,0,P|504:172|468:212,1,110,0|0,0:0|1:0,0:0:0:0:
416,224,216606,2,0,P|368:248|336:308,2,110,2|8|0,1:2|0:0|0:0,0:0:0:0:
440,332,217806,5,2,1:2:0:0:
344,384,218206,2,0,L|232:368,1,110,0|8,0:0|0:0,0:0:0:0:
148,300,219006,1,0,0:0:0:0:
144,244,219206,2,0,L|136:132,1,110
232,76,220006,2,0,L|288:80,1,55,0|8,0:0|0:0,0:0:0:0:
396,92,220606,1,0,0:0:0:0:
320,172,221006,6,0,P|300:224|300:280,2,110,2|0|8,1:2|0:0|0:0,0:0:0:0:
396,92,222206,1,0,0:0:0:0:
344,76,222406,2,0,P|296:76|244:112,1,110,0|0,0:0|1:0,0:0:0:0:
212,152,223006,2,0,P|168:192|112:200,2,110,2|8|0,1:2|0:0|0:0,0:0:0:0:
216,44,224206,5,4,0:0:0:0:
256,192,224306,12,0,229006,0:0:0:0:
