osu file format v12

[General]
AudioFilename: Owl City - Gold (Acoustic).MP3
AudioLeadIn: 0
PreviewTime: 107006
Countdown: 0
SampleSet: Soft
StackLeniency: 0.7
Mode: 0
LetterboxInBreaks: 0
WidescreenStoryboard: 0

[Editor]
Bookmarks: 147413,160213
DistanceSpacing: 1.1
BeatDivisor: 4
GridSize: 4

[Metadata]
Title:Gold (Acoustic)
TitleUnicode:Gold (Acoustic)
Artist:Owl City
ArtistUnicode:Owl City
Creator:HelloSCV
Version:Hard
Source:
Tags:The Midsummer Station Adam Young
BeatmapID:298731
BeatmapSetID:115642

[Difficulty]
HPDrainRate:5
CircleSize:4
OverallDifficulty:6
ApproachRate:7
SliderMultiplier:1.5
SliderTickRate:2

[Events]
//Background and Video events
0,0,"bg.jpg",0,0
//Break Periods
2,147606,159306
//Storyboard Layer 0 (Background)
//Storyboard Layer 1 (Fail)
//Storyboard Layer 2 (Pass)
//Storyboard Layer 3 (Foreground)
//Storyboard Sound Samples
//Background Colour Transformations
3,100,163,162,255

[TimingPoints]
6606,400,4,2,1,50,1,0
32206,-100,4,2,20,50,0,0
32406,-100,4,2,1,50,0,0
35406,-100,4,2,20,50,0,0
35606,-100,4,2,1,50,0,0
41806,-100,4,2,20,50,0,0
42006,-100,4,2,1,50,0,0
43406,-125,4,2,1,40,0,0
45006,-100,4,2,1,70,0,1
48806,-100,4,2,20,70,0,1
49006,-100,4,2,1,70,0,1
55206,-100,4,2,20,70,0,1
55406,-100,4,2,1,70,0,1
62806,-100,4,2,21,70,0,1
63006,-100,4,2,1,70,0,1
69206,-100,4,2,21,70,0,1
69406,-100,4,2,1,70,0,1
70606,-100,4,2,1,60,0,0
96206,-100,4,2,20,60,0,0
96406,-100,4,2,1,60,0,0
99406,-100,4,2,20,60,0,0
99606,-100,4,2,1,60,0,0
105806,-100,4,2,20,60,0,0
106006,-100,4,2,1,60,0,0
107406,-125,4,2,1,40,0,0
109006,-100,4,2,1,70,0,1
126806,-100,4,2,21,70,0,1
127006,-100,4,2,1,70,0,1
133206,-100,4,2,21,70,0,1
133406,-100,4,2,1,70,0,1
134206,-100,4,2,1,70,0,0
134606,-100,4,2,1,70,0,1
144806,-100,4,2,20,70,0,1
145006,-100,4,2,1,70,0,1
147406,-100,4,2,1,50,0,0
160206,-125,4,2,1,60,0,0
164006,-125,4,2,20,60,0,0
164206,-125,4,2,1,60,0,0
165206,-125,4,2,21,60,0,0
165406,-125,4,2,1,60,0,0
171406,-166.666666666667,4,2,1,30,0,0
173006,-100,4,2,1,70,0,1
190806,-100,4,2,21,70,0,1
191006,-100,4,2,1,70,0,1
197206,-100,4,2,21,70,0,1
197406,-100,4,2,1,70,0,1
198206,-100,4,2,1,70,0,0
198606,-100,4,2,1,70,0,1
208806,-100,4,2,20,70,0,1
209006,-100,4,2,1,70,0,1
211406,-125,4,2,1,50,0,0
215206,-125,4,2,20,50,0,0
215406,-125,4,2,1,50,0,0
221606,-125,4,2,20,50,0,0
221806,-125,4,2,1,50,0,0
224206,-125,4,2,1,30,0,0
224306,-125,4,2,1,10,0,0
229006,-125,4,2,1,5,0,0

[Colours]
Combo1 : 40,148,255
Combo2 : 255,255,164
Combo3 : 164,209,255

[HitObjects]
100,288,6606,1,2,1:2:0:0:
100,288,7006,2,0,L|160:236,1,75
236,212,7406,2,0,P|308:256|372:228,1,150,8|0,0:0|0:0,0:0:0:0:
436,196,8006,2,0,P|364:152|300:180,1,150
236,212,8606,1,0,0:0:0:0:
128,88,9006,1,8,0:0:0:0:
72,244,9406,1,0,0:0:0:0:
236,212,9806,5,2,1:2:0:0:
320,220,10006,2,0,P|360:232|392:264,1,75
408,332,10406,1,2,1:2:0:0:
384,253,10606,2,0,L|416:176,2,75,8|0|0,0:0|0:0|0:0,0:0:0:0:
328,312,11206,2,0,P|256:292|188:352,1,150,0|0,0:0|1:2,0:0:0:0:
197,331,11806,1,2,1:2:0:0:
64,232,12206,1,8,0:0:0:0:
108,72,12606,1,0,0:0:0:0:
272,48,13006,5,2,1:2:0:0:
272,48,13406,2,0,L|360:72,1,75
424,92,13806,2,0,P|392:160|440:232,1,150,8|0,0:0|0:0,0:0:0:0:
472,156,14406,2,0,L|308:172,1,150
240,176,15006,1,0,0:0:0:0:
88,244,15406,1,8,0:0:0:0:
252,256,15806,1,0,0:0:0:0:
116,164,16206,5,2,1:2:0:0:
116,164,16606,2,0,L|196:172,1,75,0|2,0:0|1:2,0:0:0:0:
272,180,17006,1,8,0:0:0:0:
356,176,17206,1,0,0:0:0:0:
400,104,17406,1,0,0:0:0:0:
376,24,17606,2,0,P|448:36|484:120,1,150,0|0,0:0|1:0,0:0:0:0:
484,98,18206,1,2,1:2:0:0:
416,248,18606,1,8,0:0:0:0:
252,252,19006,1,0,0:0:0:0:
156,120,19406,6,0,L|100:192,1,75,2|0,1:2|0:0,0:0:0:0:
28,196,19806,2,0,P|56:244|156:252,1,150,0|8,0:0|0:0,0:0:0:0:
280,164,20606,1,0,0:0:0:0:
356,196,20806,1,0,0:0:0:0:
440,172,21006,2,0,P|452:128|448:88,1,75
356,196,21406,2,0,P|344:240|348:280,1,75
440,172,21806,2,0,P|448:92|400:24,1,150,8|0,0:0|0:0,0:0:0:0:
252,72,22606,5,2,1:2:0:0:
88,48,23006,2,0,P|96:88|88:132,1,75,0|2,0:0|1:2,0:0:0:0:
68,200,23406,1,8,0:0:0:0:
68,200,23806,1,0,0:0:0:0:
116,268,24006,1,0,0:0:0:0:
196,260,24206,2,0,L|272:236,1,75,0|0,0:0|1:0,0:0:0:0:
116,268,24606,2,0,L|98:345,1,75,2|0,1:2|0:0,0:0:0:0:
148,196,25006,2,0,L|30:88,1,150,8|0,0:0|0:0,0:0:0:0:
240,36,25806,5,2,1:2:0:0:
328,148,26206,2,0,P|368:152|412:136,1,75
460,84,26606,2,0,P|436:164|476:236,1,150,8|0,0:0|0:0,0:0:0:0:
492,300,27206,2,0,P|436:344|336:336,1,150
288,308,27806,1,0,0:0:0:0:
240,148,28206,1,8,0:0:0:0:
128,268,28606,1,0,0:0:0:0:
288,308,29006,5,2,1:2:0:0:
308,228,29206,2,0,L|328:144,2,75,0|0|2,0:0|0:0|1:2,0:0:0:0:
224,224,29806,1,8,0:0:0:0:
172,160,30006,1,0,0:0:0:0:
188,80,30206,1,0,0:0:0:0:
264,48,30406,2,0,P|336:80|400:44,1,150,0|0,0:0|1:0,0:0:0:0:
395,50,31006,1,2,1:2:0:0:
460,100,31206,5,0,0:0:0:0:
440,180,31406,2,0,P|432:216|440:256,2,75,8|0|0,0:0|0:0|0:0,0:0:0:0:
372,132,32006,2,0,P|352:200|360:280,1,150
392,356,32606,1,0,0:0:0:0:
232,312,33006,6,0,P|196:312|152:332,1,75,8|0,0:0|0:0,0:0:0:0:
92,376,33406,1,0,0:0:0:0:
160,326,33606,2,0,P|172:256|128:180,1,150
68,144,34206,1,0,0:0:0:0:
232,120,34606,6,0,L|320:132,1,75,8|0,0:0|0:0,0:0:0:0:
384,104,35006,1,0,0:0:0:0:
364,184,35206,2,0,P|352:244|416:312,1,150
488,316,35806,2,0,P|484:280|456:244,2,75,0|2|8,0:0|1:2|0:0,0:0:0:0:
328,356,36606,1,0,0:0:0:0:
328,356,36806,2,0,P|296:288|216:276,1,150,0|0,0:0|1:0,0:0:0:0:
152,304,37406,1,2,1:2:0:0:
108,144,37806,6,0,L|88:68,1,75,8|0,0:0|0:0,0:0:0:0:
160,28,38206,2,0,L|179:100,1,75
220,172,38606,2,0,P|284:132|360:160,1,150,2|0,1:2|0:0,0:0:0:0:
404,216,39206,5,0,0:0:0:0:
432,296,39406,2,0,P|456:320|500:336,2,75,8|0|0,0:0|0:0|0:0,0:0:0:0:
404,216,40006,2,0,P|436:160|396:80,1,150
332,44,40606,1,0,0:0:0:0:
176,96,41006,6,0,P|136:96|92:80,2,75,8|0|0,0:0|0:0|0:0,0:0:0:0:
260,100,41606,2,0,P|300:160|284:244,1,150
240,300,42206,2,0,P|208:324|172:332,1,75,0|2,0:0|1:2,0:0:0:0:
92,332,42606,1,8,0:0:0:0:
112,168,43006,2,0,L|84:96,1,75,2|0,1:2|0:0,0:0:0:0:
16,56,43406,6,0,P|76:20|124:28,1,120
304,116,44206,2,0,P|244:152|196:144,1,120
197,144,45006,6,0,L|244:324,1,150,6|0,1:2|0:0,0:0:0:0:
308,324,45606,1,0,0:0:0:0:
344,248,45806,2,0,P|380:232|416:232,2,75,8|0|0,0:0|0:0|0:0,0:0:0:0:
308,324,46406,2,0,P|280:356|240:368,1,75
168,356,46806,1,0,0:0:0:0:
108,300,47006,2,0,P|112:228|52:180,1,150,0|8,0:0|0:0,0:0:0:0:
92,20,47806,1,0,0:0:0:0:
256,36,48206,5,2,1:2:0:0:
288,112,48406,1,0,0:0:0:0:
360,152,48606,2,0,P|416:164|496:120,1,150,0|8,0:0|0:0,0:0:0:0:
456,284,49406,1,0,0:0:0:0:
300,232,49806,1,0,0:0:0:0:
224,260,50006,1,0,1:0:0:0:
144,248,50206,2,0,P|80:204|56:136,2,150,2|8|0,1:2|0:0|0:0,0:0:0:0:
300,232,51406,6,0,P|368:192|440:216,1,150,2|0,1:2|0:0,0:0:0:0:
488,272,52006,1,0,0:0:0:0:
512,192,52206,2,0,P|512:152|496:108,2,75,8|0|0,0:0|0:0|0:0,0:0:0:0:
432,208,52806,2,0,P|412:240|408:292,1,75,0|0,0:0|0:0,0:0:0:0:
416,360,53206,1,0,0:0:0:0:
340,328,53406,2,0,P|332:244|360:180,1,150,0|8,0:0|0:0,0:0:0:0:
476,68,54206,1,0,0:0:0:0:
316,100,54606,5,2,1:2:0:0:
236,88,54806,1,0,0:0:0:0:
184,24,55006,2,0,L|212:184,1,150,0|8,0:0|0:0,0:0:0:0:
316,300,55806,1,0,0:0:0:0:
384,148,56206,1,0,0:0:0:0:
316,100,56406,1,0,1:0:0:0:
236,88,56606,2,0,L|384:48,1,150,2|8,1:2|0:0,0:0:0:0:
472,188,57406,1,0,0:0:0:0:
376,320,57806,6,0,L|296:312,1,75,6|0,1:2|0:0,0:0:0:0:
221,220,58206,2,0,L|296:228,1,75
172,284,58606,2,0,P|148:252|180:152,1,150,8|0,0:0|0:0,0:0:0:0:
248,116,59206,1,0,0:0:0:0:
284,40,59406,2,0,L|372:56,1,75,0|0,0:0|0:0,0:0:0:0:
440,64,59806,1,0,0:0:0:0:
440,64,60206,2,0,P|424:144|472:196,1,150,8|0,0:0|0:0,0:0:0:0:
392,340,61006,6,0,L|308:316,1,75,2|0,1:2|0:0,0:0:0:0:
240,304,61406,1,0,0:0:0:0:
196,232,61606,2,0,L|144:288,1,75,2|8,1:2|0:0,0:0:0:0:
36,164,62206,1,0,0:0:0:0:
168,40,62606,2,0,P|248:36|308:72,1,150,0|2,0:0|1:2,0:0:0:0:
372,236,63406,2,0,P|292:240|232:204,1,150,8|0,0:0|0:0,0:0:0:0:
168,40,64206,6,0,L|144:124,1,75,2|0,1:2|0:0,0:0:0:0:
47,200,64606,2,0,L|68:128,1,75,0|0,0:0|0:0,0:0:0:0:
124,220,65006,2,0,P|168:212|244:284,1,150,8|0,0:0|0:0,0:0:0:0:
242,276,65806,2,0,L|296:216,1,75,0|0,0:0|0:0,0:0:0:0:
336,152,66206,2,0,P|364:184|372:224,1,75
400,292,66606,2,0,P|464:300|524:240,1,150,8|0,0:0|0:0,0:0:0:0:
464,92,67406,5,2,1:2:0:0:
300,76,67806,2,0,L|220:68,2,75,0|2|8,0:0|1:2|0:0,0:0:0:0:
456,128,68606,1,0,0:0:0:0:
312,48,69006,2,0,L|296:204,1,150,0|2,0:0|1:2,0:0:0:0:
156,284,69806,2,0,L|171:134,1,150,8|0,0:0|0:0,0:0:0:0:
312,48,70606,5,2,1:2:0:0:
448,140,71006,2,0,P|424:168|384:188,1,75
308,200,71406,2,0,P|232:176|176:220,1,150,8|0,0:0|0:0,0:0:0:0:
120,268,72006,2,0,P|196:292|252:248,1,150,0|0,0:0|0:0,0:0:0:0:
308,200,72606,1,0,0:0:0:0:
288,36,73006,1,8,0:0:0:0:
124,56,73406,1,0,0:0:0:0:
144,220,73806,5,2,1:2:0:0:
144,220,74206,2,0,L|220:192,1,75,0|2,0:0|1:2,0:0:0:0:
292,164,74606,1,8,0:0:0:0:
372,180,74806,1,0,0:0:0:0:
400,256,75006,1,0,0:0:0:0:
356,324,75206,2,0,P|416:276|488:300,1,150,0|0,0:0|1:0,0:0:0:0:
432,360,75806,1,2,1:2:0:0:
320,240,76206,1,8,0:0:0:0:
304,76,76606,1,0,0:0:0:0:
452,144,77006,5,2,1:2:0:0:
368,152,77206,1,0,0:0:0:0:
288,164,77406,2,0,P|260:184|240:220,1,75
320,240,77806,2,0,P|308:284|372:364,1,150,8|0,0:0|0:0,0:0:0:0:
388,284,78406,2,0,L|240:344,1,150
144,340,79006,1,0,0:0:0:0:
76,204,79406,1,8,0:0:0:0:
152,56,79806,1,0,0:0:0:0:
316,68,80206,5,2,1:2:0:0:
316,152,80406,2,0,P|324:188|344:220,2,75,0|0|2,0:0|0:0|1:2,0:0:0:0:
388,108,81006,1,8,0:0:0:0:
316,68,81206,2,0,P|280:72|248:96,1,75
204,164,81606,2,0,P|200:228|256:292,1,150,0|0,0:0|1:0,0:0:0:0:
336,296,82206,1,2,1:2:0:0:
176,328,82606,1,8,0:0:0:0:
288,204,83006,1,0,0:0:0:0:
452,232,83406,5,2,1:2:0:0:
328,124,83806,2,0,P|292:112|252:124,1,75
184,156,84206,2,0,P|120:180|44:140,1,150,8|0,0:0|0:0,0:0:0:0:
8,76,84806,1,0,0:0:0:0:
49,147,85006,2,0,L|64:228,1,75
184,156,85406,2,0,L|170:82,1,75
140,220,85806,2,0,P|208:232|260:176,1,150,8|0,0:0|0:0,0:0:0:0:
304,20,86606,5,2,1:2:0:0:
356,176,87006,2,0,L|388:264,1,75,0|2,0:0|1:2,0:0:0:0:
460,276,87406,2,0,P|432:312|332:312,1,150,8|0,0:0|0:0,0:0:0:0:
276,256,88006,1,0,0:0:0:0:
220,196,88206,2,0,P|256:176|296:176,1,75,0|0,0:0|1:0,0:0:0:0:
334,313,88606,2,0,P|298:333|258:333,1,75,0|0,1:1|0:0,0:0:0:0:
220,196,89006,2,0,P|286:174|352:216,1,150,8|0,0:0|0:0,0:0:0:0:
396,372,89806,5,2,1:2:0:0:
448,308,90006,2,0,P|464:272|464:232,1,75
452,156,90406,1,0,0:0:0:0:
380,112,90606,2,0,P|440:72|516:100,1,150,8|0,0:0|0:0,0:0:0:0:
452,156,91206,2,0,P|400:192|320:168,1,150
272,104,91806,1,0,0:0:0:0:
128,188,92206,1,8,0:0:0:0:
184,344,92606,1,0,0:0:0:0:
220,184,93006,5,2,1:2:0:0:
184,108,93206,1,0,0:0:0:0:
104,96,93406,2,0,P|68:88|32:60,1,75,0|2,0:0|1:2,0:0:0:0:
16,148,93806,2,0,L|32:228,1,75,8|0,0:0|0:0,0:0:0:0:
48,304,94206,1,0,0:0:0:0:
108,248,94406,2,0,P|196:232|248:276,1,150,0|0,0:0|1:0,0:0:0:0:
240,264,95006,1,2,1:2:0:0:
312,304,95206,5,0,0:0:0:0:
372,248,95406,2,0,P|380:212|372:160,1,75,8|0,0:0|0:0,0:0:0:0:
340,100,95806,1,0,0:0:0:0:
288,164,96006,2,0,P|260:104|300:28,1,150
376,16,96606,1,0,0:0:0:0:
212,16,97006,6,0,L|132:28,1,75,8|0,0:0|0:0,0:0:0:0:
76,80,97406,1,0,0:0:0:0:
152,112,97606,2,0,P|172:156|132:252,1,150
76,300,98206,1,0,0:0:0:0:
240,280,98606,6,0,L|328:264,2,75,8|0|0,0:0|0:0|0:0,0:0:0:0:
200,352,99206,2,0,P|160:300|184:216,1,150
240,168,99806,1,0,0:0:0:0:
286,101,100006,2,0,P|253:86|216:88,1,75,2|8,1:2|0:0,0:0:0:0:
352,184,100606,1,0,0:0:0:0:
352,184,100806,2,0,P|408:180|464:104,1,150,0|0,0:0|1:0,0:0:0:0:
472,28,101406,1,2,1:2:0:0:
316,76,101806,6,0,P|276:84|240:76,1,75,8|0,0:0|0:0,0:0:0:0:
224,156,102206,2,0,P|188:136|165:107,1,75,0|0,0:0|0:0,0:0:0:0:
112,172,102606,2,0,P|82:95|85:22,1,150,2|0,1:2|0:0,0:0:0:0:
242,77,103406,5,8,0:0:0:0:
324,96,103606,1,0,0:0:0:0:
352,176,103806,1,0,0:0:0:0:
316,252,104006,2,0,P|384:252|436:188,1,150
448,112,104606,1,0,0:0:0:0:
296,172,105006,6,0,P|256:192|236:224,1,75,8|0,0:0|0:0,0:0:0:0:
236,300,105406,1,0,0:0:0:0:
168,252,105606,2,0,P|108:236|32:284,1,150
16,360,106206,1,0,0:0:0:0:
35,278,106406,2,0,L|32:200,1,75,2|8,1:2|0:0,0:0:0:0:
160,96,107006,2,0,L|240:104,1,75,2|0,1:2|0:0,0:0:0:0:
308,72,107406,6,0,P|316:120|272:176,1,120,0|0,0:0|0:0,0:0:0:0:
152,292,108206,2,0,P|144:244|188:188,1,120,0|0,0:0|0:0,0:0:0:0:
216,352,109006,6,0,P|168:376|80:340,1,150,6|0,1:2|0:0,0:0:0:0:
60,264,109606,1,0,0:0:0:0:
88,188,109806,2,0,P|88:148|72:112,2,75,8|0|0,0:0|0:0|0:0,0:0:0:0:
140,248,110406,2,0,P|164:212|168:176,1,75
160,100,110806,1,0,0:0:0:0:
224,48,111006,2,0,P|308:36|364:76,1,150,0|8,0:0|0:0,0:0:0:0:
420,224,111806,1,0,0:0:0:0:
276,304,112206,6,0,L|184:312,1,75,2|0,1:2|0:0,0:0:0:0:
120,292,112606,1,0,0:0:0:0:
68,228,112806,2,0,P|102:212|139:213,1,75,2|8,1:2|0:0,0:0:0:0:
276,304,113406,1,0,0:0:0:0:
376,172,113806,1,0,0:0:0:0:
408,96,114006,2,0,P|372:88|332:100,1,75,0|2,1:0|1:2,0:0:0:0:
260,136,114406,1,0,0:0:0:0:
196,188,114606,2,0,P|148:204|52:156,1,150,8|0,0:0|0:0,0:0:0:0:
212,104,115406,6,0,P|268:144|272:224,1,150,2|0,1:2|0:0,0:0:0:0:
244,296,116006,1,0,0:0:0:0:
324,276,116206,2,0,P|344:244|352:200,2,75,8|0|0,0:0|0:0|0:0,0:0:0:0:
244,296,116806,2,0,P|168:264|96:296,1,150
44,336,117406,1,0,0:0:0:0:
56,172,117806,1,8,0:0:0:0:
200,88,118206,1,0,0:0:0:0:
360,132,118606,6,0,P|400:136|436:124,1,75,2|0,1:2|0:0,0:0:0:0:
388,56,119006,1,0,0:0:0:0:
308,72,119206,2,0,P|284:104|284:144,1,75,2|8,1:2|0:0,0:0:0:0:
328,296,119806,1,0,0:0:0:0:
180,228,120206,1,0,0:0:0:0:
100,204,120406,2,0,P|68:204|28:224,2,75,0|2|0,1:0|1:2|0:0,0:0:0:0:
180,228,121006,2,0,P|228:200|236:104,1,150,8|0,0:0|0:0,0:0:0:0:
396,60,121806,6,0,L|484:80,1,75,6|0,1:2|0:0,0:0:0:0:
424,188,122206,2,0,L|488:244,1,75
364,268,122606,2,0,P|304:256|228:308,1,150,8|0,0:0|0:0,0:0:0:0:
188,372,123206,1,0,0:0:0:0:
148,300,123406,2,0,L|124:208,1,75
104,148,123806,1,0,0:0:0:0:
104,148,124206,2,0,P|152:140|192:48,1,150,8|0,0:0|0:0,0:0:0:0:
360,44,125006,6,0,P|364:84|380:124,1,75,2|0,1:2|0:0,0:0:0:0:
440,168,125406,1,0,0:0:0:0:
375,116,125606,2,0,L|300:136,1,75,2|8,1:2|0:0,0:0:0:0:
180,244,126206,1,0,0:0:0:0:
68,104,126606,2,0,P|128:64|208:68,1,150,0|2,0:0|1:2,0:0:0:0:
315,206,127406,2,0,P|253:246|180:244,1,150,8|0,0:0|0:0,0:0:0:0:
328,312,128206,6,0,L|412:328,1,75,2|0,1:2|0:0,0:0:0:0:
428,208,128606,2,0,L|512:180,1,75,0|0,0:0|0:0,0:0:0:0:
440,80,129006,2,0,P|364:84|316:24,1,150,8|0,0:0|0:0,0:0:0:0:
236,28,129606,1,0,0:0:0:0:
180,88,129806,2,0,L|152:172,1,75
100,216,130206,1,0,0:0:0:0:
100,216,130606,2,0,P|168:240|232:188,1,150,8|0,0:0|0:0,0:0:0:0:
372,120,131406,6,0,P|352:86|322:63,2,75,2|0|0,1:2|0:0|0:0,0:0:0:0:
400,196,132006,2,0,P|432:204|476:192,1,75,2|8,1:2|0:0,0:0:0:0:
308,188,132606,1,0,0:0:0:0:
152,132,133006,2,0,P|136:188|172:280,1,150,0|2,0:0|1:2,0:0:0:0:
308,188,133806,2,0,P|324:132|288:40,1,150,8|0,0:0|0:0,0:0:0:0:
295,47,134606,6,0,L|432:140,1,150,6|0,1:2|0:0,0:0:0:0:
488,176,135206,1,0,0:0:0:0:
412,212,135406,2,0,L|396:300,2,75,8|0|0,0:0|0:0|0:0,0:0:0:0:
488,176,136006,2,0,L|472:100,1,75
448,24,136406,1,0,0:0:0:0:
392,84,136606,2,0,P|340:96|256:40,2,150,0|8|0,0:0|0:0|0:0,0:0:0:0:
484,220,137806,5,2,1:2:0:0:
428,280,138006,1,0,0:0:0:0:
348,300,138206,2,0,P|308:300|264:280,2,75,0|2|8,0:0|1:2|0:0,0:0:0:0:
332,136,139006,1,0,0:0:0:0:
168,104,139406,1,0,0:0:0:0:
96,140,139606,1,0,1:0:0:0:
52,208,139806,2,0,P|41:242|42:287,2,75,2|0|8,1:2|0:0|0:0,0:0:0:0:
208,260,140606,1,0,0:0:0:0:
372,244,141006,6,0,P|409:200|419:101,1,150,2|0,1:2|0:0,0:0:0:0:
396,32,141606,1,0,0:0:0:0:
476,44,141806,2,0,P|508:60|532:92,2,75,8|0|0,0:0|0:0|0:0,0:0:0:0:
396,32,142406,1,0,0:0:0:0:
316,48,142606,2,0,P|284:68|256:100,1,75
336,128,143006,2,0,P|304:180|336:268,1,150,0|8,0:0|0:0,0:0:0:0:
472,340,143806,1,0,0:0:0:0:
328,260,144206,5,2,1:2:0:0:
244,268,144406,1,0,0:0:0:0:
168,304,144606,2,0,B|128:316|108:348|108:348|88:316|48:308,1,150,0|8,0:0|0:0,0:0:0:0:
16,148,145406,1,0,0:0:0:0:
148,52,145806,1,0,0:0:0:0:
208,108,146006,1,0,1:0:0:0:
292,100,146206,2,0,B|328:88|359:96|359:96|400:108|440:92,1,150,2|8,1:2|0:0,0:0:0:0:
488,160,146806,2,0,P|416:184|328:172,1,150
280,124,147406,5,4,0:0:0:0:
232,252,160206,5,2,1:2:0:0:
232,252,160606,2,0,L|140:164,1,120,0|8,0:0|0:0,0:0:0:0:
20,56,161406,1,0,0:0:0:0:
100,32,161606,1,0,0:0:0:0:
176,68,161806,2,0,P|220:112|280:108,1,120
360,120,162406,2,0,L|416:176,2,60,0|8|0,0:0|0:0|0:0,0:0:0:0:
324,44,163006,1,0,0:0:0:0:
308,212,163406,5,2,1:2:0:0:
308,212,163806,2,0,L|300:336,1,120,0|8,0:0|0:0,0:0:0:0:
460,276,164606,1,0,0:0:0:0:
448,192,164806,1,0,0:0:0:0:
376,148,165006,2,0,P|344:124|256:140,1,120,0|2,0:0|1:2,0:0:0:0:
200,180,165606,2,0,P|168:192|136:192,2,60,0|8|0,0:0|0:0|0:0,0:0:0:0:
267,130,166206,1,0,0:0:0:0:
400,28,166606,5,2,1:2:0:0:
400,28,167006,2,0,L|436:148,1,120,0|8,0:0|0:0,0:0:0:0:
480,304,167806,1,0,0:0:0:0:
404,264,168006,2,0,P|360:260|292:308,1,120
260,376,168606,1,0,0:0:0:0:
212,308,168806,2,0,L|188:236,1,60,0|8,0:0|0:0,0:0:0:0:
136,92,169406,1,0,0:0:0:0:
292,152,169806,5,2,1:2:0:0:
448,88,170206,2,0,P|464:60|468:28,2,60,0|2|8,0:0|1:2|0:0,0:0:0:0:
292,152,171006,2,0,P|260:156|220:144,1,60,2|0,1:2|0:0,0:0:0:0:
192,80,171406,6,0,P|156:124|156:164,1,89.9999972534181
308,108,172206,2,0,P|344:64|344:24,1,89.9999972534181,0|0,0:0|0:0,0:0:0:0:
345,32,173006,6,0,L|404:176,1,150,6|0,1:2|0:0,0:0:0:0:
432,248,173606,1,0,0:0:0:0:
352,232,173806,2,0,P|312:240|276:260,1,75,8|0,0:0|0:0,0:0:0:0:
228,320,174206,1,0,0:0:0:0:
281,255,174406,2,0,P|212:236|148:280,1,150
124,356,175006,2,0,L|104:204,1,150,0|8,0:0|0:0,0:0:0:0:
80,44,175806,1,0,0:0:0:0:
228,112,176206,6,0,P|264:124|300:124,1,75,2|0,1:2|0:0,0:0:0:0:
376,92,176606,1,0,0:0:0:0:
428,28,176806,2,0,P|452:64|456:104,1,75,2|8,1:2|0:0,0:0:0:0:
408,252,177406,1,0,0:0:0:0:
244,224,177806,2,0,L|156:272,1,75,0|0,0:0|1:0,0:0:0:0:
104,296,178206,1,2,1:2:0:0:
100,212,178406,2,0,L|96:132,1,75,0|8,0:0|0:0,0:0:0:0:
220,28,179006,1,0,0:0:0:0:
288,180,179406,6,0,P|320:216|420:232,1,150,2|0,1:2|0:0,0:0:0:0:
484,188,180006,1,0,0:0:0:0:
470,108,180206,2,0,P|436:123|412:152,1,75,8|0,0:0|0:0,0:0:0:0:
416,232,180606,1,0,0:0:0:0:
368,300,180806,2,0,P|316:324|232:272,1,150
180,228,181406,2,0,P|232:204|316:256,2,150,0|8|0,0:0|0:0|0:0,0:0:0:0:
28,296,182606,6,0,L|28:212,1,75,2|0,1:2|0:0,0:0:0:0:
92,172,183006,1,0,0:0:0:0:
128,100,183206,2,0,L|80:24,1,75,2|8,1:2|0:0,0:0:0:0:
252,40,183806,1,0,0:0:0:0:
408,96,184206,1,0,0:0:0:0:
344,144,184406,1,0,1:0:0:0:
320,224,184606,2,0,P|324:276|384:360,1,150,2|8,1:2|0:0,0:0:0:0:
484,228,185406,1,0,0:0:0:0:
320,224,185806,6,0,L|236:224,1,75,6|0,1:2|0:0,0:0:0:0:
132,200,186206,2,0,L|48:200,1,75
180,136,186606,2,0,P|208:192|164:272,1,150,8|0,0:0|0:0,0:0:0:0:
112,320,187206,1,0,0:0:0:0:
173,266,187406,2,0,L|256:296,1,75
288,360,187806,1,0,0:0:0:0:
288,360,188206,2,0,P|336:304|408:300,1,150,8|0,0:0|0:0,0:0:0:0:
488,152,189006,6,0,P|456:132|408:124,1,75,2|0,1:2|0:0,0:0:0:0:
336,128,189406,1,0,0:0:0:0:
276,184,189606,2,0,P|308:204|356:212,1,75,2|8,1:2|0:0,0:0:0:0:
332,48,190206,1,0,0:0:0:0:
160,104,190606,2,0,P|132:144|136:248,1,150,0|2,0:0|1:2,0:0:0:0:
296,320,191406,2,0,P|340:299|388:207,1,150,8|0,0:0|0:0,0:0:0:0:
396,48,192206,6,0,P|360:48|320:64,1,75,2|0,1:2|0:0,0:0:0:0:
240,177,192606,2,0,P|275:164|304:140,1,75
168,140,193006,2,0,P|164:200|232:260,1,150,8|0,0:0|0:0,0:0:0:0:
308,264,193606,1,0,0:0:0:0:
372,216,193806,2,0,P|408:216|448:232,1,75
500,292,194206,2,0,L|488:136,1,150,0|8,0:0|0:0,0:0:0:0:
488,142,195006,1,0,0:0:0:0:
332,88,195406,6,0,L|256:116,2,75,2|0|0,1:2|0:0|0:0,0:0:0:0:
404,44,196006,1,2,1:2:0:0:
404,128,196206,1,8,0:0:0:0:
276,232,196606,1,0,0:0:0:0:
96,224,197006,2,0,P|48:184|24:100,1,150,0|2,0:0|1:2,0:0:0:0:
200,148,197806,2,0,P|224:220|200:300,1,150,8|0,0:0|0:0,0:0:0:0:
206,289,198606,6,0,L|344:212,1,150,6|0,1:2|0:0,0:0:0:0:
408,176,199206,1,0,0:0:0:0:
476,132,199406,2,0,P|448:104|412:96,1,75,8|0,0:0|0:0,0:0:0:0:
332,108,199806,1,0,0:0:0:0:
256,140,200006,2,0,L|108:92,1,150
56,156,200606,2,0,L|198:202,1,150,0|8,0:0|0:0,0:0:0:0:
360,160,201406,1,0,0:0:0:0:
448,20,201806,6,0,L|472:108,1,75,2|0,1:2|0:0,0:0:0:0:
456,176,202206,1,0,0:0:0:0:
444,256,202406,2,0,L|468:344,1,75,2|8,1:2|0:0,0:0:0:0:
300,296,203006,1,0,0:0:0:0:
136,308,203406,1,0,0:0:0:0:
156,228,203606,1,0,1:0:0:0:
212,168,203806,2,0,P|276:140|356:156,2,150,2|8|0,1:2|0:0|0:0,0:0:0:0:
136,308,205006,6,0,L|80:156,1,150,2|0,1:2|0:0,0:0:0:0:
124,96,205606,1,0,0:0:0:0:
196,56,205806,2,0,L|276:52,1,75,8|0,0:0|0:0,0:0:0:0:
344,88,206206,1,0,0:0:0:0:
356,168,206406,2,0,P|348:216|264:260,1,150
276,176,207006,2,0,L|384:300,2,150,0|8|0,0:0|0:0|0:0,0:0:0:0:
128,104,208206,5,2,1:2:0:0:
80,172,208406,1,0,0:0:0:0:
80,256,208606,2,0,P|96:312|172:372,1,150,0|8,0:0|0:0,0:0:0:0:
328,340,209406,1,0,0:0:0:0:
396,192,209806,2,0,P|380:160|376:112,1,75,0|0,0:0|1:0,0:0:0:0:
404,44,210206,2,0,P|360:80|264:76,1,150,2|8,1:2|0:0,0:0:0:0:
204,32,210806,2,0,L|276:176,1,150
312,240,211406,5,6,1:2:0:0:
312,240,211806,2,0,P|252:252|200:216,2,120,0|8|0,0:0|0:0|0:0,0:0:0:0:
380,192,212806,2,0,P|428:184|492:216,1,120
476,296,213406,1,0,0:0:0:0:
500,376,213606,1,0,0:0:0:0:
416,364,213806,2,0,L|292:352,1,120,8|0,0:0|0:0,0:0:0:0:
128,336,214606,5,2,1:2:0:0:
128,336,215006,2,0,P|84:288|28:280,2,120,0|8|0,0:0|0:0|0:0,0:0:0:0:
212,352,216006,2,0,P|272:328|296:272,1,120,0|0,0:0|1:0,0:0:0:0:
304,196,216606,1,2,1:2:0:0:
380,164,216806,1,0,0:0:0:0:
460,188,217006,2,0,L|392:76,1,120,8|0,0:0|0:0,0:0:0:0:
236,132,217806,5,2,1:2:0:0:
236,132,218206,2,0,P|180:160|120:152,2,120,0|8|0,0:0|0:0|0:0,0:0:0:0:
260,52,219206,2,0,P|296:76|312:160,1,120
296,228,219806,1,0,0:0:0:0:
376,204,220006,1,0,0:0:0:0:
408,128,220206,2,0,P|451:167|457:225,1,120,8|0,0:0|0:0,0:0:0:0:
312,308,221006,5,2,1:2:0:0:
312,308,221406,2,0,L|184:284,1,120,0|8,0:0|0:0,0:0:0:0:
156,208,222006,2,0,L|80:228,1,60
40,284,222406,2,0,P|20:248|40:168,1,120,0|0,0:0|1:0,0:0:0:0:
104,124,223006,1,2,1:2:0:0:
188,108,223206,1,0,0:0:0:0:
256,156,223406,2,0,P|288:168|316:172,1,60,8|0,0:0|0:0,0:0:0:0:
376,116,223806,2,0,P|380:72|444:36,1,120,0|4,0:0|0:0,0:0:0:0:
256,192,224306,12,0,229006,0:0:0:0:
