osu file format v12

[General]
AudioFilename: Owl City - Gold (Acoustic).MP3
AudioLeadIn: 0
PreviewTime: 107006
Countdown: 0
SampleSet: Soft
StackLeniency: 0.7
Mode: 0
LetterboxInBreaks: 0
WidescreenStoryboard: 1

[Editor]
Bookmarks: 147413,160213
DistanceSpacing: 1
BeatDivisor: 4
GridSize: 4

[Metadata]
Title:Gold (Acoustic)
TitleUnicode:Gold (Acoustic)
Artist:Owl City
ArtistUnicode:Owl City
Creator:HelloSCV
Version:Easy
Source:
Tags:The Midsummer Station Adam Young
BeatmapID:303436
BeatmapSetID:115642

[Difficulty]
HPDrainRate:1
CircleSize:3
OverallDifficulty:1
ApproachRate:2
SliderMultiplier:0.8
SliderTickRate:1

[Events]
//Background and Video events
0,0,"bg.jpg",0,0
//Break Periods
2,147605,158646
//Storyboard Layer 0 (Background)
//Storyboard Layer 1 (Fail)
//Storyboard Layer 2 (Pass)
//Storyboard Layer 3 (Foreground)
//Storyboard Sound Samples
//Background Colour Transformations
3,100,163,162,255

[TimingPoints]
6606,400,4,2,1,50,1,0
20206,-100,4,2,22,40,0,0
20406,-100,4,2,1,50,0,0
23406,-100,4,2,22,40,0,0
23606,-100,4,2,1,50,0,0
42606,-100,4,2,22,40,0,0
42806,-100,4,2,1,50,0,0
43406,-100,4,2,1,40,0,0
45006,-100,4,2,1,70,0,1
61806,-100,4,2,22,60,0,1
62006,-100,4,2,1,70,0,1
68206,-100,4,2,22,60,0,1
68406,-100,4,2,1,70,0,1
70606,-100,4,2,1,60,0,0
74606,-100,4,2,22,50,0,0
74806,-100,4,2,1,60,0,0
81006,-100,4,2,22,50,0,0
81206,-100,4,2,1,60,0,0
100206,-100,4,2,22,50,0,0
100406,-100,4,2,1,60,0,0
106606,-100,4,2,22,50,0,0
106806,-100,4,2,1,60,0,0
107406,-100,4,2,1,40,0,0
109006,-100,4,2,1,70,0,1
113006,-100,4,2,22,60,0,1
113206,-100,4,2,1,70,0,1
114606,-100,4,2,22,60,0,1
114806,-100,4,2,1,70,0,1
121006,-100,4,2,22,60,0,1
121206,-100,4,2,1,70,0,1
125806,-100,4,2,22,60,0,1
126006,-100,4,2,1,70,0,1
132206,-100,4,2,22,60,0,1
132406,-100,4,2,1,70,0,1
134206,-100,4,2,1,70,0,0
134606,-100,4,2,1,70,0,1
138606,-100,4,2,22,60,0,1
138806,-100,4,2,1,70,0,1
145006,-100,4,2,22,60,0,1
145206,-100,4,2,1,70,0,1
147406,-100,4,2,1,50,0,0
160206,-100,4,2,1,60,0,0
170606,-100,4,2,22,50,0,0
170806,-100,4,2,1,60,0,0
171406,-100,4,2,1,30,0,0
173006,-100,4,2,1,70,0,1
189806,-100,4,2,22,60,0,1
190006,-100,4,2,1,70,0,1
191406,-100,4,2,22,60,0,1
191606,-100,4,2,1,70,0,1
196206,-100,4,2,22,60,0,1
196406,-100,4,2,1,70,0,1
197806,-100,4,2,22,60,0,1
198006,-100,4,2,1,70,0,1
198206,-100,4,2,1,70,0,0
198606,-100,4,2,1,70,0,1
211406,-100,4,2,1,50,0,0
213806,-100,4,2,22,40,0,0
214006,-100,4,2,1,50,0,0
217006,-100,4,2,22,40,0,0
217206,-100,4,2,1,50,0,0
220206,-100,4,2,22,40,0,0
220406,-100,4,2,1,50,0,0
223406,-100,4,2,22,40,0,0
223606,-100,4,2,1,50,0,0
224206,-100,4,2,1,30,0,0
224306,-100,4,2,1,10,0,0
229006,-100,4,2,1,5,0,0

[Colours]
Combo1 : 40,148,255
Combo2 : 255,255,164
Combo3 : 164,209,255

[HitObjects]
48,308,6606,2,0,P|104:328|192:280,1,160,2|8,1:2|0:0,0:0:0:0:
228,216,7806,1,0,0:0:0:0:
240,136,8206,2,0,P|305:93|381:112,1,160,0|8,0:0|0:0,0:0:0:0:
480,240,9806,5,2,1:2:0:0:
464,160,10206,2,0,P|466:118|480:80,2,80,0|8|0,0:0|0:0|0:0,0:0:0:0:
480,240,11406,2,0,P|460:296|356:332,1,160,0|8,0:0|0:0,0:0:0:0:
220,284,13006,6,0,P|176:272|96:340,1,160,2|8,1:2|0:0,0:0:0:0:
176,352,14206,1,0,0:0:0:0:
256,360,14606,2,0,P|292:324|272:216,1,160,0|8,0:0|0:0,0:0:0:0:
136,148,16206,5,2,1:2:0:0:
208,112,16606,2,0,P|228:84|240:36,2,80,0|8|0,0:0|0:0|0:0,0:0:0:0:
208,192,17806,2,0,P|216:252|296:320,1,160,0|8,0:0|0:0,0:0:0:0:
448,320,19406,5,2,1:2:0:0:
388,268,19806,2,0,P|376:224|440:132,1,160
504,96,21006,2,0,P|504:60|484:16,2,80,0|0|8,0:0|0:0|0:0,0:0:0:0:
344,96,22606,5,2,1:2:0:0:
280,148,23006,2,0,P|224:160|128:100,1,160
80,56,24206,2,0,P|60:92|60:140,2,80,0|2|8,0:0|1:2|0:0,0:0:0:0:
68,216,25806,6,0,P|96:280|176:336,1,160,2|8,1:2|0:0,0:0:0:0:
248,332,27006,1,0,0:0:0:0:
292,264,27406,2,0,P|344:216|436:216,1,160,0|8,0:0|0:0,0:0:0:0:
496,68,29006,5,2,1:2:0:0:
422,100,29406,1,0,0:0:0:0:
344,80,29806,2,0,L|260:88,1,80,8|0,0:0|0:0,0:0:0:0:
188,64,30606,2,0,P|196:128|286:165,1,160,0|8,0:0|0:0,0:0:0:0:
356,172,31806,1,0,0:0:0:0:
432,196,32206,6,0,P|464:220|488:264,2,80,2|0|8,1:2|0:0|0:0,0:0:0:0:
356,172,33406,1,0,0:0:0:0:
284,208,33806,2,0,P|224:224|140:160,1,160,0|8,0:0|0:0,0:0:0:0:
120,100,35006,1,0,0:0:0:0:
68,160,35406,6,0,L|40:252,2,80,2|0|8,1:2|0:0|0:0,0:0:0:0:
120,100,36606,1,0,0:0:0:0:
200,92,37006,2,0,L|364:144,1,160,0|8,0:0|0:0,0:0:0:0:
428,168,38206,1,0,0:0:0:0:
384,236,38606,6,0,P|368:280|368:316,2,80,2|0|8,1:2|0:0|0:0,0:0:0:0:
428,168,39806,1,0,0:0:0:0:
356,136,40206,2,0,P|312:140|224:212,1,160,0|8,0:0|0:0,0:0:0:0:
208,288,41406,1,0,0:0:0:0:
148,236,41806,6,0,L|108:112,2,120,2|2|2,1:2|1:2|1:2,0:0:0:0:
208,288,43406,2,0,P|292:252|400:336,1,240
476,312,45006,6,0,L|500:136,1,160,6|8,1:2|0:0,0:0:0:0:
476,76,46206,1,0,0:0:0:0:
412,124,46606,2,0,P|368:140|336:132,1,80
264,100,47406,2,0,P|212:88|124:152,1,160,8|2,0:0|1:2,0:0:0:0:
128,224,48606,6,0,L|172:312,1,80,0|8,0:0|0:0,0:0:0:0:
236,328,49406,1,0,0:0:0:0:
316,312,49806,1,0,0:0:0:0:
360,244,50206,2,0,P|400:220|432:212,2,80,2|8|0,1:2|0:0|0:0,0:0:0:0:
280,236,51406,6,0,P|220:196|216:100,1,160,2|8,1:2|0:0,0:0:0:0:
244,40,52606,1,0,0:0:0:0:
164,44,53006,2,0,L|80:80,1,80
80,156,53806,2,0,P|120:216|100:296,1,160,8|2,0:0|1:2,0:0:0:0:
152,356,55006,6,0,L|256:324,1,80,0|8,0:0|0:0,0:0:0:0:
304,308,55806,1,0,0:0:0:0:
328,232,56206,1,0,0:0:0:0:
300,156,56606,2,0,L|376:108,2,80,2|8|0,1:2|0:0|0:0,0:0:0:0:
228,192,57806,6,0,P|152:212|96:156,1,160,6|8,1:2|0:0,0:0:0:0:
173,135,59006,1,0,0:0:0:0:
118,76,59406,2,0,P|184:56|250:112,1,160,0|8,0:0|0:0,0:0:0:0:
262,189,60606,1,0,0:0:0:0:
304,256,61006,6,0,P|352:292|424:292,2,120,2|2|0,1:2|1:2|0:0,0:0:0:0:
268,184,62606,2,0,L|104:224,1,160,0|8,0:0|0:0,0:0:0:0:
56,280,63806,1,0,0:0:0:0:
120,328,64206,6,0,P|176:296|276:320,1,160,2|8,1:2|0:0,0:0:0:0:
340,344,65406,1,0,0:0:0:0:
416,324,65806,2,0,P|456:260|452:176,1,160,0|8,0:0|0:0,0:0:0:0:
420,104,67006,1,0,0:0:0:0:
352,60,67406,6,0,P|308:48|232:60,2,120,2|2|0,1:2|1:2|0:0,0:0:0:0:
312,132,69006,2,0,P|268:136|228:240,1,160,0|8,0:0|0:0,0:0:0:0:
252,308,70206,1,0,0:0:0:0:
172,300,70606,6,0,P|144:240|156:140,1,160,2|8,1:2|0:0,0:0:0:0:
196,84,71806,1,0,0:0:0:0:
256,136,72206,2,0,P|300:160|408:128,1,160,0|8,0:0|0:0,0:0:0:0:
308,264,73806,6,0,L|224:352,2,120,2|2|0,1:2|1:2|0:0,0:0:0:0:
240,220,75406,2,0,P|188:160|200:72,1,160,0|8,0:0|0:0,0:0:0:0:
320,184,77006,6,0,P|324:240|248:308,1,160,2|8,1:2|0:0,0:0:0:0:
176,296,78206,1,0,0:0:0:0:
96,277,78606,2,0,P|148:220|224:232,1,160,0|8,0:0|0:0,0:0:0:0:
380,276,80206,6,0,P|440:252|464:196,2,120,2|2|0,1:2|1:2|0:0,0:0:0:0:
384,196,81806,2,0,P|380:128|304:80,1,160,0|8,0:0|0:0,0:0:0:0:
148,76,83406,5,2,1:2:0:0:
144,156,83806,2,0,P|128:200|96:228,1,80,0|8,0:0|0:0,0:0:0:0:
44,276,84606,1,0,0:0:0:0:
116,312,85006,2,0,P|180:288|268:332,1,160,0|8,0:0|0:0,0:0:0:0:
412,376,86606,5,2,1:2:0:0:
404,296,87006,2,0,L|392:212,1,80,0|8,0:0|0:0,0:0:0:0:
380,136,87806,1,0,0:0:0:0:
436,76,88206,2,0,P|360:56|300:116,1,160,0|8,0:0|0:0,0:0:0:0:
252,256,89806,5,2,1:2:0:0:
176,228,90206,2,0,P|148:224|88:236,2,80,0|8|0,0:0|0:0|0:0,0:0:0:0:
252,256,91406,2,0,P|332:240|364:168,1,160,0|8,0:0|0:0,0:0:0:0:
328,20,93006,5,2,1:2:0:0:
392,68,93406,2,0,L|460:132,1,80,0|8,0:0|0:0,0:0:0:0:
452,204,94206,1,0,0:0:0:0:
416,276,94606,2,0,P|344:312|268:296,1,160,0|8,0:0|0:0,0:0:0:0:
220,232,95806,1,0,0:0:0:0:
240,156,96206,6,0,P|244:116|220:68,2,80,2|0|8,1:2|0:0|0:0,0:0:0:0:
164,128,97406,1,0,0:0:0:0:
176,208,97806,2,0,P|244:240|312:200,1,160,0|8,0:0|0:0,0:0:0:0:
360,136,99006,1,0,0:0:0:0:
396,64,99406,6,0,P|464:52|528:76,2,120,2|2|0,1:2|1:2|0:0,0:0:0:0:
360,136,101006,2,0,P|292:160|216:108,2,160,0|8|2,0:0|0:0|1:2,0:0:0:0:
392,60,103006,5,0,0:0:0:0:
440,124,103406,2,0,L|472:200,1,80,8|0,0:0|0:0,0:0:0:0:
432,268,104206,2,0,P|360:248|284:304,1,160,0|8,0:0|0:0,0:0:0:0:
236,352,105406,1,0,0:0:0:0:
164,316,105806,6,0,L|32:344,2,120,2|2|2,1:2|1:2|1:2,0:0:0:0:
216,256,107406,2,0,P|252:200|144:68,1,240
92,56,109006,6,0,L|268:16,1,160,6|8,1:2|0:0,0:0:0:0:
328,36,110206,1,0,0:0:0:0:
392,84,110606,2,0,L|424:164,2,80,0|0|8,0:0|0:0|0:0,0:0:0:0:
328,36,111806,1,0,0:0:0:0:
272,92,112206,5,2,1:2:0:0:
240,168,112606,2,0,P|240:224|328:292,1,160,0|0,0:0|0:0,0:0:0:0:
392,280,113806,1,0,0:0:0:0:
312,290,114206,2,0,L|152:320,1,160,2|0,1:2|0:0,0:0:0:0:
88,276,115406,6,0,P|80:200|132:132,1,160,2|8,1:2|0:0,0:0:0:0:
204,108,116606,1,0,0:0:0:0:
280,132,117006,2,0,P|320:136|364:124,2,80,0|0|8,0:0|0:0|0:0,0:0:0:0:
204,108,118206,1,0,0:0:0:0:
212,188,118606,6,0,P|208:240|128:316,1,160,2|8,1:2|0:0,0:0:0:0:
56,320,119806,1,0,0:0:0:0:
32,244,120206,1,0,0:0:0:0:
56,168,120606,2,0,P|96:124|200:104,1,160,2|0,1:2|0:0,0:0:0:0:
264,140,121806,6,0,P|300:172|400:148,1,160,6|8,1:2|0:0,0:0:0:0:
336,100,123006,1,0,0:0:0:0:
268,56,123406,2,0,P|204:80|184:168,1,160,0|8,0:0|0:0,0:0:0:0:
232,228,124606,1,0,0:0:0:0:
304,264,125006,6,0,P|340:312|348:372,2,120,2|2|0,1:2|1:2|0:0,0:0:0:0:
232,228,126606,2,0,P|220:168|276:88,1,160,0|8,0:0|0:0,0:0:0:0:
348,68,127806,1,0,0:0:0:0:
424,48,128206,6,0,P|405:122|332:146,1,160,2|8,1:2|0:0,3:0:0:0:
272,89,129406,1,0,0:0:0:0:
192,96,129806,2,0,P|140:120|128:224,1,160,0|8,0:0|0:0,0:0:0:0:
176,272,131006,1,0,0:0:0:0:
252,292,131406,6,0,P|304:280|344:220,2,120,2|2|0,1:2|1:2|0:0,0:0:0:0:
176,272,133006,2,0,P|128:224|44:240,1,160,0|8,0:0|0:0,0:0:0:0:
100,300,134206,1,0,0:0:0:0:
176,272,134606,6,0,L|232:116,1,160,6|8,1:2|0:0,0:0:0:0:
308,100,135806,1,0,0:0:0:0:
364,40,136206,2,0,L|460:24,2,80,0|0|8,0:0|0:0|0:0,0:0:0:0:
308,100,137406,1,0,0:0:0:0:
316,180,137806,6,0,P|300:228|236:260,2,120,2|2|0,1:2|1:2|0:0,0:0:0:0:
236,176,139406,1,0,0:0:0:0:
156,160,139806,2,0,P|168:128|208:100,2,80,2|8|0,1:2|0:0|0:0,0:0:0:0:
152,240,141006,6,0,P|148:292|56:340,1,160,2|8,1:2|0:0,0:0:0:0:
72,260,142206,1,0,0:0:0:0:
64,180,142606,2,0,P|48:136|16:108,2,80,0|0|8,0:0|0:0|0:0,0:0:0:0:
72,260,143806,1,0,0:0:0:0:
140,220,144206,6,0,L|248:148,2,120,2|2|0,1:2|1:2|0:0,0:0:0:0:
144,300,145806,1,0,0:0:0:0:
220,320,146206,2,0,L|304:336,1,80,2|8,1:2|0:0,0:0:0:0:
352,276,147006,2,0,L|436:248,1,80,0|4,0:0|0:0,0:0:0:0:
228,244,160206,5,2,1:2:0:0:
296,204,160606,2,0,L|372:164,2,80,0|8|0,0:0|0:0|0:0,0:0:0:0:
228,160,161806,2,0,P|184:144|80:188,1,160,0|8,0:0|0:0,0:0:0:0:
60,260,163006,1,0,0:0:0:0:
92,332,163406,5,2,1:2:0:0:
168,352,163806,2,0,P|208:356|248:336,2,80,0|8|0,0:0|0:0|0:0,0:0:0:0:
192,276,165006,2,0,P|268:260|322:314,1,160,0|8,0:0|0:0,0:0:0:0:
364,380,166206,1,0,0:0:0:0:
432,336,166606,5,2,1:2:0:0:
484,276,167006,2,0,P|500:240|496:192,2,80,0|8|0,0:0|0:0|0:0,0:0:0:0:
424,224,168206,2,0,P|356:240|276:192,1,160,0|8,0:0|0:0,0:0:0:0:
252,124,169406,1,0,0:0:0:0:
208,56,169806,6,0,P|252:44|320:80,2,120,2|2|2,1:2|1:2|1:2,0:0:0:0:
172,128,171406,2,0,P|160:200|20:180,1,240,0|0,0:0|0:0,0:0:0:0:
96,152,173006,6,0,L|152:316,1,160,6|8,1:2|0:0,0:0:0:0:
228,292,174206,1,0,0:0:0:0:
308,284,174606,2,0,P|340:296|380:332,2,80,0|0|8,0:0|0:0|0:0,0:0:0:0:
228,292,175806,1,0,0:0:0:0:
188,224,176206,5,2,1:2:0:0:
224,152,176606,2,0,P|228:108|216:68,2,80,0|8|0,0:0|0:0|0:0,0:0:0:0:
188,224,177806,1,0,0:0:0:0:
116,256,178206,2,0,P|87:283|69:319,2,80,2|8|0,1:2|0:0|0:0,0:0:0:0:
188,224,179406,6,0,P|256:220|328:280,1,160,2|8,1:2|0:0,0:0:0:0:
356,348,180606,1,0,0:0:0:0:
408,288,181006,2,0,P|400:244|368:200,2,80,0|0|8,0:0|0:0|0:0,0:0:0:0:
356,348,182206,1,0,0:0:0:0:
276,348,182606,5,2,1:2:0:0:
212,300,183006,2,0,P|134:284|62:315,1,160
16,380,184206,1,0,0:0:0:0:
62,315,184606,2,0,L|88:148,1,160,2|0,1:2|0:0,0:0:0:0:
136,96,185806,6,0,P|192:120|276:72,1,160,6|8,1:2|0:0,0:0:0:0:
332,20,187006,1,0,0:0:0:0:
412,28,187406,2,0,P|464:60|484:160,1,160,0|8,0:0|0:0,0:0:0:0:
452,224,188606,1,0,0:0:0:0:
380,260,189006,6,0,P|422:301|480:300,2,120,2|2|0,1:2|1:2|0:0,0:0:0:0:
336,192,190606,2,0,P|300:160|136:232,1,240,0|0,0:0|0:0,0:0:0:0:
120,292,192206,6,0,L|100:120,1,160,2|8,1:2|0:0,0:0:0:0:
144,64,193406,1,0,0:0:0:0:
224,76,193806,2,0,L|384:52,1,160,0|8,0:0|0:0,0:0:0:0:
464,44,195006,1,0,0:0:0:0:
432,116,195406,6,0,P|416:176|440:248,2,120,2|2|0,1:2|1:2|0:0,0:0:0:0:
360,80,197006,2,0,P|340:136|384:308,1,240
456,332,198606,6,0,L|288:344,1,160,6|8,1:2|0:0,0:0:0:0:
216,328,199806,1,0,0:0:0:0:
148,284,200206,2,0,P|176:256|220:248,2,80,0|0|8,0:0|0:0|0:0,0:0:0:0:
132,364,201406,1,0,0:0:0:0:
72,312,201806,5,2,1:2:0:0:
52,236,202206,2,0,L|32:140,2,80,0|8|0,0:0|0:0|0:0,0:0:0:0:
132,252,203406,1,0,0:0:0:0:
204,216,203806,2,0,L|280:176,2,80,2|8|0,1:2|0:0|0:0,0:0:0:0:
204,296,205006,6,0,P|284:304|340:356,1,160,2|8,1:2|0:0,0:0:0:0:
420,372,206206,1,0,0:0:0:0:
424,292,206606,2,0,P|432:252|456:220,2,80,0|0|8,0:0|0:0|0:0,0:0:0:0:
420,372,207806,1,0,0:0:0:0:
352,328,208206,5,2,1:2:0:0:
320,256,208606,2,0,L|320:176,2,80,0|8|0,0:0|0:0|0:0,0:0:0:0:
240,256,209806,1,0,0:0:0:0:
160,260,210206,2,0,L|84:304,1,80,2|8,1:2|0:0,0:0:0:0:
20,264,211006,1,0,0:0:0:0:
84,212,211406,6,0,P|116:156|92:48,1,160,6|8,1:2|0:0,0:0:0:0:
172,24,212606,1,0,0:0:0:0:
248,52,213006,2,0,L|368:56,2,120
188,104,214606,6,0,P|192:156|284:224,1,160,2|8,1:2|0:0,0:0:0:0:
352,220,215806,1,0,0:0:0:0:
428,192,216206,2,0,P|400:152|328:140,2,120
416,272,217806,6,0,P|344:300|276:252,1,160,2|8,1:2|0:0,0:0:0:0:
252,184,219006,1,0,0:0:0:0:
208,116,219406,2,0,P|176:84|96:88,2,120
140,156,221006,6,0,P|104:204|144:296,1,160,2|8,1:2|0:0,0:0:0:0:
212,308,222206,1,0,0:0:0:0:
288,280,222606,2,0,P|348:256|408:272,2,120
276,360,224206,5,4,0:0:0:0:
256,192,224306,12,0,229006,0:0:0:0:
