osu file format v6

[General]
AudioFilename: Owl City - Fireflies.mp3
AudioLeadIn: 0
PreviewTime: 85488
Countdown: 0
SampleSet: Normal
StackLeniency: 0.9
Mode: 0
LetterboxInBreaks: 0
StoryFireInFront: 0
UseSkinSprites: 1

[Editor]
Bookmarks: 10808,21488,42807,53474,64155,65488,74807,85474,109488,130807,139974,141474,173474,216155
DistanceSpacing: 1
BeatDivisor: 2
GridSize: 16

[Metadata]
Title:Fireflies
Artist:Owl City
Creator:YoshiKart
Version:Normal
Source:Ocean Eyes
Tags:Electronica

[Difficulty]
HPDrainRate:5
CircleSize:3
OverallDifficulty:4
SliderMultiplier:1.2
SliderTickRate:1

[Events]
//Background and Video events
0,0,"Owlcity_fireflies_cover.jpg"
//Break Periods
2,42668,63148
2,107002,108148
2,128334,128648
//Storyboard Layer 0 (Background)
//Storyboard Layer 1 (Fail)
//Storyboard Layer 2 (Pass)
//Storyboard Layer 3 (Foreground)
Sprite,Foreground,Centre,"default-1.png",320,240 L,173474,1 F,1,0,2000,1,0 S,1,0,2000,0.5,2.5 L,194807,1 F,1,0,2000,1,0 S,1,0,2000,0.5,2.5
//Storyboard Sound Samples
//Background Colour Transformations
3,100,0,0,0

[TimingPoints]
10802,333.333333333333,4,1,1,70,1,0
29391,-100,4,2,1,70,0,0
32141,-100,4,1,1,70,0,0
39974,-100,4,2,1,70,0,0
63807,-100,4,1,1,70,0,0
82641,-100,4,2,1,70,0,0
85141,-100,4,1,1,70,0,0
85474,-100,4,1,1,70,0,1
106807,-100,4,1,1,70,0,0
112474,-100,4,2,1,70,0,0
114891,-100,4,1,1,70,0,0
117807,-100,4,2,1,70,0,0
120307,-100,4,1,1,70,0,0
123141,-100,4,2,1,70,0,0
125557,-100,4,1,1,70,0,0
128807,-100,4,2,1,70,0,0
130974,-100,4,1,1,70,0,0
139307,-100,4,2,1,70,0,0
140807,-100,4,1,1,70,0,0
149307,-100,4,2,1,70,0,0
151807,-100,4,1,1,70,0,0
152141,-100,4,1,1,70,0,1
173307,-100,4,1,1,70,0,0
173474,-100,4,1,1,70,0,1
194974,-100,4,2,1,70,0,0

[Colours]
Combo1 : 17,255,77
Combo2 : 0,128,255
Combo3 : 255,255,255

[HitObjects]
168,80,21802,5,0
344,80,22302,1,8
144,192,22802,6,0,B|144:352|368:352|368:184,1,360,0|8
256,192,24135,5,0
352,64,24635,1,8
160,64,25135,1,0
160,192,25468,5,8
256,224,25802,1,0
352,192,26135,1,8
64,192,26802,6,0,B|64:336|208:336,2,180,0|8|0
144,192,28135,2,0,B|144:64|256:64|384:64|384:208,1,360,0|0
464,192,29468,2,0,B|464:336|320:336,2,180,0|2|0
352,192,30802,5,8
256,240,31135,1,2
160,192,31468,1,8
344,304,32468,5,0
168,304,32968,1,8
368,192,33468,6,0,B|368:32|144:32|144:200,1,360,0|8
256,192,34802,5,0
160,320,35302,1,8
352,320,35802,1,0
352,192,36135,5,8
256,160,36468,1,0
160,192,36802,1,8
448,192,37468,6,0,B|448:48|304:48,2,180,0|8|0
368,192,38802,2,0,B|368:320|256:320|128:320|128:176,1,360,0|0
48,192,40135,2,0,B|48:48|192:48,2,180,0|2|0
256,192,41468,5,4
128,320,41968,5,2
384,320,42468,1,2
224,80,64468,5,8
224,80,64635,1,8
112,80,64968,1,2
256,192,65468,2,0,B|112:192|112:320|224:320,1,240,2|4
256,192,66801,5,0
288,80,67135,5,8
288,80,67301,1,8
400,80,67635,1,2
256,192,68135,2,0,B|400:192|400:320|288:320,1,240,2|4
256,192,69468,5,0
208,288,69801,5,0
304,288,70135,1,8
144,192,70635,5,0
368,192,71135,1,0
256,192,71468,1,8
96,192,71968,6,2,L|224:192|160:192|160:192|208:304,1,300
416,192,73301,6,2,L|288:192|352:192|352:192|304:304,1,300
64,192,75135,5,8
64,192,75301,1,8
144,288,75635,1,2
256,192,76135,2,2,B|144:192|144:32|256:32,1,240
384,112,77468,5,4
448,192,77801,5,8
448,192,77968,1,8
368,288,78301,1,2
256,192,78802,2,2,B|368:192|368:32|256:32,1,240
128,112,80135,5,2
256,192,80635,1,2
384,112,81135,1,0
384,192,81468,1,2
256,272,81968,1,2
128,192,82468,5,0
128,112,82802,2,0,B|176:32|240:32,1,120
296,34,83468,2,0,B|336:32|384:112,1,120
256,128,84135,2,0,B|256:256,1,120
256,320,84802,1,4
208,56,85468,6,0,B|208:192|304:192|304:40,1,240,0|8
336,256,86802,5,0
256,208,87135,1,8
176,256,87468,1,8
160,80,88135,5,0
256,80,88468,1,8
352,80,88802,1,8
320,176,89135,6,2,B|176:176,1,120
160,272,89802,5,8
256,272,90135,1,0
352,272,90468,1,8
352,272,90635,1,0
352,272,90802,6,0,B|480:272|480:48|256:48,1,360,4|0
223,49,92135,2,0,B|32:48|32:272|160:272,1,360
256,272,93468,6,2,B|400:272|400:112|400:112|256:112,1,360
256,192,94802,2,2,B|112:192|112:352|112:352|256:352,1,360,6|2
304,328,96135,6,0,B|304:192|208:192|208:344,1,240,0|8
176,128,97468,5,0
256,176,97802,1,8
336,128,98135,1,12
352,304,98802,5,0
256,304,99135,1,8
160,304,99468,1,8
192,208,99802,6,2,B|336:208,1,120,2|6
352,112,100468,5,8
256,112,100802,1,0
160,112,101135,1,8
160,112,101302,1,0
160,112,101468,6,0,B|32:112|32:336|256:336,1,360,4|0
288,334,102802,2,0,B|480:336|480:112|352:112,1,360,0|4
256,208,104135,12,4,106802
320,80,109468,5,0
416,192,109968,1,8
320,288,110468,1,8
208,288,110802,5,0
112,192,111302,1,8
208,80,111802,1,8
256,192,112135,5,4
160,320,112802,6,2,B|64:320|64:192|208:192|208:32|48:48,2,360
256,320,115135,5,8
256,208,115468,1,8
176,64,116135,5,2
176,64,116302,1,0
336,64,116635,1,2
336,64,116802,1,0
320,176,117135,1,2
192,176,117468,1,2
352,320,118135,6,2,B|448:320|448:192|304:192|304:32|464:48,2,360
256,320,120468,5,2
160,320,120802,1,2
112,112,121302,2,0,B|96:256|256:240,1,180,2|0
256,240,121968,1,0
256,192,122135,2,0,B|256:64,2,120,2|2|4
256,272,123468,5,2
192,80,123968,1,2
320,80,124302,1,0
368,272,124802,5,8
256,256,125135,1,8
144,272,125468,1,4
256,320,125802,5,2
352,320,126135,1,2
400,112,126802,2,0,B|416:256|256:240,1,180,2|0
256,192,127468,2,0,B|256:64,2,120,2|2|4
224,128,129968,5,8
288,128,130135,1,4
192,240,130468,1,8
320,240,130802,1,2
400,320,131135,5,8
400,320,131302,1,2
400,192,131635,1,2
256,80,132135,2,4,B|160:160|384:192|256:288,1,240,2|4
304,352,133135,1,0
208,352,133468,1,4
112,320,133802,5,8
112,320,133968,1,2
112,192,134302,1,2
256,80,134802,2,4,B|352:160|128:192|256:288,1,240,2|4
208,352,135802,1,0
304,352,136135,1,4
400,304,136468,5,8
464,224,136802,1,8
320,192,137302,1,0
400,80,137802,1,8
464,160,138135,1,8
256,320,138802,6,0,B|112:320|112:160,1,240,0|2
256,64,140135,2,0,B|400:64|400:224,1,240,0|2
256,72,141802,5,8
160,136,142135,1,0
160,248,142468,1,8
256,312,142802,2,2,B|256:184,2,120
256,312,144135,5,8
352,248,144468,1,0
352,136,144802,1,8
256,72,145135,2,2,B|256:200,2,120
256,72,145968,1,4
112,80,146635,5,8
48,160,146968,1,8
192,192,147468,1,0
112,304,147968,1,8
48,224,148302,1,8
256,192,148802,1,4
256,208,149468,12,4,151468
256,192,152135,5,0
368,192,152468,1,8
320,96,152802,1,8
208,96,153135,1,0
144,192,153468,1,0
208,288,153802,1,8
320,288,154135,1,8
256,192,154468,6,2,B|256:64|48:64|64:288|208:288,1,360
256,192,155802,6,2,B|256:320|464:320|448:96|304:96,1,360
32,176,157468,6,4,B|192:32|320:352|480:208,3,480
192,64,162635,5,8
192,128,162801,1,8
320,128,163135,1,8
320,64,163301,1,2
256,192,163801,5,2
144,192,164135,2,0,B|144:336|256:336|256:336|256:288,1,240,4|0
352,112,165468,5,4
160,112,166135,1,4
368,192,166801,2,2,B|368:336|256:336|256:336|256:288,1,240,2|4
216,80,167968,5,0
296,80,168135,1,2
368,192,168468,1,2
256,192,168801,1,2
144,192,169135,1,8
144,304,169468,6,0,B|256:368|384:304,1,240,4|0
336,64,170801,6,0,L|256:152|160:48,3,240,4|8|4|8
256,192,173468,5,4
144,192,173801,1,8
192,288,174135,1,8
304,288,174468,1,0
368,192,174801,1,0
304,96,175135,1,8
192,96,175468,1,8
256,192,175801,6,2,B|256:320|464:320|448:96|304:96,1,360
256,192,177135,6,2,B|256:64|48:64|64:288|208:288,1,360
480,208,178801,6,4,B|320:352|192:32|32:176,3,480
320,320,183968,5,8
320,256,184135,1,8
192,256,184468,1,8
192,320,184635,1,2
256,192,185135,5,2
368,192,185468,2,0,B|368:48|256:48|256:48|256:96,1,240,4|0
160,272,186801,5,4
352,272,187468,1,4
144,192,188135,2,2,B|144:48|256:48|256:48|256:96,1,240,2|4
296,304,189301,5,0
216,304,189468,1,2
144,192,189801,1,2
256,192,190135,1,2
368,192,190468,1,8
368,80,190801,6,0,B|256:16|128:80,1,240,4|0
176,320,192135,6,0,L|256:232|352:336,3,240,4|8|4|8
256,192,194801,5,0
