osu file format v9

[General]
AudioFilename: Nightcore - Fireflies.mp3
AudioLeadIn: 1015
PreviewTime: 49821
Countdown: 1
SampleSet: Normal
StackLeniency: 0.7
Mode: 0
LetterboxInBreaks: 1

[Editor]
Bookmarks: 1345,7657,9424,17503,33662,41742,49821,84159,100318
DistanceSpacing: 1.2
BeatDivisor: 4
GridSize: 8

[Metadata]
Title:Fireflies (Nightcore Mix)
Artist:Owl City
Creator:AlMod
Version:Insane
Source:
Tags:

[Difficulty]
HPDrainRate:8
CircleSize:4
OverallDifficulty:7
ApproachRate:8
SliderMultiplier:2
SliderTickRate:2

[Events]
//Background and Video events
0,0,"fireflies.jpg"
//Break Periods
2,66180,67250
//Storyboard Layer 0 (Background)
//Storyboard Layer 1 (Fail)
//Storyboard Layer 2 (Pass)
//Storyboard Layer 3 (Foreground)
//Storyboard Sound Samples
//Background Colour Transformations
3,100,163,162,255

[TimingPoints]
1345,504.965494024575,4,1,1,100,1,0
7530,-100,4,2,1,100,0,0
9298,-100,4,1,1,100,0,0
16872,-100,4,1,1,0,0,0
17125,-100,4,2,1,100,0,0
19397,-200,4,2,1,100,0,0
20533,-100,4,2,1,100,0,0
33410,-100,4,1,1,100,0,0
39848,-100,4,2,1,100,0,0
41615,-100,4,1,1,100,0,0
47675,-100,4,1,1,80,0,0
48054,-100,4,1,1,60,0,0
48559,-100,4,1,1,40,0,0
49064,-100,4,1,1,20,0,0
49821,-100,4,1,1,100,0,1
64970,-100,4,2,1,100,0,1
66106,-100,4,1,1,100,0,0
70525,-100,4,2,1,100,0,0
72166,-100,4,1,1,100,0,0
74312,-100,4,1,1,100,0,0
76206,-100,4,1,1,100,0,0
78352,-100,4,1,1,100,0,0
80245,-100,4,1,1,100,0,0

[Colours]
Combo1 : 125,177,255
Combo2 : 6,159,95
Combo3 : 252,235,141

[HitObjects]
256,96,1344,1,2
88,192,1597,6,0,B|128:232,1,50
256,272,1976,1,0
424,192,2228,2,0,B|384:232,1,50
256,96,2607,1,0
256,288,2859,1,2
88,192,3364,5,2
256,192,3617,5,0
296,152,3743,2,0,B|352:136|376:88,1,100
216,232,4122,2,0,B|160:248|136:296,1,100
256,328,4627,1,0
392,192,4879,1,2
120,192,5258,5,0
136,248,5384,2,0,B|157:290|213:306,1,100,2|0
256,264,5763,1,0
298,306,5889,2,0,B|354:290|376:248,1,100,2|0
392,192,6268,1,0
392,192,6520,5,0
376,136,6647,2,0,B|354:93|298:77,1,100,0|2
256,120,7025,1,0
256,264,7404,1,2
256,192,7657,5,2
432,192,8035,1,2
80,192,8414,1,2
256,16,8793,1,2
256,136,9045,1,2
256,192,9171,1,2
256,192,9424,5,2
144,224,9676,5,0
176,272,9803,2,0,B|208:312|256:328,1,100
368,224,10308,1,0
336,272,10434,2,0,B|304:312|256:328,1,100
256,192,10939,1,2
256,192,11444,5,2
200,88,11696,6,0,B|152:64|104:80,1,100,0|2
312,88,12201,2,0,B|360:64|408:80,1,100,0|2
408,144,12580,2,0,B|359:160|311:136,1,100,0|2
201,136,13211,5,0
144,144,13337,2,0,B|88:152|56:192,1,100,2|0
143,234,13842,2,0,B|87:226|56:188,1,100,2|0
160,248,14347,2,0,B|200:288|200:336,1,100,2|0
200,336,14726,5,2
311,336,14979,2,0,B|312:288|352:248,1,100,2|2
256,192,15988,12,4,16998
384,96,17503,5,2
304,192,17756,2,0,B|256:208|200:192,1,100,0|2
320,144,18261,1,0
304,96,18387,2,0,B|256:80|200:96,1,100,2|0
32,32,19018,1,2
117,117,19271,1,0
159,159,19397,2,0,B|159:167|151:175|151:175|167:175|167:175|151:183|151:183|167:183|167:183|151:191|151:191|167:191|167:191|151:199|151:199|167:199|167:199|151:207|151:207|167:207|167:207|151:215|151:215|167:215|167:215|159:223|159:239,1,225,0|0
256,288,20786,5,0
352,192,21038,1,2
256,96,21291,1,0
144,88,21543,2,0,B|56:144|24:248,1,200,2|0
256,192,22301,1,0
368,88,22553,2,0,B|456:144|488:248,1,200,2|0
256,192,23310,1,0
160,88,23563,6,0,B|256:40|352:88,1,200,2|0
256,192,24320,1,0
160,296,24573,2,0,B|256:344|352:296,1,200,2|0
368,120,25457,6,0,B|400:80,1,50,0|2
144,120,25835,2,0,B|112:80,1,50,0|2
256,192,26340,5,0
170,106,26593,1,2
341,106,26845,1,0
341,278,27097,1,2
171,278,27350,1,0
88,192,27603,1,2
256,192,27981,6,0,B|256:248,1,50,0|2
88,192,28360,1,0
424,192,28613,1,2
416,256,29496,5,0
384,304,29623,2,0,B|344:344|296:344,1,100,2|0
216,344,30128,2,0,B|168:344|128:304,1,100,2|0
80,192,30632,1,2
112,136,30759,1,0
160,96,30885,2,0,B|208:64|312:64,1,150,2|0
384,160,31516,5,0
400,216,31642,2,0,B|432:312,1,100,2|0
112,216,32147,2,0,B|80:312,1,100,2|0
256,192,32652,1,2
400,192,33662,5,0
288,144,33915,5,0
232,120,34041,2,0,B|179:109|137:137,1,100,0|2
288,240,34546,1,0
232,264,34672,2,0,B|179:275|137:247,1,100,0|2
256,192,35177,1,0
112,192,35682,5,0
197,277,35935,5,0
256,296,36061,2,0,B|309:307|351:279,1,100,0|2
400,240,36440,2,0,B|440:200|440:152,1,100,0|2
424,96,36818,1,0
384,56,36945,1,0
328,40,37071,1,0
272,48,37197,2,0,B|136:112,1,150
104,160,37702,5,0
120,280,37954,6,0,B|145:327|194:341,1,100,0|2
317,342,38459,1,0
317,342,38586,2,0,B|366:327|392:279,1,100,0|2
392,104,39217,6,0,B|366:56|317:41,1,100,0|2
317,41,39596,1,0
144,80,39974,5,2
368,304,40353,1,2
144,80,40732,1,2
368,304,41111,1,2
256,248,41362,1,2
256,192,41488,1,2
256,192,41742,5,0
352,256,41994,5,0
394,213,42120,2,0,B|395:158|360:120,1,100,0|2
160,256,42625,1,0
118,213,42751,2,0,B|116:158|151:120,1,100,0|2
256,192,43257,1,0
456,320,43762,5,0
56,320,44014,5,0
112,312,44140,2,0,B|165:303|196:263,1,100,0|2
280,216,44645,1,0
315,263,44772,2,0,B|346:303|400:312,2,100
232,168,45529,1,0
196,120,45656,2,0,B|165:80|112:72,2,100
376,80,46539,5,0
400,136,46665,1,0
424,192,46791,1,0
400,248,46918,1,0
376,304,47044,1,0
256,320,47296,2,0,B|202:311|171:271,1,100
256,192,47801,5,0
256,176,48306,1,0
256,160,48811,1,0
256,144,49316,1,0
256,288,49821,5,8
352,248,50074,2,0,B|384:208|384:144,1,100,0|8
288,192,50579,1,0
256,232,50705,1,0
224,192,50831,1,8
160,248,51084,6,0,B|128:208|128:144,1,100,0|8
208,96,51589,1,0
256,120,51715,1,0
304,96,51841,1,8
256,16,52094,5,8
432,192,52598,1,8
256,368,53103,1,8
168,312,53356,1,8
104,240,53608,5,0
80,192,53735,1,0
104,144,53861,2,0,B|136:40|256:32,1,200,0|8
208,144,54618,1,2
408,240,54871,6,0,B|376:344|256:352,1,200,0|8
304,240,55628,1,2
332,144,55881,6,0,B|256:24|180:144,1,200,0|8
256,192,56638,1,2
180,240,56891,6,0,B|256:360|332:240,1,200,0|8
256,192,57774,1,0
256,192,57901,1,8
256,192,58153,5,0
256,192,58280,1,8
361,86,58658,5,0
336,184,58911,2,0,B|280:272,1,100,8|0
176,184,59416,2,0,B|232:272,1,100,8|0
151,86,59920,1,8
256,192,60299,6,0,B|256:136,1,50,0|8
256,40,60678,1,0
256,344,60930,1,12
368,240,61814,5,0
344,280,61940,2,0,B|416:352,1,100,8|0
168,280,62445,2,0,B|96:352,1,100,8|0
144,240,62950,5,8
112,192,63077,1,0
144,144,63203,2,0,B|240:120|336:192,1,200,8|8
331,189,63960,2,0,B|360:232,8,50
160,143,65223,5,2
294,91,65475,1,2
351,240,65728,1,2
217,292,65980,1,2
256,192,68000,5,0
171,107,68252,6,0,B|131:75|75:75,1,100
341,277,68757,2,0,B|381:309|437:309,1,100
433,308,69136,5,0
128,288,69515,1,0
160,64,69767,1,0
384,96,70020,1,0
160,64,70525,5,2
336,88,70903,2,0,B|386:80|419:136,1,100,2|2
296,152,71408,1,2
216,232,71535,1,2
94,250,71787,2,0,B|125:303|176:296,1,100,2|2
