osu file format v13

[General]
AudioFilename: 09 Fireflies.mp3
AudioLeadIn: 0
PreviewTime: 152141
Countdown: 0
SampleSet: Soft
StackLeniency: 0.7
Mode: 3
LetterboxInBreaks: 0
SpecialStyle: 0
WidescreenStoryboard: 1

[Editor]
Bookmarks: 118807
DistanceSpacing: 1.1
BeatDivisor: 4
GridSize: 4
TimelineZoom: 1

[Metadata]
Title:Fireflies
TitleUnicode:Fireflies
Artist:Owl City
ArtistUnicode:Owl City
Creator:Level 51
Version:7K NM
Source:
Tags:ocean eyes adam young platinum blocko
BeatmapID:443408
BeatmapSetID:178135

[Difficulty]
HPDrainRate:7
CircleSize:7
OverallDifficulty:7
ApproachRate:5
SliderMultiplier:1.4
SliderTickRate:1

[Events]
//Background and Video events
0,0,"BG.jpg",0,0
//Break Periods
//Storyboard Layer 0 (Background)
//Storyboard Layer 1 (Fail)
//Storyboard Layer 2 (Pass)
//Storyboard Layer 3 (Foreground)
//Storyboard Sound Samples
//Background Colour Transformations
3,100,163,162,255

[TimingPoints]
141,666.666666666667,4,2,0,7,1,0
85474,-100,4,2,0,7,0,1
106807,-100,4,2,0,7,0,0
152141,-100,4,2,0,7,0,1
173141,-100,4,2,0,7,0,0
173474,-100,4,2,0,7,0,1
194807,-133.333333333333,4,2,0,7,0,0
213474,-200,4,2,0,7,0,0

[HitObjects]
64,192,141,5,0,0:0:0:0:
192,192,307,1,0,0:0:0:0:
448,192,474,5,0,0:0:0:0:
36,192,641,1,0,0:0:0:0:
182,192,807,1,0,0:0:0:0:
402,192,974,1,0,0:0:0:0:
182,192,1307,1,0,0:0:0:0:
109,192,1474,128,0,2807:0:0:0:0:
320,192,2807,128,0,3974:0:0:0:0:
64,192,5474,1,0,0:0:0:0:
192,192,5641,1,0,0:0:0:0:
448,192,5807,1,0,0:0:0:0:
36,192,5974,1,0,0:0:0:0:
182,192,6141,1,0,0:0:0:0:
402,192,6307,1,0,0:0:0:0:
109,192,6807,128,0,8141:0:0:0:0:
448,192,8141,1,0,0:0:0:0:
36,192,8141,128,0,9474:0:0:0:0:
475,192,8141,128,0,9474:0:0:0:0:
109,192,9474,128,0,10474:0:0:0:0:
329,192,9474,128,0,10474:0:0:0:0:
475,192,10474,1,0,0:0:0:0:
182,192,10807,1,0,0:0:0:0:
36,192,11307,1,0,0:0:0:0:
475,192,11807,1,0,0:0:0:0:
329,192,12141,1,0,0:0:0:0:
36,192,12641,1,0,0:0:0:0:
329,192,13141,1,0,0:0:0:0:
402,192,13141,1,0,0:0:0:0:
36,192,14474,1,0,0:0:0:0:
182,192,14807,1,0,0:0:0:0:
329,192,15307,1,0,0:0:0:0:
475,192,15807,1,0,0:0:0:0:
109,192,16141,1,0,0:0:0:0:
192,192,16974,1,0,0:0:0:0:
192,192,17141,1,0,0:0:0:0:
475,192,17474,128,0,17974:0:0:0:0:
182,192,17974,128,0,18474:0:0:0:0:
64,192,18474,128,0,21474:0:0:0:0:
192,192,21474,1,0,0:0:0:0:
320,192,21474,1,0,0:0:0:0:
192,192,21974,128,0,22807:0:0:0:0:
320,192,21974,128,0,22807:0:0:0:0:
448,192,23141,1,0,0:0:0:0:
320,192,23141,1,0,0:0:0:0:
192,192,24141,1,0,0:0:0:0:
64,192,24141,1,0,0:0:0:0:
192,192,24641,128,0,25474:0:0:0:0:
64,192,24641,128,0,25474:0:0:0:0:
256,192,25141,1,0,0:0:0:0:
448,192,25807,128,0,26307:0:0:0:0:
192,192,25807,128,0,26307:0:0:0:0:
192,192,26641,1,0,0:0:0:0:
448,192,26807,1,0,0:0:0:0:
256,192,26807,1,0,0:0:0:0:
448,192,27307,128,0,27807:0:0:0:0:
320,192,27307,128,0,27807:0:0:0:0:
109,192,28474,1,0,0:0:0:0:
64,192,28474,1,0,0:0:0:0:
109,192,28974,1,0,0:0:0:0:
64,192,28974,1,0,0:0:0:0:
448,192,29474,1,0,0:0:0:0:
320,192,29474,1,0,0:0:0:0:
448,192,29974,1,0,0:0:0:0:
320,192,29974,1,0,0:0:0:0:
448,192,30641,1,0,0:0:0:0:
320,192,30641,1,0,0:0:0:0:
64,192,30974,1,0,0:0:0:0:
448,192,31141,1,0,0:0:0:0:
192,192,31141,1,0,0:0:0:0:
320,192,31807,128,0,32974:0:0:0:0:
64,192,32141,1,0,0:0:0:0:
192,192,32141,1,0,0:0:0:0:
64,192,32641,1,0,0:0:0:0:
182,192,32641,1,0,0:0:0:0:
448,192,33807,128,0,34307:0:0:0:0:
320,192,33807,128,0,34307:0:0:0:0:
320,192,34807,1,0,0:0:0:0:
109,192,34807,1,0,0:0:0:0:
320,192,35307,1,0,0:0:0:0:
109,192,35307,1,0,0:0:0:0:
320,192,35807,1,0,0:0:0:0:
448,192,35807,1,0,0:0:0:0:
448,192,36474,1,0,0:0:0:0:
320,192,36474,1,0,0:0:0:0:
192,192,37307,1,0,0:0:0:0:
109,192,37474,1,0,0:0:0:0:
329,192,37474,1,0,0:0:0:0:
109,192,37974,1,0,0:0:0:0:
329,192,37974,1,0,0:0:0:0:
329,192,39141,1,0,0:0:0:0:
475,192,39141,1,0,0:0:0:0:
192,192,39641,1,0,0:0:0:0:
320,192,39641,1,0,0:0:0:0:
192,192,40141,1,0,0:0:0:0:
64,192,40141,1,0,0:0:0:0:
329,192,41974,1,0,0:0:0:0:
475,192,41974,1,0,0:0:0:0:
109,192,42474,1,0,0:0:0:0:
182,192,42641,1,0,0:0:0:0:
64,192,42807,128,0,44141:0:0:0:0:
320,192,42807,128,0,44141:0:0:0:0:
192,192,44141,128,0,45474:0:0:0:0:
320,192,45474,128,0,46807:0:0:0:0:
329,192,48141,128,0,49474:0:0:0:0:
448,192,48141,128,0,49474:0:0:0:0:
109,192,49474,128,0,50807:0:0:0:0:
448,192,50807,128,0,52141:0:0:0:0:
320,192,50807,128,0,52141:0:0:0:0:
256,192,52141,128,0,53474:0:0:0:0:
109,192,53474,128,0,54807:0:0:0:0:
329,192,53474,128,0,54807:0:0:0:0:
448,192,54807,128,0,56141:0:0:0:0:
64,192,56141,128,0,56807:0:0:0:0:
320,192,56807,128,0,57474:0:0:0:0:
448,192,57474,128,0,58807:0:0:0:0:
182,192,58807,128,0,60141:0:0:0:0:
109,192,60141,128,0,61474:0:0:0:0:
448,192,61474,128,0,62807:0:0:0:0:
329,192,61474,128,0,62807:0:0:0:0:
256,192,62807,128,0,64141:0:0:0:0:
448,192,64474,5,0,0:0:0:0:
402,192,64474,1,0,0:0:0:0:
320,192,64974,1,0,0:0:0:0:
182,192,64974,1,0,0:0:0:0:
192,192,65474,1,0,0:0:0:0:
64,192,65474,1,0,0:0:0:0:
64,192,66807,5,0,0:0:0:0:
109,192,66807,1,0,0:0:0:0:
182,192,67307,1,0,0:0:0:0:
402,192,67307,1,0,0:0:0:0:
448,192,67807,1,0,0:0:0:0:
329,192,67807,1,0,0:0:0:0:
448,192,68141,1,0,0:0:0:0:
402,192,68141,1,0,0:0:0:0:
192,192,68641,1,0,0:0:0:0:
256,192,68641,1,0,0:0:0:0:
64,192,69141,1,0,0:0:0:0:
256,192,69141,1,0,0:0:0:0:
109,192,69474,1,0,0:0:0:0:
182,192,69474,1,0,0:0:0:0:
109,192,69974,1,0,0:0:0:0:
402,192,69974,1,0,0:0:0:0:
192,192,70807,1,0,0:0:0:0:
109,192,70807,1,0,0:0:0:0:
256,192,71307,1,0,0:0:0:0:
402,192,71307,1,0,0:0:0:0:
402,192,71807,1,0,0:0:0:0:
475,192,71807,1,0,0:0:0:0:
109,192,72141,1,0,0:0:0:0:
182,192,72141,1,0,0:0:0:0:
109,192,72641,1,0,0:0:0:0:
182,192,72641,1,0,0:0:0:0:
320,192,73141,1,0,0:0:0:0:
192,192,73141,1,0,0:0:0:0:
320,192,73641,1,0,0:0:0:0:
64,192,73641,1,0,0:0:0:0:
448,192,74141,1,0,0:0:0:0:
320,192,74141,1,0,0:0:0:0:
64,192,74474,1,0,0:0:0:0:
109,192,74474,1,0,0:0:0:0:
192,192,74641,1,0,0:0:0:0:
256,192,74641,1,0,0:0:0:0:
64,192,74807,1,0,0:0:0:0:
109,192,74807,1,0,0:0:0:0:
192,192,75307,1,0,0:0:0:0:
448,192,75307,1,0,0:0:0:0:
64,192,75807,1,0,0:0:0:0:
192,192,75807,1,0,0:0:0:0:
192,192,76141,1,0,0:0:0:0:
320,192,76141,1,0,0:0:0:0:
448,192,76641,1,0,0:0:0:0:
320,192,76641,1,0,0:0:0:0:
64,192,77474,1,0,0:0:0:0:
109,192,77474,1,0,0:0:0:0:
64,192,77974,1,0,0:0:0:0:
109,192,77974,1,0,0:0:0:0:
64,192,78474,1,0,0:0:0:0:
109,192,78474,1,0,0:0:0:0:
448,192,78807,1,0,0:0:0:0:
256,192,78807,1,0,0:0:0:0:
402,192,79307,1,0,0:0:0:0:
182,192,79307,1,0,0:0:0:0:
64,192,79807,1,0,0:0:0:0:
256,192,79807,1,0,0:0:0:0:
192,192,80141,1,0,0:0:0:0:
109,192,80141,1,0,0:0:0:0:
192,192,80641,1,0,0:0:0:0:
402,192,80641,1,0,0:0:0:0:
448,192,81141,1,0,0:0:0:0:
256,192,81141,1,0,0:0:0:0:
448,192,81474,1,0,0:0:0:0:
320,192,81474,1,0,0:0:0:0:
109,192,81974,1,0,0:0:0:0:
256,192,81974,1,0,0:0:0:0:
448,192,82474,1,0,0:0:0:0:
320,192,82474,1,0,0:0:0:0:
256,192,82807,128,0,85474:0:0:0:0:
329,192,83807,1,0,0:0:0:0:
402,192,83807,1,0,0:0:0:0:
475,192,84141,1,0,0:0:0:0:
402,192,84141,1,0,0:0:0:0:
182,192,84641,1,0,0:0:0:0:
36,192,84641,1,0,0:0:0:0:
182,192,85474,128,0,86807:0:0:0:0:
329,192,85807,1,0,0:0:0:0:
36,192,86141,1,0,0:0:0:0:
329,192,86474,1,0,0:0:0:0:
402,192,86807,128,0,88141:0:0:0:0:
36,192,86807,1,0,0:0:0:0:
329,192,87141,1,0,0:0:0:0:
36,192,87474,1,0,0:0:0:0:
329,192,87807,1,0,0:0:0:0:
109,192,88141,128,0,89474:0:0:0:0:
256,192,88141,1,0,0:0:0:0:
182,192,88474,1,0,0:0:0:0:
256,192,88807,1,0,0:0:0:0:
182,192,89141,1,0,0:0:0:0:
182,192,89474,128,0,90807:0:0:0:0:
256,192,89474,1,0,0:0:0:0:
109,192,89807,1,0,0:0:0:0:
256,192,90141,1,0,0:0:0:0:
109,192,90474,1,0,0:0:0:0:
329,192,90807,128,0,92141:0:0:0:0:
256,192,90807,1,0,0:0:0:0:
402,192,91141,1,0,0:0:0:0:
36,192,91474,1,0,0:0:0:0:
402,192,91807,1,0,0:0:0:0:
109,192,92141,128,0,93474:0:0:0:0:
475,192,92141,1,0,0:0:0:0:
182,192,92474,1,0,0:0:0:0:
475,192,92807,1,0,0:0:0:0:
182,192,93141,1,0,0:0:0:0:
182,192,93474,128,0,94807:0:0:0:0:
475,192,93474,1,0,0:0:0:0:
329,192,93807,1,0,0:0:0:0:
36,192,94141,1,0,0:0:0:0:
329,192,94474,1,0,0:0:0:0:
329,192,94807,128,0,96141:0:0:0:0:
36,192,94807,1,0,0:0:0:0:
475,192,95141,1,0,0:0:0:0:
36,192,95474,1,0,0:0:0:0:
475,192,95807,1,0,0:0:0:0:
182,192,96141,128,0,96807:0:0:0:0:
256,192,96141,1,0,0:0:0:0:
402,192,96807,1,0,0:0:0:0:
329,192,96807,128,0,97474:0:0:0:0:
402,192,97474,128,0,98807:0:0:0:0:
256,192,97474,1,0,0:0:0:0:
109,192,97807,1,0,0:0:0:0:
256,192,98141,1,0,0:0:0:0:
109,192,98474,1,0,0:0:0:0:
36,192,98807,128,0,100141:0:0:0:0:
256,192,98807,1,0,0:0:0:0:
402,192,99141,1,0,0:0:0:0:
109,192,99474,1,0,0:0:0:0:
402,192,99807,1,0,0:0:0:0:
475,192,100141,128,0,101474:0:0:0:0:
109,192,100141,1,0,0:0:0:0:
256,192,100474,1,0,0:0:0:0:
402,192,100807,1,0,0:0:0:0:
256,192,101141,1,0,0:0:0:0:
182,192,101474,128,0,102807:0:0:0:0:
402,192,101474,1,0,0:0:0:0:
109,192,101807,1,0,0:0:0:0:
329,192,102141,1,0,0:0:0:0:
109,192,102474,1,0,0:0:0:0:
329,192,102807,128,0,104141:0:0:0:0:
402,192,102807,1,0,0:0:0:0:
182,192,103141,1,0,0:0:0:0:
402,192,103474,1,0,0:0:0:0:
182,192,103807,1,0,0:0:0:0:
256,192,104141,128,0,105474:0:0:0:0:
402,192,104141,1,0,0:0:0:0:
109,192,104474,1,0,0:0:0:0:
402,192,104807,1,0,0:0:0:0:
109,192,105141,1,0,0:0:0:0:
182,192,105474,128,0,106807:0:0:0:0:
329,192,105474,128,0,106807:0:0:0:0:
256,192,106807,128,0,107807:0:0:0:0:
64,192,108307,5,0,0:0:0:0:
182,192,108474,1,0,0:0:0:0:
109,192,108641,1,0,0:0:0:0:
256,192,108807,1,0,0:0:0:0:
182,192,108974,1,0,0:0:0:0:
329,192,109141,1,0,0:0:0:0:
448,192,109307,1,0,0:0:0:0:
109,192,109807,1,0,0:0:0:0:
192,192,109807,1,0,0:0:0:0:
402,192,110141,1,0,0:0:0:0:
256,192,110141,1,0,0:0:0:0:
182,192,110474,1,0,0:0:0:0:
109,192,110474,1,0,0:0:0:0:
329,192,110807,1,0,0:0:0:0:
36,192,110807,1,0,0:0:0:0:
475,192,111474,1,0,0:0:0:0:
329,192,111474,1,0,0:0:0:0:
329,192,111807,1,0,0:0:0:0:
256,192,111807,1,0,0:0:0:0:
109,192,112141,1,0,0:0:0:0:
329,192,112141,1,0,0:0:0:0:
109,192,112807,128,0,113307:0:0:0:0:
256,192,113307,128,0,113641:0:0:0:0:
402,192,113641,128,0,113974:0:0:0:0:
109,192,113974,128,0,114141:0:0:0:0:
192,192,114141,128,0,114474:0:0:0:0:
402,192,114474,128,0,114807:0:0:0:0:
109,192,114807,1,0,0:0:0:0:
402,192,115474,1,0,0:0:0:0:
182,192,115474,1,0,0:0:0:0:
109,192,115807,1,0,0:0:0:0:
182,192,115807,1,0,0:0:0:0:
402,192,116141,1,0,0:0:0:0:
256,192,116141,1,0,0:0:0:0:
329,192,116641,1,0,0:0:0:0:
402,192,116641,1,0,0:0:0:0:
329,192,117141,1,0,0:0:0:0:
475,192,117141,1,0,0:0:0:0:
192,192,118141,128,0,118641:0:0:0:0:
36,192,118641,128,0,118974:0:0:0:0:
402,192,118974,128,0,119307:0:0:0:0:
109,192,119307,128,0,119474:0:0:0:0:
256,192,119474,128,0,119807:0:0:0:0:
475,192,119807,128,0,120141:0:0:0:0:
256,192,120141,1,0,0:0:0:0:
182,192,121141,1,0,0:0:0:0:
109,192,121141,1,0,0:0:0:0:
329,192,121474,1,0,0:0:0:0:
109,192,121474,1,0,0:0:0:0:
256,192,121974,1,0,0:0:0:0:
329,192,121974,1,0,0:0:0:0:
329,192,122474,1,0,0:0:0:0:
109,192,122474,1,0,0:0:0:0:
36,192,122807,1,0,0:0:0:0:
182,192,122807,1,0,0:0:0:0:
64,192,123474,128,0,123974:0:0:0:0:
192,192,123974,128,0,124307:0:0:0:0:
448,192,124307,128,0,124641:0:0:0:0:
64,192,124641,128,0,124807:0:0:0:0:
192,192,124807,128,0,125141:0:0:0:0:
320,192,125141,128,0,125474:0:0:0:0:
36,192,125474,1,0,0:0:0:0:
320,192,126474,1,0,0:0:0:0:
192,192,126474,1,0,0:0:0:0:
448,192,126807,1,0,0:0:0:0:
320,192,126807,1,0,0:0:0:0:
182,192,127307,1,0,0:0:0:0:
329,192,127307,1,0,0:0:0:0:
320,192,128141,128,0,129974:0:0:0:0:
192,192,128141,128,0,129974:0:0:0:0:
36,192,130474,1,0,0:0:0:0:
109,192,130474,1,0,0:0:0:0:
256,192,130641,1,0,0:0:0:0:
182,192,130641,1,0,0:0:0:0:
329,192,130807,128,0,131474:0:0:0:0:
402,192,131474,128,0,131974:0:0:0:0:
109,192,131974,128,0,132307:0:0:0:0:
329,192,132307,128,0,132807:0:0:0:0:
402,192,132807,128,0,133474:0:0:0:0:
64,192,133474,128,0,134141:0:0:0:0:
192,192,134141,128,0,134807:0:0:0:0:
448,192,134807,128,0,135474:0:0:0:0:
402,192,135474,128,0,136141:0:0:0:0:
329,192,136141,128,0,136807:0:0:0:0:
402,192,136807,128,0,137474:0:0:0:0:
109,192,137474,128,0,137641:0:0:0:0:
320,192,137641,128,0,138141:0:0:0:0:
448,192,138141,128,0,138807:0:0:0:0:
320,192,138807,128,0,139307:0:0:0:0:
256,192,139307,128,0,140807:0:0:0:0:
475,192,140807,128,0,141474:0:0:0:0:
329,192,141474,128,0,142141:0:0:0:0:
402,192,142141,128,0,142641:0:0:0:0:
109,192,142641,128,0,142974:0:0:0:0:
329,192,142974,128,0,143474:0:0:0:0:
402,192,143474,128,0,144141:0:0:0:0:
64,192,144141,128,0,144807:0:0:0:0:
182,192,144807,128,0,145141:0:0:0:0:
448,192,145141,128,0,146141:0:0:0:0:
192,192,146141,128,0,146807:0:0:0:0:
329,192,146807,128,0,147474:0:0:0:0:
402,192,147474,128,0,147807:0:0:0:0:
109,192,147807,128,0,148141:0:0:0:0:
448,192,148141,128,0,148641:0:0:0:0:
402,192,148641,128,0,149474:0:0:0:0:
182,192,149474,128,0,150807:0:0:0:0:
402,192,150807,128,0,151474:0:0:0:0:
256,192,151474,128,0,152141:0:0:0:0:
182,192,152141,128,0,153474:0:0:0:0:
329,192,152474,1,0,0:0:0:0:
36,192,152808,1,0,0:0:0:0:
329,192,153141,1,0,0:0:0:0:
402,192,153474,128,0,154808:0:0:0:0:
36,192,153474,1,0,0:0:0:0:
329,192,153807,1,0,0:0:0:0:
256,192,154141,1,0,0:0:0:0:
329,192,154474,1,0,0:0:0:0:
109,192,154808,128,0,156141:0:0:0:0:
256,192,154808,1,0,0:0:0:0:
475,192,155141,1,0,0:0:0:0:
256,192,155474,1,0,0:0:0:0:
475,192,155807,1,0,0:0:0:0:
182,192,156141,128,0,157474:0:0:0:0:
256,192,156141,1,0,0:0:0:0:
109,192,156474,1,0,0:0:0:0:
256,192,156808,1,0,0:0:0:0:
109,192,157141,1,0,0:0:0:0:
329,192,157474,128,0,158808:0:0:0:0:
256,192,157474,1,0,0:0:0:0:
402,192,157808,1,0,0:0:0:0:
36,192,158141,1,0,0:0:0:0:
402,192,158474,1,0,0:0:0:0:
402,192,158807,1,0,0:0:0:0:
109,192,158808,128,0,160141:0:0:0:0:
182,192,159141,1,0,0:0:0:0:
402,192,159474,1,0,0:0:0:0:
182,192,159808,1,0,0:0:0:0:
182,192,160141,128,0,161474:0:0:0:0:
402,192,160141,1,0,0:0:0:0:
329,192,160474,1,0,0:0:0:0:
36,192,160808,1,0,0:0:0:0:
329,192,161141,1,0,0:0:0:0:
329,192,161474,128,0,162808:0:0:0:0:
36,192,161474,1,0,0:0:0:0:
475,192,161808,1,0,0:0:0:0:
36,192,162141,1,0,0:0:0:0:
475,192,162474,1,0,0:0:0:0:
182,192,162808,128,0,164141:0:0:0:0:
36,192,162808,1,0,0:0:0:0:
402,192,163141,1,0,0:0:0:0:
109,192,163474,1,0,0:0:0:0:
402,192,163808,1,0,0:0:0:0:
402,192,164141,128,0,165474:0:0:0:0:
109,192,164141,1,0,0:0:0:0:
329,192,164474,1,0,0:0:0:0:
109,192,164808,1,0,0:0:0:0:
329,192,165141,1,0,0:0:0:0:
36,192,165474,128,0,166808:0:0:0:0:
109,192,165474,1,0,0:0:0:0:
256,192,165808,1,0,0:0:0:0:
109,192,166141,1,0,0:0:0:0:
256,192,166474,1,0,0:0:0:0:
475,192,166808,128,0,168141:0:0:0:0:
109,192,166808,1,0,0:0:0:0:
256,192,167141,1,0,0:0:0:0:
402,192,167474,1,0,0:0:0:0:
256,192,167808,1,0,0:0:0:0:
182,192,168141,128,0,169474:0:0:0:0:
402,192,168141,1,0,0:0:0:0:
109,192,168474,1,0,0:0:0:0:
329,192,168808,1,0,0:0:0:0:
109,192,169141,1,0,0:0:0:0:
329,192,169474,128,0,170808:0:0:0:0:
402,192,169474,1,0,0:0:0:0:
182,192,169808,1,0,0:0:0:0:
402,192,170141,1,0,0:0:0:0:
182,192,170474,1,0,0:0:0:0:
256,192,170808,128,0,172141:0:0:0:0:
402,192,170808,1,0,0:0:0:0:
109,192,171141,1,0,0:0:0:0:
402,192,171474,1,0,0:0:0:0:
109,192,171808,1,0,0:0:0:0:
182,192,172141,128,0,173474:0:0:0:0:
329,192,172141,128,0,173474:0:0:0:0:
109,192,173474,128,0,174807:0:0:0:0:
36,192,173474,128,0,174807:0:0:0:0:
329,192,173807,1,0,0:0:0:0:
182,192,174141,1,0,0:0:0:0:
329,192,174474,1,0,0:0:0:0:
182,192,174807,1,0,0:0:0:0:
402,192,174807,128,0,176141:0:0:0:0:
475,192,174807,128,0,176141:0:0:0:0:
109,192,175141,1,0,0:0:0:0:
256,192,175474,1,0,0:0:0:0:
109,192,175807,1,0,0:0:0:0:
256,192,176141,1,0,0:0:0:0:
182,192,176141,128,0,177474:0:0:0:0:
36,192,176141,128,0,177474:0:0:0:0:
402,192,176474,1,0,0:0:0:0:
256,192,176807,1,0,0:0:0:0:
402,192,177141,1,0,0:0:0:0:
256,192,177474,1,0,0:0:0:0:
475,192,177474,128,0,178807:0:0:0:0:
402,192,177474,128,0,178807:0:0:0:0:
109,192,177807,1,0,0:0:0:0:
256,192,178141,1,0,0:0:0:0:
109,192,178474,1,0,0:0:0:0:
256,192,178807,1,0,0:0:0:0:
182,192,178807,128,0,180141:0:0:0:0:
329,192,178807,128,0,180141:0:0:0:0:
109,192,179141,1,0,0:0:0:0:
475,192,179474,1,0,0:0:0:0:
109,192,179807,1,0,0:0:0:0:
475,192,180141,1,0,0:0:0:0:
256,192,180141,128,0,181474:0:0:0:0:
109,192,180141,128,0,181474:0:0:0:0:
182,192,180474,1,0,0:0:0:0:
475,192,180807,1,0,0:0:0:0:
182,192,181141,1,0,0:0:0:0:
475,192,181474,1,0,0:0:0:0:
329,192,181474,128,0,182807:0:0:0:0:
402,192,181474,128,0,182807:0:0:0:0:
36,192,181807,1,0,0:0:0:0:
182,192,182141,1,0,0:0:0:0:
36,192,182474,1,0,0:0:0:0:
475,192,182807,1,0,0:0:0:0:
109,192,182807,128,0,184141:0:0:0:0:
256,192,182807,128,0,184141:0:0:0:0:
182,192,183141,1,0,0:0:0:0:
475,192,183474,1,0,0:0:0:0:
182,192,183807,1,0,0:0:0:0:
182,192,184141,128,0,184807:0:0:0:0:
329,192,184141,1,0,0:0:0:0:
329,192,184807,128,0,185474:0:0:0:0:
402,192,184807,1,0,0:0:0:0:
402,192,185474,128,0,186807:0:0:0:0:
256,192,185474,1,0,0:0:0:0:
109,192,185807,1,0,0:0:0:0:
256,192,186141,1,0,0:0:0:0:
109,192,186474,1,0,0:0:0:0:
256,192,186807,1,0,0:0:0:0:
36,192,186807,128,0,188141:0:0:0:0:
109,192,186807,128,0,188141:0:0:0:0:
182,192,187141,1,0,0:0:0:0:
256,192,187474,1,0,0:0:0:0:
182,192,187807,1,0,0:0:0:0:
329,192,188141,1,0,0:0:0:0:
475,192,188141,128,0,189474:0:0:0:0:
402,192,188141,128,0,189474:0:0:0:0:
109,192,188474,1,0,0:0:0:0:
329,192,188807,1,0,0:0:0:0:
109,192,189141,1,0,0:0:0:0:
329,192,189474,1,0,0:0:0:0:
182,192,189474,128,0,190807:0:0:0:0:
256,192,189474,128,0,190807:0:0:0:0:
109,192,189807,1,0,0:0:0:0:
329,192,190141,1,0,0:0:0:0:
109,192,190474,1,0,0:0:0:0:
36,192,190807,1,0,0:0:0:0:
402,192,190807,128,0,192141:0:0:0:0:
475,192,190807,128,0,192141:0:0:0:0:
182,192,191141,1,0,0:0:0:0:
36,192,191474,1,0,0:0:0:0:
182,192,191807,1,0,0:0:0:0:
36,192,192141,1,0,0:0:0:0:
182,192,192141,128,0,193474:0:0:0:0:
329,192,192141,128,0,193474:0:0:0:0:
256,192,192474,1,0,0:0:0:0:
402,192,192807,1,0,0:0:0:0:
109,192,192807,1,0,0:0:0:0:
256,192,193141,1,0,0:0:0:0:
109,192,193474,1,0,0:0:0:0:
402,192,193474,1,0,0:0:0:0:
256,192,193474,128,0,194807:0:0:0:0:
182,192,193807,1,0,0:0:0:0:
329,192,193807,1,0,0:0:0:0:
109,192,194141,1,0,0:0:0:0:
402,192,194141,1,0,0:0:0:0:
182,192,194474,1,0,0:0:0:0:
329,192,194474,1,0,0:0:0:0:
109,192,194807,1,0,0:0:0:0:
402,192,194807,1,0,0:0:0:0:
182,192,194807,128,0,196141:0:0:0:0:
329,192,194807,128,0,196141:0:0:0:0:
36,192,196141,128,0,197474:0:0:0:0:
109,192,196141,128,0,197474:0:0:0:0:
402,192,197474,128,0,198807:0:0:0:0:
182,192,197474,128,0,198807:0:0:0:0:
256,192,200141,128,0,201474:0:0:0:0:
329,192,200141,128,0,201474:0:0:0:0:
109,192,201474,128,0,202807:0:0:0:0:
36,192,201474,128,0,202807:0:0:0:0:
402,192,202807,128,0,204141:0:0:0:0:
475,192,202807,128,0,204141:0:0:0:0:
36,192,204141,128,0,205474:0:0:0:0:
329,192,204141,128,0,205474:0:0:0:0:
182,192,205474,128,0,206807:0:0:0:0:
402,192,205474,128,0,206807:0:0:0:0:
109,192,206807,128,0,208141:0:0:0:0:
475,192,206807,128,0,208141:0:0:0:0:
36,192,208141,128,0,208807:0:0:0:0:
256,192,208141,128,0,208807:0:0:0:0:
109,192,208807,128,0,209474:0:0:0:0:
329,192,208807,128,0,209474:0:0:0:0:
256,192,209474,128,0,210807:0:0:0:0:
475,192,209474,128,0,210807:0:0:0:0:
36,192,210807,128,0,212141:0:0:0:0:
329,192,210807,128,0,212141:0:0:0:0:
182,192,212141,128,0,213474:0:0:0:0:
475,192,212141,128,0,213474:0:0:0:0:
109,192,213474,128,0,224141:0:0:0:0:
402,192,213474,128,0,224141:0:0:0:0:
256,192,213474,128,0,224141:0:0:0:0:
