osu file format v13

[General]
AudioFilename: 09 Fireflies.mp3
AudioLeadIn: 0
PreviewTime: 152141
Countdown: 0
SampleSet: Soft
StackLeniency: 0.7
Mode: 3
LetterboxInBreaks: 0
SpecialStyle: 0
WidescreenStoryboard: 1

[Editor]
Bookmarks: 118807
DistanceSpacing: 1.1
BeatDivisor: 4
GridSize: 4
TimelineZoom: 1

[Metadata]
Title:Fireflies
TitleUnicode:Fireflies
Artist:Owl City
ArtistUnicode:Owl City
Creator:Level 51
Version:4K HD
Source:
Tags:ocean eyes adam young platinum blocko
BeatmapID:442093
BeatmapSetID:178135

[Difficulty]
HPDrainRate:9
CircleSize:4
OverallDifficulty:9
ApproachRate:5
SliderMultiplier:1.4
SliderTickRate:1

[Events]
//Background and Video events
0,0,"BG.jpg",0,0
//Break Periods
//Storyboard Layer 0 (Background)
//Storyboard Layer 1 (Fail)
//Storyboard Layer 2 (Pass)
//Storyboard Layer 3 (Foreground)
//Storyboard Sound Samples
//Background Colour Transformations
3,100,163,162,255

[TimingPoints]
141,666.666666666667,4,2,0,7,1,0
85474,-100,4,2,0,7,0,1
106807,-100,4,2,0,7,0,0
152141,-100,4,2,0,7,0,1
173141,-100,4,2,0,7,0,0
173474,-100,4,2,0,7,0,1
194807,-133.333333333333,4,2,0,7,0,0
213474,-200,4,2,0,7,0,0

[HitObjects]
64,192,141,5,0,0:0:0:0:
320,192,141,1,0,0:0:0:0:
192,192,307,1,0,0:0:0:0:
448,192,474,1,0,0:0:0:0:
64,192,641,1,0,0:0:0:0:
320,192,641,1,0,0:0:0:0:
192,192,807,1,0,0:0:0:0:
320,192,974,1,0,0:0:0:0:
192,192,1307,1,0,0:0:0:0:
320,192,1307,1,0,0:0:0:0:
64,192,1474,1,0,0:0:0:0:
192,192,1641,1,0,0:0:0:0:
320,192,1807,1,0,0:0:0:0:
64,192,1974,1,0,0:0:0:0:
320,192,2141,1,0,0:0:0:0:
448,192,2307,128,0,2641:0:0:0:0:
320,192,2641,1,0,0:0:0:0:
64,192,2807,1,0,0:0:0:0:
320,192,2807,1,0,0:0:0:0:
192,192,2974,1,0,0:0:0:0:
320,192,3141,1,0,0:0:0:0:
192,192,3307,1,0,0:0:0:0:
320,192,3474,1,0,0:0:0:0:
448,192,3641,1,0,0:0:0:0:
320,192,3807,1,0,0:0:0:0:
64,192,3974,1,0,0:0:0:0:
192,192,3974,1,0,0:0:0:0:
64,192,4307,1,0,0:0:0:0:
448,192,4474,1,0,0:0:0:0:
320,192,4641,1,0,0:0:0:0:
64,192,4807,1,0,0:0:0:0:
192,192,4974,1,0,0:0:0:0:
320,192,5141,1,0,0:0:0:0:
448,192,5307,1,0,0:0:0:0:
64,192,5474,1,0,0:0:0:0:
320,192,5474,1,0,0:0:0:0:
192,192,5641,1,0,0:0:0:0:
448,192,5807,1,0,0:0:0:0:
320,192,5974,1,0,0:0:0:0:
64,192,6141,1,0,0:0:0:0:
192,192,6141,1,0,0:0:0:0:
192,192,6307,1,0,0:0:0:0:
320,192,6474,1,0,0:0:0:0:
192,192,6641,1,0,0:0:0:0:
64,192,6807,1,0,0:0:0:0:
192,192,6974,1,0,0:0:0:0:
448,192,7141,1,0,0:0:0:0:
320,192,7307,1,0,0:0:0:0:
448,192,7474,1,0,0:0:0:0:
320,192,7641,1,0,0:0:0:0:
192,192,7807,1,0,0:0:0:0:
64,192,7974,1,0,0:0:0:0:
64,192,8141,1,0,0:0:0:0:
192,192,8141,1,0,0:0:0:0:
320,192,8307,1,0,0:0:0:0:
448,192,8474,1,0,0:0:0:0:
320,192,8641,1,0,0:0:0:0:
192,192,8807,1,0,0:0:0:0:
64,192,8974,1,0,0:0:0:0:
320,192,8974,1,0,0:0:0:0:
64,192,9141,1,0,0:0:0:0:
192,192,9307,1,0,0:0:0:0:
448,192,9307,1,0,0:0:0:0:
192,192,9474,128,0,9807:0:0:0:0:
448,192,9474,128,0,9807:0:0:0:0:
64,192,9807,1,0,0:0:0:0:
192,192,9974,1,0,0:0:0:0:
320,192,10141,1,0,0:0:0:0:
448,192,10307,1,0,0:0:0:0:
448,192,10474,128,0,10807:0:0:0:0:
192,192,10474,128,0,10807:0:0:0:0:
320,192,10807,128,0,11307:0:0:0:0:
64,192,10807,128,0,11307:0:0:0:0:
192,192,11307,128,0,11474:0:0:0:0:
64,192,11474,1,0,0:0:0:0:
192,192,11807,128,0,12141:0:0:0:0:
448,192,11807,128,0,12141:0:0:0:0:
64,192,12141,128,0,12641:0:0:0:0:
320,192,12141,128,0,12641:0:0:0:0:
192,192,12641,128,0,12974:0:0:0:0:
320,192,12974,128,0,13307:0:0:0:0:
64,192,12974,1,0,0:0:0:0:
192,192,13141,1,0,0:0:0:0:
448,192,13307,1,0,0:0:0:0:
64,192,13474,1,0,0:0:0:0:
192,192,13641,1,0,0:0:0:0:
448,192,13807,1,0,0:0:0:0:
64,192,13974,1,0,0:0:0:0:
320,192,13974,1,0,0:0:0:0:
192,192,14141,1,0,0:0:0:0:
320,192,14307,1,0,0:0:0:0:
64,192,14474,128,0,14807:0:0:0:0:
448,192,14474,1,0,0:0:0:0:
192,192,14807,128,0,15307:0:0:0:0:
448,192,14807,1,0,0:0:0:0:
320,192,15307,128,0,15807:0:0:0:0:
448,192,15307,1,0,0:0:0:0:
448,192,15807,128,0,16307:0:0:0:0:
64,192,16307,1,0,0:0:0:0:
192,192,16474,1,0,0:0:0:0:
448,192,16641,1,0,0:0:0:0:
192,192,16807,1,0,0:0:0:0:
64,192,16974,1,0,0:0:0:0:
320,192,16974,1,0,0:0:0:0:
448,192,16974,1,0,0:0:0:0:
192,192,17141,1,0,0:0:0:0:
64,192,17141,1,0,0:0:0:0:
448,192,17141,1,0,0:0:0:0:
320,192,17307,1,0,0:0:0:0:
448,192,17474,128,0,17974:0:0:0:0:
64,192,17474,1,0,0:0:0:0:
320,192,17974,128,0,18474:0:0:0:0:
64,192,17974,1,0,0:0:0:0:
192,192,18474,128,0,18807:0:0:0:0:
64,192,18474,1,0,0:0:0:0:
64,192,18807,1,0,0:0:0:0:
320,192,18807,1,0,0:0:0:0:
448,192,18807,1,0,0:0:0:0:
192,192,18974,1,0,0:0:0:0:
448,192,19141,1,0,0:0:0:0:
64,192,19307,1,0,0:0:0:0:
192,192,19474,1,0,0:0:0:0:
448,192,19641,1,0,0:0:0:0:
320,192,19641,128,0,21474:0:0:0:0:
192,192,19974,1,0,0:0:0:0:
64,192,20141,1,0,0:0:0:0:
448,192,20141,1,0,0:0:0:0:
448,192,20474,128,0,20974:0:0:0:0:
64,192,20474,128,0,20641:0:0:0:0:
64,192,20807,1,0,0:0:0:0:
64,192,20974,128,0,21307:0:0:0:0:
192,192,20974,1,0,0:0:0:0:
448,192,21141,1,0,0:0:0:0:
64,192,21474,1,0,0:0:0:0:
448,192,21474,1,0,0:0:0:0:
192,192,21641,1,0,0:0:0:0:
448,192,21807,1,0,0:0:0:0:
64,192,21974,1,0,0:0:0:0:
192,192,21974,1,0,0:0:0:0:
320,192,21974,1,0,0:0:0:0:
192,192,22141,1,0,0:0:0:0:
320,192,22307,1,0,0:0:0:0:
192,192,22641,1,0,0:0:0:0:
64,192,22807,1,0,0:0:0:0:
320,192,22974,1,0,0:0:0:0:
448,192,23141,1,0,0:0:0:0:
320,192,23141,1,0,0:0:0:0:
192,192,23141,1,0,0:0:0:0:
192,192,23307,1,0,0:0:0:0:
320,192,23474,1,0,0:0:0:0:
448,192,23641,1,0,0:0:0:0:
64,192,23974,1,0,0:0:0:0:
64,192,24141,1,0,0:0:0:0:
320,192,24141,1,0,0:0:0:0:
448,192,24141,1,0,0:0:0:0:
320,192,24307,1,0,0:0:0:0:
64,192,24474,1,0,0:0:0:0:
192,192,24641,1,0,0:0:0:0:
320,192,24641,1,0,0:0:0:0:
64,192,24641,1,0,0:0:0:0:
192,192,24807,1,0,0:0:0:0:
320,192,24974,1,0,0:0:0:0:
64,192,25141,1,0,0:0:0:0:
192,192,25141,1,0,0:0:0:0:
320,192,25141,1,0,0:0:0:0:
448,192,25307,1,0,0:0:0:0:
192,192,25474,1,0,0:0:0:0:
448,192,25641,1,0,0:0:0:0:
64,192,25807,1,0,0:0:0:0:
320,192,25807,1,0,0:0:0:0:
448,192,25807,1,0,0:0:0:0:
320,192,25974,1,0,0:0:0:0:
64,192,26141,1,0,0:0:0:0:
192,192,26307,1,0,0:0:0:0:
448,192,26474,1,0,0:0:0:0:
64,192,26641,1,0,0:0:0:0:
192,192,26641,1,0,0:0:0:0:
320,192,26641,1,0,0:0:0:0:
64,192,26807,1,0,0:0:0:0:
320,192,26807,1,0,0:0:0:0:
448,192,26807,1,0,0:0:0:0:
320,192,26974,1,0,0:0:0:0:
448,192,27141,1,0,0:0:0:0:
64,192,27307,1,0,0:0:0:0:
320,192,27307,1,0,0:0:0:0:
448,192,27307,1,0,0:0:0:0:
192,192,27474,1,0,0:0:0:0:
320,192,27641,1,0,0:0:0:0:
64,192,27974,1,0,0:0:0:0:
192,192,28141,1,0,0:0:0:0:
448,192,28307,1,0,0:0:0:0:
64,192,28474,1,0,0:0:0:0:
448,192,28474,1,0,0:0:0:0:
320,192,28474,1,0,0:0:0:0:
448,192,28807,1,0,0:0:0:0:
192,192,28974,1,0,0:0:0:0:
64,192,28974,1,0,0:0:0:0:
448,192,28974,1,0,0:0:0:0:
192,192,29141,1,0,0:0:0:0:
64,192,29307,1,0,0:0:0:0:
64,192,29474,1,0,0:0:0:0:
192,192,29474,1,0,0:0:0:0:
320,192,29474,1,0,0:0:0:0:
192,192,29641,1,0,0:0:0:0:
448,192,29807,1,0,0:0:0:0:
64,192,29974,1,0,0:0:0:0:
192,192,29974,1,0,0:0:0:0:
320,192,29974,1,0,0:0:0:0:
192,192,30141,1,0,0:0:0:0:
320,192,30307,1,0,0:0:0:0:
64,192,30641,1,0,0:0:0:0:
448,192,30641,1,0,0:0:0:0:
320,192,30641,128,0,30974:0:0:0:0:
64,192,30974,1,0,0:0:0:0:
192,192,30974,1,0,0:0:0:0:
320,192,31141,1,0,0:0:0:0:
64,192,31141,1,0,0:0:0:0:
448,192,31141,1,0,0:0:0:0:
64,192,31307,1,0,0:0:0:0:
192,192,31474,1,0,0:0:0:0:
320,192,31641,1,0,0:0:0:0:
448,192,31807,1,0,0:0:0:0:
320,192,31807,1,0,0:0:0:0:
192,192,31807,1,0,0:0:0:0:
64,192,31974,1,0,0:0:0:0:
64,192,32141,1,0,0:0:0:0:
320,192,32141,1,0,0:0:0:0:
448,192,32141,1,0,0:0:0:0:
448,192,32307,1,0,0:0:0:0:
64,192,32474,1,0,0:0:0:0:
64,192,32641,1,0,0:0:0:0:
192,192,32641,1,0,0:0:0:0:
320,192,32641,1,0,0:0:0:0:
320,192,32807,1,0,0:0:0:0:
64,192,33307,1,0,0:0:0:0:
448,192,33474,1,0,0:0:0:0:
64,192,33641,1,0,0:0:0:0:
448,192,33807,1,0,0:0:0:0:
320,192,33807,1,0,0:0:0:0:
192,192,33807,1,0,0:0:0:0:
192,192,33974,1,0,0:0:0:0:
320,192,34141,1,0,0:0:0:0:
448,192,34307,1,0,0:0:0:0:
64,192,34807,1,0,0:0:0:0:
448,192,34807,1,0,0:0:0:0:
320,192,34807,1,0,0:0:0:0:
64,192,34974,1,0,0:0:0:0:
192,192,35141,1,0,0:0:0:0:
64,192,35307,1,0,0:0:0:0:
192,192,35307,1,0,0:0:0:0:
448,192,35307,1,0,0:0:0:0:
192,192,35474,1,0,0:0:0:0:
448,192,35641,1,0,0:0:0:0:
64,192,35807,1,0,0:0:0:0:
192,192,35807,1,0,0:0:0:0:
320,192,35807,1,0,0:0:0:0:
448,192,35974,1,0,0:0:0:0:
64,192,36141,1,0,0:0:0:0:
448,192,36307,1,0,0:0:0:0:
64,192,36474,1,0,0:0:0:0:
192,192,36474,1,0,0:0:0:0:
320,192,36474,1,0,0:0:0:0:
320,192,36641,1,0,0:0:0:0:
64,192,36807,1,0,0:0:0:0:
448,192,36974,1,0,0:0:0:0:
64,192,37141,1,0,0:0:0:0:
320,192,37307,1,0,0:0:0:0:
64,192,37307,1,0,0:0:0:0:
448,192,37474,1,0,0:0:0:0:
192,192,37474,1,0,0:0:0:0:
320,192,37474,1,0,0:0:0:0:
64,192,37641,1,0,0:0:0:0:
320,192,37807,1,0,0:0:0:0:
448,192,37974,1,0,0:0:0:0:
320,192,37974,1,0,0:0:0:0:
192,192,37974,1,0,0:0:0:0:
64,192,38141,1,0,0:0:0:0:
192,192,38307,1,0,0:0:0:0:
320,192,38474,1,0,0:0:0:0:
64,192,38807,1,0,0:0:0:0:
320,192,38974,1,0,0:0:0:0:
64,192,39141,1,0,0:0:0:0:
448,192,39141,1,0,0:0:0:0:
320,192,39141,1,0,0:0:0:0:
448,192,39307,1,0,0:0:0:0:
320,192,39474,1,0,0:0:0:0:
192,192,39641,1,0,0:0:0:0:
64,192,39641,1,0,0:0:0:0:
448,192,39641,1,0,0:0:0:0:
64,192,39807,1,0,0:0:0:0:
64,192,40141,1,0,0:0:0:0:
192,192,40141,1,0,0:0:0:0:
320,192,40141,1,0,0:0:0:0:
64,192,40307,128,0,40474:0:0:0:0:
192,192,40474,128,0,40641:0:0:0:0:
448,192,40641,128,0,40807:0:0:0:0:
320,192,40807,128,0,40974:0:0:0:0:
64,192,40974,128,0,41141:0:0:0:0:
192,192,41141,128,0,41307:0:0:0:0:
320,192,41307,128,0,41474:0:0:0:0:
320,192,41641,128,0,41974:0:0:0:0:
192,192,41641,1,0,0:0:0:0:
64,192,41807,1,0,0:0:0:0:
192,192,41974,128,0,42641:0:0:0:0:
448,192,41974,128,0,42141:0:0:0:0:
320,192,42141,128,0,42807:0:0:0:0:
448,192,42307,128,0,42807:0:0:0:0:
64,192,42474,128,0,42807:0:0:0:0:
192,192,42807,128,0,44141:0:0:0:0:
320,192,43141,1,0,0:0:0:0:
320,192,43474,1,0,0:0:0:0:
320,192,43807,1,0,0:0:0:0:
320,192,44141,128,0,45474:0:0:0:0:
64,192,44141,128,0,45474:0:0:0:0:
448,192,44141,1,0,0:0:0:0:
192,192,44474,1,0,0:0:0:0:
192,192,44807,1,0,0:0:0:0:
192,192,45141,1,0,0:0:0:0:
448,192,45474,128,0,46807:0:0:0:0:
192,192,45474,128,0,46807:0:0:0:0:
320,192,45807,1,0,0:0:0:0:
64,192,46141,1,0,0:0:0:0:
320,192,46474,1,0,0:0:0:0:
64,192,46641,1,0,0:0:0:0:
320,192,46807,1,0,0:0:0:0:
320,192,46974,1,0,0:0:0:0:
192,192,47141,1,0,0:0:0:0:
320,192,47474,1,0,0:0:0:0:
192,192,47807,1,0,0:0:0:0:
192,192,48141,128,0,49475:0:0:0:0:
320,192,48141,1,0,0:0:0:0:
64,192,48141,1,0,0:0:0:0:
320,192,48474,1,0,0:0:0:0:
448,192,48474,1,0,0:0:0:0:
320,192,48807,1,0,0:0:0:0:
64,192,48807,1,0,0:0:0:0:
320,192,49141,1,0,0:0:0:0:
448,192,49141,1,0,0:0:0:0:
320,192,49307,1,0,0:0:0:0:
448,192,49307,1,0,0:0:0:0:
64,192,49474,128,0,50807:0:0:0:0:
448,192,49474,1,0,0:0:0:0:
320,192,49474,1,0,0:0:0:0:
448,192,49807,1,0,0:0:0:0:
192,192,49807,1,0,0:0:0:0:
448,192,50141,1,0,0:0:0:0:
320,192,50141,1,0,0:0:0:0:
448,192,50474,1,0,0:0:0:0:
192,192,50474,1,0,0:0:0:0:
192,192,50807,128,0,52141:0:0:0:0:
448,192,50807,1,0,0:0:0:0:
320,192,50807,1,0,0:0:0:0:
64,192,50974,1,0,0:0:0:0:
448,192,51141,1,0,0:0:0:0:
64,192,51307,1,0,0:0:0:0:
448,192,51474,1,0,0:0:0:0:
448,192,51807,1,0,0:0:0:0:
64,192,51974,1,0,0:0:0:0:
320,192,52141,128,0,53474:0:0:0:0:
448,192,52141,1,0,0:0:0:0:
64,192,52307,1,0,0:0:0:0:
448,192,52474,1,0,0:0:0:0:
448,192,52807,1,0,0:0:0:0:
448,192,53141,1,0,0:0:0:0:
192,192,53474,128,0,54808:0:0:0:0:
448,192,53474,1,0,0:0:0:0:
64,192,53807,1,0,0:0:0:0:
320,192,53807,1,0,0:0:0:0:
64,192,54141,1,0,0:0:0:0:
320,192,54141,1,0,0:0:0:0:
64,192,54474,1,0,0:0:0:0:
320,192,54474,1,0,0:0:0:0:
320,192,54807,128,0,56141:0:0:0:0:
64,192,54807,1,0,0:0:0:0:
64,192,54974,1,0,0:0:0:0:
192,192,54974,1,0,0:0:0:0:
64,192,55141,1,0,0:0:0:0:
192,192,55141,1,0,0:0:0:0:
448,192,55474,1,0,0:0:0:0:
448,192,55807,1,0,0:0:0:0:
192,192,56141,128,0,58807:0:0:0:0:
448,192,56141,1,0,0:0:0:0:
64,192,56141,1,0,0:0:0:0:
64,192,56474,1,0,0:0:0:0:
448,192,56474,1,0,0:0:0:0:
320,192,56807,128,0,58807:0:0:0:0:
64,192,56807,1,0,0:0:0:0:
448,192,56807,1,0,0:0:0:0:
64,192,57141,1,0,0:0:0:0:
448,192,57141,1,0,0:0:0:0:
448,192,57474,128,0,58807:0:0:0:0:
64,192,57807,1,0,0:0:0:0:
64,192,58141,1,0,0:0:0:0:
64,192,58474,1,0,0:0:0:0:
64,192,58807,128,0,60141:0:0:0:0:
192,192,59141,1,0,0:0:0:0:
320,192,59474,1,0,0:0:0:0:
192,192,59807,1,0,0:0:0:0:
448,192,60141,128,0,61474:0:0:0:0:
320,192,60141,1,0,0:0:0:0:
192,192,60474,1,0,0:0:0:0:
64,192,60807,1,0,0:0:0:0:
192,192,61141,1,0,0:0:0:0:
320,192,61474,128,0,64141:0:0:0:0:
64,192,61474,1,0,0:0:0:0:
192,192,61641,1,0,0:0:0:0:
64,192,61807,1,0,0:0:0:0:
192,192,62141,1,0,0:0:0:0:
192,192,62474,1,0,0:0:0:0:
448,192,62641,1,0,0:0:0:0:
192,192,62807,1,0,0:0:0:0:
64,192,62974,1,0,0:0:0:0:
192,192,63141,1,0,0:0:0:0:
192,192,63474,128,0,64141:0:0:0:0:
64,192,63474,128,0,63641:0:0:0:0:
448,192,63474,128,0,63641:0:0:0:0:
64,192,64141,1,0,0:0:0:0:
448,192,64141,1,0,0:0:0:0:
192,192,64307,1,0,0:0:0:0:
448,192,64474,1,0,0:0:0:0:
64,192,64641,1,0,0:0:0:0:
320,192,64641,1,0,0:0:0:0:
448,192,64641,1,0,0:0:0:0:
192,192,64807,1,0,0:0:0:0:
320,192,64974,1,0,0:0:0:0:
64,192,65141,1,0,0:0:0:0:
192,192,65141,1,0,0:0:0:0:
320,192,65141,1,0,0:0:0:0:
448,192,65307,1,0,0:0:0:0:
192,192,65474,1,0,0:0:0:0:
64,192,65474,1,0,0:0:0:0:
448,192,65474,1,0,0:0:0:0:
320,192,65641,1,0,0:0:0:0:
64,192,65807,1,0,0:0:0:0:
192,192,65974,1,0,0:0:0:0:
320,192,66141,1,0,0:0:0:0:
64,192,66141,1,0,0:0:0:0:
448,192,66141,1,0,0:0:0:0:
192,192,66474,1,0,0:0:0:0:
192,192,66807,128,0,67474:0:0:0:0:
320,192,66807,128,0,67474:0:0:0:0:
64,192,66807,1,0,0:0:0:0:
448,192,66807,1,0,0:0:0:0:
448,192,67141,1,0,0:0:0:0:
64,192,67307,1,0,0:0:0:0:
448,192,67474,1,0,0:0:0:0:
64,192,67474,1,0,0:0:0:0:
448,192,67641,1,0,0:0:0:0:
448,192,67807,1,0,0:0:0:0:
64,192,67807,128,0,68974:0:0:0:0:
192,192,67807,128,0,68474:0:0:0:0:
320,192,67807,128,0,67974:0:0:0:0:
320,192,68141,1,0,0:0:0:0:
448,192,68307,1,0,0:0:0:0:
320,192,68474,1,0,0:0:0:0:
192,192,68641,1,0,0:0:0:0:
448,192,68807,1,0,0:0:0:0:
320,192,68974,1,0,0:0:0:0:
64,192,69141,1,0,0:0:0:0:
320,192,69307,1,0,0:0:0:0:
64,192,69474,1,0,0:0:0:0:
448,192,69474,1,0,0:0:0:0:
192,192,69474,128,0,70807:0:0:0:0:
320,192,69807,1,0,0:0:0:0:
448,192,70141,1,0,0:0:0:0:
64,192,70141,1,0,0:0:0:0:
320,192,70141,128,0,71307:0:0:0:0:
64,192,70974,1,0,0:0:0:0:
448,192,70974,1,0,0:0:0:0:
192,192,70974,128,0,71641:0:0:0:0:
448,192,71474,1,0,0:0:0:0:
320,192,71474,1,0,0:0:0:0:
64,192,71474,128,0,71807:0:0:0:0:
320,192,71807,1,0,0:0:0:0:
192,192,71807,1,0,0:0:0:0:
448,192,71807,128,0,72974:0:0:0:0:
64,192,72141,1,0,0:0:0:0:
192,192,72141,1,0,0:0:0:0:
320,192,72141,1,0,0:0:0:0:
64,192,72641,1,0,0:0:0:0:
320,192,72641,1,0,0:0:0:0:
192,192,72641,128,0,73474:0:0:0:0:
64,192,73141,1,0,0:0:0:0:
320,192,73141,1,0,0:0:0:0:
448,192,73141,128,0,73974:0:0:0:0:
64,192,73474,1,0,0:0:0:0:
192,192,73641,1,0,0:0:0:0:
320,192,73641,1,0,0:0:0:0:
64,192,73641,128,0,74307:0:0:0:0:
448,192,74141,1,0,0:0:0:0:
192,192,74141,1,0,0:0:0:0:
320,192,74141,1,0,0:0:0:0:
64,192,74474,1,0,0:0:0:0:
320,192,74474,1,0,0:0:0:0:
192,192,74474,1,0,0:0:0:0:
320,192,74641,1,0,0:0:0:0:
448,192,74641,1,0,0:0:0:0:
64,192,74641,1,0,0:0:0:0:
64,192,74807,1,0,0:0:0:0:
320,192,74807,1,0,0:0:0:0:
192,192,74807,128,0,75641:0:0:0:0:
320,192,75307,1,0,0:0:0:0:
448,192,75307,1,0,0:0:0:0:
64,192,75807,1,0,0:0:0:0:
448,192,75807,1,0,0:0:0:0:
192,192,75807,128,0,76641:0:0:0:0:
448,192,76141,1,0,0:0:0:0:
320,192,76141,1,0,0:0:0:0:
64,192,76141,128,0,77307:0:0:0:0:
320,192,76807,1,0,0:0:0:0:
192,192,76807,1,0,0:0:0:0:
448,192,76807,128,0,78641:0:0:0:0:
320,192,77474,1,0,0:0:0:0:
64,192,77474,1,0,0:0:0:0:
192,192,77474,128,0,77974:0:0:0:0:
64,192,77974,1,0,0:0:0:0:
320,192,77974,1,0,0:0:0:0:
320,192,78474,1,0,0:0:0:0:
64,192,78474,128,0,79641:0:0:0:0:
192,192,78474,128,0,79141:0:0:0:0:
320,192,78807,1,0,0:0:0:0:
448,192,78807,128,0,80141:0:0:0:0:
192,192,79307,1,0,0:0:0:0:
320,192,79307,128,0,80141:0:0:0:0:
64,192,79807,1,0,0:0:0:0:
192,192,79807,128,0,80141:0:0:0:0:
64,192,80141,128,0,81474:0:0:0:0:
192,192,80641,128,0,81474:0:0:0:0:
320,192,80641,1,0,0:0:0:0:
320,192,81141,128,0,81474:0:0:0:0:
448,192,81141,1,0,0:0:0:0:
448,192,81474,128,0,82307:0:0:0:0:
320,192,81974,128,0,83641:0:0:0:0:
64,192,81974,1,0,0:0:0:0:
448,192,82474,128,0,83641:0:0:0:0:
64,192,82474,1,0,0:0:0:0:
192,192,82807,128,0,83641:0:0:0:0:
64,192,82807,1,0,0:0:0:0:
64,192,83807,1,0,0:0:0:0:
64,192,83974,128,0,85474:0:0:0:0:
448,192,84141,1,0,0:0:0:0:
448,192,84307,128,0,85474:0:0:0:0:
192,192,84474,1,0,0:0:0:0:
192,192,84641,128,0,85474:0:0:0:0:
320,192,84807,1,0,0:0:0:0:
320,192,84974,128,0,85307:0:0:0:0:
320,192,85474,128,0,86807:0:0:0:0:
192,192,85807,1,0,0:0:0:0:
64,192,86141,1,0,0:0:0:0:
448,192,86141,1,0,0:0:0:0:
192,192,86474,1,0,0:0:0:0:
192,192,86807,128,0,88141:0:0:0:0:
64,192,86807,1,0,0:0:0:0:
320,192,87141,1,0,0:0:0:0:
64,192,87307,1,0,0:0:0:0:
320,192,87474,1,0,0:0:0:0:
448,192,87474,1,0,0:0:0:0:
320,192,87807,1,0,0:0:0:0:
64,192,87807,1,0,0:0:0:0:
64,192,88141,128,0,89474:0:0:0:0:
448,192,88141,1,0,0:0:0:0:
320,192,88474,1,0,0:0:0:0:
448,192,88641,1,0,0:0:0:0:
192,192,88807,1,0,0:0:0:0:
320,192,88807,1,0,0:0:0:0:
320,192,89141,1,0,0:0:0:0:
192,192,89307,1,0,0:0:0:0:
320,192,89474,1,0,0:0:0:0:
448,192,89474,1,0,0:0:0:0:
192,192,89474,128,0,90807:0:0:0:0:
448,192,89641,1,0,0:0:0:0:
320,192,89807,1,0,0:0:0:0:
64,192,89974,1,0,0:0:0:0:
448,192,89974,1,0,0:0:0:0:
64,192,90141,1,0,0:0:0:0:
448,192,90141,1,0,0:0:0:0:
320,192,90307,1,0,0:0:0:0:
64,192,90474,1,0,0:0:0:0:
320,192,90641,1,0,0:0:0:0:
320,192,90807,1,0,0:0:0:0:
448,192,90807,1,0,0:0:0:0:
64,192,90807,128,0,92141:0:0:0:0:
448,192,91141,1,0,0:0:0:0:
320,192,91307,1,0,0:0:0:0:
192,192,91474,1,0,0:0:0:0:
448,192,91474,1,0,0:0:0:0:
320,192,91807,1,0,0:0:0:0:
192,192,91974,1,0,0:0:0:0:
448,192,92141,1,0,0:0:0:0:
320,192,92141,128,0,93474:0:0:0:0:
192,192,92307,1,0,0:0:0:0:
64,192,92474,1,0,0:0:0:0:
192,192,92641,1,0,0:0:0:0:
64,192,92807,1,0,0:0:0:0:
448,192,92807,1,0,0:0:0:0:
192,192,92974,1,0,0:0:0:0:
64,192,93141,1,0,0:0:0:0:
448,192,93307,1,0,0:0:0:0:
64,192,93474,1,0,0:0:0:0:
192,192,93474,1,0,0:0:0:0:
448,192,93474,128,0,94807:0:0:0:0:
192,192,93807,1,0,0:0:0:0:
64,192,93974,1,0,0:0:0:0:
192,192,94141,1,0,0:0:0:0:
320,192,94141,1,0,0:0:0:0:
320,192,94474,1,0,0:0:0:0:
64,192,94641,1,0,0:0:0:0:
64,192,94807,1,0,0:0:0:0:
320,192,94807,1,0,0:0:0:0:
192,192,94807,128,0,96141:0:0:0:0:
448,192,94974,1,0,0:0:0:0:
320,192,95141,1,0,0:0:0:0:
64,192,95307,1,0,0:0:0:0:
320,192,95474,1,0,0:0:0:0:
448,192,95474,1,0,0:0:0:0:
320,192,95641,1,0,0:0:0:0:
448,192,95641,1,0,0:0:0:0:
448,192,95807,1,0,0:0:0:0:
320,192,95974,1,0,0:0:0:0:
64,192,96141,1,0,0:0:0:0:
448,192,96141,1,0,0:0:0:0:
320,192,96141,128,0,97474:0:0:0:0:
448,192,96307,1,0,0:0:0:0:
192,192,96474,1,0,0:0:0:0:
64,192,96641,1,0,0:0:0:0:
192,192,96807,1,0,0:0:0:0:
448,192,96807,1,0,0:0:0:0:
448,192,96974,1,0,0:0:0:0:
64,192,97141,1,0,0:0:0:0:
192,192,97307,1,0,0:0:0:0:
448,192,97474,128,0,98807:0:0:0:0:
64,192,97474,1,0,0:0:0:0:
192,192,97474,1,0,0:0:0:0:
320,192,97641,1,0,0:0:0:0:
192,192,97807,1,0,0:0:0:0:
64,192,97974,1,0,0:0:0:0:
192,192,98141,1,0,0:0:0:0:
320,192,98141,1,0,0:0:0:0:
192,192,98307,1,0,0:0:0:0:
64,192,98474,1,0,0:0:0:0:
192,192,98641,1,0,0:0:0:0:
64,192,98807,1,0,0:0:0:0:
320,192,98807,1,0,0:0:0:0:
192,192,98807,128,0,100141:0:0:0:0:
320,192,99141,1,0,0:0:0:0:
64,192,99474,1,0,0:0:0:0:
448,192,99474,1,0,0:0:0:0:
320,192,99474,128,0,100141:0:0:0:0:
448,192,99807,1,0,0:0:0:0:
448,192,100141,1,0,0:0:0:0:
64,192,100141,128,0,101474:0:0:0:0:
320,192,100474,1,0,0:0:0:0:
192,192,100641,1,0,0:0:0:0:
448,192,100641,1,0,0:0:0:0:
448,192,100807,1,0,0:0:0:0:
192,192,100807,1,0,0:0:0:0:
320,192,100974,1,0,0:0:0:0:
192,192,101141,1,0,0:0:0:0:
320,192,101307,1,0,0:0:0:0:
448,192,101474,1,0,0:0:0:0:
192,192,101474,128,0,102807:0:0:0:0:
320,192,101807,1,0,0:0:0:0:
448,192,102141,1,0,0:0:0:0:
320,192,102141,1,0,0:0:0:0:
64,192,102474,1,0,0:0:0:0:
320,192,102807,128,0,104141:0:0:0:0:
64,192,102807,1,0,0:0:0:0:
448,192,102807,1,0,0:0:0:0:
192,192,102974,1,0,0:0:0:0:
64,192,103141,1,0,0:0:0:0:
192,192,103307,1,0,0:0:0:0:
64,192,103474,1,0,0:0:0:0:
448,192,103474,1,0,0:0:0:0:
192,192,103641,1,0,0:0:0:0:
448,192,103807,1,0,0:0:0:0:
192,192,103974,1,0,0:0:0:0:
448,192,104141,128,0,105474:0:0:0:0:
64,192,104141,1,0,0:0:0:0:
192,192,104141,1,0,0:0:0:0:
320,192,104307,1,0,0:0:0:0:
192,192,104474,1,0,0:0:0:0:
64,192,104641,1,0,0:0:0:0:
192,192,104807,1,0,0:0:0:0:
320,192,104807,1,0,0:0:0:0:
192,192,105141,1,0,0:0:0:0:
64,192,105474,128,0,106474:0:0:0:0:
192,192,105474,1,0,0:0:0:0:
320,192,105474,1,0,0:0:0:0:
448,192,105641,1,0,0:0:0:0:
320,192,105807,1,0,0:0:0:0:
192,192,105974,1,0,0:0:0:0:
448,192,105974,1,0,0:0:0:0:
192,192,106141,1,0,0:0:0:0:
448,192,106141,1,0,0:0:0:0:
320,192,106307,1,0,0:0:0:0:
192,192,106474,128,0,107974:0:0:0:0:
320,192,106474,128,0,106807:0:0:0:0:
448,192,106474,1,0,0:0:0:0:
64,192,106807,128,0,107974:0:0:0:0:
64,192,108307,1,0,0:0:0:0:
192,192,108307,1,0,0:0:0:0:
448,192,108474,1,0,0:0:0:0:
64,192,108474,1,0,0:0:0:0:
320,192,108641,1,0,0:0:0:0:
192,192,108641,1,0,0:0:0:0:
448,192,108807,1,0,0:0:0:0:
192,192,108807,1,0,0:0:0:0:
64,192,108973,1,0,0:0:0:0:
320,192,108974,1,0,0:0:0:0:
320,192,109141,1,0,0:0:0:0:
448,192,109141,1,0,0:0:0:0:
448,192,109307,128,0,109474:0:0:0:0:
64,192,109474,1,0,0:0:0:0:
192,192,109474,1,0,0:0:0:0:
192,192,109807,1,0,0:0:0:0:
64,192,109807,1,0,0:0:0:0:
448,192,109807,1,0,0:0:0:0:
192,192,109974,1,0,0:0:0:0:
320,192,110141,1,0,0:0:0:0:
448,192,110141,1,0,0:0:0:0:
64,192,110141,1,0,0:0:0:0:
64,192,110474,1,0,0:0:0:0:
192,192,110474,1,0,0:0:0:0:
320,192,110474,1,0,0:0:0:0:
320,192,110807,1,0,0:0:0:0:
64,192,110807,1,0,0:0:0:0:
448,192,110807,1,0,0:0:0:0:
192,192,111141,1,0,0:0:0:0:
320,192,111141,1,0,0:0:0:0:
320,192,111474,1,0,0:0:0:0:
448,192,111474,1,0,0:0:0:0:
192,192,111474,1,0,0:0:0:0:
448,192,111807,1,0,0:0:0:0:
320,192,111807,1,0,0:0:0:0:
64,192,111807,1,0,0:0:0:0:
64,192,112141,1,0,0:0:0:0:
192,192,112141,1,0,0:0:0:0:
448,192,112141,1,0,0:0:0:0:
192,192,112474,1,0,0:0:0:0:
320,192,112641,1,0,0:0:0:0:
64,192,112807,128,0,113807:0:0:0:0:
448,192,112807,1,0,0:0:0:0:
320,192,112974,1,0,0:0:0:0:
192,192,113141,1,0,0:0:0:0:
192,192,113307,128,0,113974:0:0:0:0:
320,192,113307,1,0,0:0:0:0:
448,192,113474,1,0,0:0:0:0:
448,192,113641,128,0,114807:0:0:0:0:
64,192,113974,128,0,114641:0:0:0:0:
192,192,114141,128,0,114807:0:0:0:0:
320,192,114474,128,0,114807:0:0:0:0:
64,192,114807,1,0,0:0:0:0:
192,192,115141,1,0,0:0:0:0:
64,192,115307,1,0,0:0:0:0:
192,192,115473,1,0,0:0:0:0:
320,192,115473,1,0,0:0:0:0:
448,192,115474,1,0,0:0:0:0:
64,192,115807,1,0,0:0:0:0:
192,192,115807,1,0,0:0:0:0:
320,192,115807,1,0,0:0:0:0:
448,192,116140,1,0,0:0:0:0:
192,192,116141,1,0,0:0:0:0:
64,192,116141,1,0,0:0:0:0:
192,192,116474,1,0,0:0:0:0:
320,192,116474,1,0,0:0:0:0:
320,192,116807,1,0,0:0:0:0:
448,192,116807,1,0,0:0:0:0:
192,192,116807,1,0,0:0:0:0:
192,192,116974,1,0,0:0:0:0:
320,192,117141,1,0,0:0:0:0:
64,192,117141,1,0,0:0:0:0:
448,192,117141,1,0,0:0:0:0:
64,192,117474,1,0,0:0:0:0:
192,192,117474,1,0,0:0:0:0:
320,192,117474,1,0,0:0:0:0:
320,192,117807,1,0,0:0:0:0:
192,192,117974,1,0,0:0:0:0:
192,192,118141,128,0,119141:0:0:0:0:
64,192,118141,1,0,0:0:0:0:
448,192,118474,1,0,0:0:0:0:
64,192,118641,128,0,119974:0:0:0:0:
320,192,118641,1,0,0:0:0:0:
448,192,118807,1,0,0:0:0:0:
320,192,118974,128,0,119307:0:0:0:0:
192,192,119307,128,0,120141:0:0:0:0:
320,192,119474,128,0,120141:0:0:0:0:
448,192,119807,128,0,120141:0:0:0:0:
64,192,120141,1,0,0:0:0:0:
192,192,120307,1,0,0:0:0:0:
192,192,120474,1,0,0:0:0:0:
192,192,120641,1,0,0:0:0:0:
320,192,120807,1,0,0:0:0:0:
448,192,120807,1,0,0:0:0:0:
64,192,120807,1,0,0:0:0:0:
64,192,121141,1,0,0:0:0:0:
320,192,121141,1,0,0:0:0:0:
192,192,121141,1,0,0:0:0:0:
448,192,121474,1,0,0:0:0:0:
64,192,121474,1,0,0:0:0:0:
192,192,121474,1,0,0:0:0:0:
192,192,121807,1,0,0:0:0:0:
320,192,121807,1,0,0:0:0:0:
320,192,122141,1,0,0:0:0:0:
448,192,122141,1,0,0:0:0:0:
192,192,122141,1,0,0:0:0:0:
448,192,122474,1,0,0:0:0:0:
320,192,122474,1,0,0:0:0:0:
64,192,122474,1,0,0:0:0:0:
448,192,122557,1,0,0:0:0:0:
448,192,122641,1,0,0:0:0:0:
448,192,122724,1,0,0:0:0:0:
64,192,122807,1,0,0:0:0:0:
192,192,122807,1,0,0:0:0:0:
320,192,122807,1,0,0:0:0:0:
192,192,123141,1,0,0:0:0:0:
320,192,123307,1,0,0:0:0:0:
64,192,123474,128,0,124474:0:0:0:0:
448,192,123474,1,0,0:0:0:0:
320,192,123641,1,0,0:0:0:0:
192,192,123807,1,0,0:0:0:0:
192,192,123974,128,0,124641:0:0:0:0:
320,192,123974,1,0,0:0:0:0:
448,192,124141,1,0,0:0:0:0:
448,192,124307,128,0,125474:0:0:0:0:
64,192,124641,128,0,125308:0:0:0:0:
192,192,124807,128,0,125474:0:0:0:0:
320,192,125141,128,0,125474:0:0:0:0:
64,192,125474,1,0,0:0:0:0:
448,192,125807,1,0,0:0:0:0:
320,192,125974,1,0,0:0:0:0:
64,192,126141,1,0,0:0:0:0:
192,192,126141,1,0,0:0:0:0:
448,192,126141,1,0,0:0:0:0:
320,192,126474,1,0,0:0:0:0:
64,192,126474,1,0,0:0:0:0:
448,192,126474,1,0,0:0:0:0:
192,192,126807,1,0,0:0:0:0:
320,192,126807,1,0,0:0:0:0:
448,192,126807,1,0,0:0:0:0:
320,192,126974,1,0,0:0:0:0:
64,192,127141,1,0,0:0:0:0:
192,192,127141,1,0,0:0:0:0:
320,192,127307,1,0,0:0:0:0:
64,192,127474,1,0,0:0:0:0:
192,192,127474,1,0,0:0:0:0:
448,192,127474,1,0,0:0:0:0:
320,192,127641,1,0,0:0:0:0:
192,192,127807,1,0,0:0:0:0:
320,192,127807,1,0,0:0:0:0:
448,192,127807,1,0,0:0:0:0:
64,192,127974,1,0,0:0:0:0:
192,192,128141,128,0,129807:0:0:0:0:
320,192,128141,128,0,129807:0:0:0:0:
448,192,128141,128,0,128474:0:0:0:0:
64,192,128141,128,0,128474:0:0:0:0:
192,192,129974,1,0,0:0:0:0:
320,192,129974,1,0,0:0:0:0:
448,192,130141,1,0,0:0:0:0:
64,192,130307,1,0,0:0:0:0:
192,192,130474,1,0,0:0:0:0:
320,192,130641,1,0,0:0:0:0:
448,192,130641,1,0,0:0:0:0:
64,192,130641,1,0,0:0:0:0:
192,192,130807,128,0,131974:0:0:0:0:
320,192,131307,128,0,132474:0:0:0:0:
64,192,131807,128,0,132141:0:0:0:0:
192,192,132141,128,0,133474:0:0:0:0:
320,192,132641,128,0,133474:0:0:0:0:
64,192,133474,128,0,134141:0:0:0:0:
192,192,134141,128,0,134807:0:0:0:0:
320,192,134474,128,0,135307:0:0:0:0:
448,192,134807,128,0,135807:0:0:0:0:
320,192,135474,128,0,136141:0:0:0:0:
192,192,136141,128,0,137308:0:0:0:0:
320,192,136641,128,0,138641:0:0:0:0:
64,192,137141,128,0,137475:0:0:0:0:
192,192,137475,128,0,138808:0:0:0:0:
448,192,137974,128,0,138807:0:0:0:0:
320,192,138807,128,0,140641:0:0:0:0:
448,192,139474,128,0,141474:0:0:0:0:
64,192,140807,128,0,141474:0:0:0:0:
320,192,140807,128,0,141474:0:0:0:0:
192,192,141474,128,0,142641:0:0:0:0:
320,192,141974,128,0,143141:0:0:0:0:
64,192,142474,128,0,142808:0:0:0:0:
192,192,142807,128,0,144141:0:0:0:0:
320,192,143307,128,0,144141:0:0:0:0:
64,192,144141,128,0,146641:0:0:0:0:
192,192,144807,128,0,147141:0:0:0:0:
448,192,145474,128,0,147974:0:0:0:0:
320,192,146141,128,0,147641:0:0:0:0:
64,192,146807,128,0,148141:0:0:0:0:
192,192,147307,128,0,148474:0:0:0:0:
320,192,147807,128,0,149307:0:0:0:0:
448,192,148141,128,0,150807:0:0:0:0:
192,192,148641,128,0,150474:0:0:0:0:
320,192,149474,128,0,151307:0:0:0:0:
192,192,150641,128,0,151474:0:0:0:0:
448,192,150974,128,0,151807:0:0:0:0:
320,192,151474,128,0,151641:0:0:0:0:
64,192,151474,1,0,0:0:0:0:
192,192,151641,1,0,0:0:0:0:
320,192,151807,1,0,0:0:0:0:
448,192,151974,1,0,0:0:0:0:
192,192,152141,128,0,153474:0:0:0:0:
64,192,152141,1,0,0:0:0:0:
320,192,152141,1,0,0:0:0:0:
320,192,152474,1,0,0:0:0:0:
448,192,152807,1,0,0:0:0:0:
64,192,152807,1,0,0:0:0:0:
448,192,153141,1,0,0:0:0:0:
64,192,153474,128,0,154807:0:0:0:0:
320,192,153474,1,0,0:0:0:0:
448,192,153474,1,0,0:0:0:0:
192,192,153807,1,0,0:0:0:0:
448,192,153807,1,0,0:0:0:0:
320,192,153974,1,0,0:0:0:0:
192,192,154141,1,0,0:0:0:0:
448,192,154141,1,0,0:0:0:0:
448,192,154474,1,0,0:0:0:0:
448,192,154807,128,0,156141:0:0:0:0:
192,192,154807,1,0,0:0:0:0:
320,192,154807,1,0,0:0:0:0:
64,192,154974,1,0,0:0:0:0:
192,192,155141,1,0,0:0:0:0:
320,192,155141,1,0,0:0:0:0:
192,192,155307,1,0,0:0:0:0:
64,192,155474,1,0,0:0:0:0:
320,192,155474,1,0,0:0:0:0:
64,192,155807,1,0,0:0:0:0:
192,192,155807,1,0,0:0:0:0:
320,192,155974,1,0,0:0:0:0:
192,192,156141,128,0,157474:0:0:0:0:
320,192,156141,1,0,0:0:0:0:
64,192,156141,1,0,0:0:0:0:
448,192,156307,1,0,0:0:0:0:
320,192,156474,1,0,0:0:0:0:
64,192,156641,1,0,0:0:0:0:
448,192,156641,1,0,0:0:0:0:
64,192,156807,1,0,0:0:0:0:
448,192,156807,1,0,0:0:0:0:
320,192,157141,1,0,0:0:0:0:
448,192,157141,1,0,0:0:0:0:
320,192,157307,1,0,0:0:0:0:
320,192,157474,128,0,158807:0:0:0:0:
64,192,157474,1,0,0:0:0:0:
448,192,157474,1,0,0:0:0:0:
192,192,157641,1,0,0:0:0:0:
64,192,157807,1,0,0:0:0:0:
192,192,157974,1,0,0:0:0:0:
64,192,158141,1,0,0:0:0:0:
448,192,158141,1,0,0:0:0:0:
64,192,158474,1,0,0:0:0:0:
192,192,158641,1,0,0:0:0:0:
192,192,158807,128,0,160141:0:0:0:0:
64,192,158807,1,0,0:0:0:0:
448,192,158807,1,0,0:0:0:0:
320,192,158974,1,0,0:0:0:0:
64,192,159141,1,0,0:0:0:0:
320,192,159307,1,0,0:0:0:0:
64,192,159474,1,0,0:0:0:0:
448,192,159474,1,0,0:0:0:0:
320,192,159641,1,0,0:0:0:0:
64,192,159807,1,0,0:0:0:0:
320,192,159974,1,0,0:0:0:0:
64,192,160141,128,0,161474:0:0:0:0:
320,192,160141,1,0,0:0:0:0:
448,192,160141,1,0,0:0:0:0:
192,192,160474,1,0,0:0:0:0:
320,192,160641,1,0,0:0:0:0:
192,192,160807,1,0,0:0:0:0:
448,192,160807,1,0,0:0:0:0:
192,192,161141,1,0,0:0:0:0:
448,192,161307,1,0,0:0:0:0:
320,192,161474,128,0,162807:0:0:0:0:
192,192,161474,1,0,0:0:0:0:
448,192,161474,1,0,0:0:0:0:
192,192,161641,1,0,0:0:0:0:
448,192,161807,1,0,0:0:0:0:
64,192,161807,1,0,0:0:0:0:
192,192,161974,1,0,0:0:0:0:
448,192,162141,1,0,0:0:0:0:
64,192,162141,1,0,0:0:0:0:
448,192,162307,1,0,0:0:0:0:
64,192,162307,1,0,0:0:0:0:
192,192,162474,1,0,0:0:0:0:
64,192,162641,1,0,0:0:0:0:
192,192,162807,128,0,164141:0:0:0:0:
64,192,162807,1,0,0:0:0:0:
448,192,162807,1,0,0:0:0:0:
320,192,162974,1,0,0:0:0:0:
448,192,162974,1,0,0:0:0:0:
320,192,163141,1,0,0:0:0:0:
64,192,163307,1,0,0:0:0:0:
320,192,163474,1,0,0:0:0:0:
448,192,163474,1,0,0:0:0:0:
320,192,163641,1,0,0:0:0:0:
64,192,163807,1,0,0:0:0:0:
448,192,163807,1,0,0:0:0:0:
320,192,163974,1,0,0:0:0:0:
448,192,164141,128,0,165474:0:0:0:0:
64,192,164141,1,0,0:0:0:0:
320,192,164141,1,0,0:0:0:0:
64,192,164474,1,0,0:0:0:0:
320,192,164641,1,0,0:0:0:0:
64,192,164807,1,0,0:0:0:0:
192,192,164807,1,0,0:0:0:0:
64,192,165141,1,0,0:0:0:0:
192,192,165307,1,0,0:0:0:0:
192,192,165474,128,0,166807:0:0:0:0:
64,192,165474,1,0,0:0:0:0:
320,192,165474,1,0,0:0:0:0:
64,192,165807,1,0,0:0:0:0:
320,192,166141,128,0,166807:0:0:0:0:
64,192,166141,1,0,0:0:0:0:
448,192,166141,1,0,0:0:0:0:
448,192,166474,1,0,0:0:0:0:
448,192,166807,128,0,168141:0:0:0:0:
64,192,166807,1,0,0:0:0:0:
64,192,167141,1,0,0:0:0:0:
192,192,167307,1,0,0:0:0:0:
64,192,167474,1,0,0:0:0:0:
320,192,167474,1,0,0:0:0:0:
320,192,167807,1,0,0:0:0:0:
192,192,167974,1,0,0:0:0:0:
320,192,168141,128,0,169474:0:0:0:0:
64,192,168141,1,0,0:0:0:0:
192,192,168141,1,0,0:0:0:0:
192,192,168474,1,0,0:0:0:0:
64,192,168807,1,0,0:0:0:0:
448,192,168807,1,0,0:0:0:0:
192,192,169141,1,0,0:0:0:0:
64,192,169474,128,0,170807:0:0:0:0:
192,192,169474,1,0,0:0:0:0:
448,192,169474,1,0,0:0:0:0:
320,192,169641,1,0,0:0:0:0:
192,192,169807,1,0,0:0:0:0:
320,192,169974,1,0,0:0:0:0:
192,192,170141,1,0,0:0:0:0:
448,192,170141,1,0,0:0:0:0:
320,192,170307,1,0,0:0:0:0:
448,192,170474,1,0,0:0:0:0:
192,192,170641,1,0,0:0:0:0:
192,192,170807,128,0,172141:0:0:0:0:
320,192,170807,1,0,0:0:0:0:
448,192,170807,1,0,0:0:0:0:
448,192,170974,1,0,0:0:0:0:
320,192,171141,1,0,0:0:0:0:
64,192,171307,1,0,0:0:0:0:
320,192,171474,1,0,0:0:0:0:
448,192,171474,1,0,0:0:0:0:
320,192,171807,1,0,0:0:0:0:
64,192,171974,1,0,0:0:0:0:
64,192,172141,128,0,173474:0:0:0:0:
320,192,172141,1,0,0:0:0:0:
448,192,172141,1,0,0:0:0:0:
448,192,172307,1,0,0:0:0:0:
320,192,172474,1,0,0:0:0:0:
192,192,172641,1,0,0:0:0:0:
320,192,172641,1,0,0:0:0:0:
448,192,172807,128,0,173474:0:0:0:0:
192,192,172807,1,0,0:0:0:0:
320,192,172807,1,0,0:0:0:0:
192,192,172974,1,0,0:0:0:0:
320,192,173141,1,0,0:0:0:0:
192,192,173307,1,0,0:0:0:0:
192,192,173474,128,0,174807:0:0:0:0:
320,192,173474,128,0,174807:0:0:0:0:
64,192,173807,1,0,0:0:0:0:
64,192,174141,1,0,0:0:0:0:
448,192,174141,1,0,0:0:0:0:
448,192,174474,1,0,0:0:0:0:
64,192,174807,1,0,0:0:0:0:
448,192,174807,128,0,176141:0:0:0:0:
320,192,175141,1,0,0:0:0:0:
64,192,175307,1,0,0:0:0:0:
192,192,175474,1,0,0:0:0:0:
320,192,175474,1,0,0:0:0:0:
320,192,175807,1,0,0:0:0:0:
192,192,175807,1,0,0:0:0:0:
192,192,176141,128,0,177474:0:0:0:0:
64,192,176141,1,0,0:0:0:0:
320,192,176141,1,0,0:0:0:0:
448,192,176474,1,0,0:0:0:0:
64,192,176641,1,0,0:0:0:0:
448,192,176807,1,0,0:0:0:0:
320,192,176807,1,0,0:0:0:0:
448,192,177141,1,0,0:0:0:0:
64,192,177141,1,0,0:0:0:0:
320,192,177307,1,0,0:0:0:0:
64,192,177474,128,0,178807:0:0:0:0:
320,192,177474,1,0,0:0:0:0:
448,192,177474,1,0,0:0:0:0:
448,192,177641,1,0,0:0:0:0:
320,192,177807,1,0,0:0:0:0:
192,192,177974,1,0,0:0:0:0:
448,192,177974,1,0,0:0:0:0:
192,192,178141,1,0,0:0:0:0:
448,192,178141,1,0,0:0:0:0:
448,192,178307,1,0,0:0:0:0:
320,192,178474,1,0,0:0:0:0:
192,192,178641,1,0,0:0:0:0:
448,192,178807,128,0,180141:0:0:0:0:
192,192,178807,1,0,0:0:0:0:
320,192,178807,1,0,0:0:0:0:
192,192,179141,1,0,0:0:0:0:
64,192,179307,1,0,0:0:0:0:
192,192,179474,1,0,0:0:0:0:
320,192,179474,1,0,0:0:0:0:
320,192,179807,1,0,0:0:0:0:
192,192,179974,1,0,0:0:0:0:
320,192,180141,128,0,181474:0:0:0:0:
64,192,180141,1,0,0:0:0:0:
192,192,180141,1,0,0:0:0:0:
192,192,180474,1,0,0:0:0:0:
64,192,180641,1,0,0:0:0:0:
192,192,180807,1,0,0:0:0:0:
448,192,180807,1,0,0:0:0:0:
448,192,180974,1,0,0:0:0:0:
192,192,181141,1,0,0:0:0:0:
64,192,181307,1,0,0:0:0:0:
64,192,181474,128,0,182807:0:0:0:0:
192,192,181474,1,0,0:0:0:0:
448,192,181474,1,0,0:0:0:0:
192,192,181807,1,0,0:0:0:0:
448,192,181807,1,0,0:0:0:0:
320,192,181974,1,0,0:0:0:0:
192,192,182141,1,0,0:0:0:0:
448,192,182141,1,0,0:0:0:0:
320,192,182474,1,0,0:0:0:0:
192,192,182641,1,0,0:0:0:0:
192,192,182807,128,0,184141:0:0:0:0:
448,192,182807,1,0,0:0:0:0:
320,192,182807,1,0,0:0:0:0:
448,192,182974,1,0,0:0:0:0:
320,192,183141,1,0,0:0:0:0:
64,192,183307,1,0,0:0:0:0:
320,192,183474,1,0,0:0:0:0:
448,192,183474,1,0,0:0:0:0:
320,192,183641,1,0,0:0:0:0:
448,192,183641,1,0,0:0:0:0:
320,192,183807,1,0,0:0:0:0:
64,192,183974,1,0,0:0:0:0:
320,192,184141,128,0,185474:0:0:0:0:
448,192,184141,1,0,0:0:0:0:
64,192,184141,1,0,0:0:0:0:
448,192,184307,1,0,0:0:0:0:
192,192,184474,1,0,0:0:0:0:
64,192,184641,1,0,0:0:0:0:
192,192,184807,1,0,0:0:0:0:
448,192,184807,1,0,0:0:0:0:
192,192,184974,1,0,0:0:0:0:
448,192,185141,1,0,0:0:0:0:
192,192,185307,1,0,0:0:0:0:
448,192,185474,128,0,186807:0:0:0:0:
64,192,185474,1,0,0:0:0:0:
192,192,185474,1,0,0:0:0:0:
320,192,185807,1,0,0:0:0:0:
64,192,185974,1,0,0:0:0:0:
320,192,186141,1,0,0:0:0:0:
192,192,186141,1,0,0:0:0:0:
320,192,186474,1,0,0:0:0:0:
320,192,186641,1,0,0:0:0:0:
192,192,186807,128,0,188141:0:0:0:0:
64,192,186807,1,0,0:0:0:0:
320,192,186807,1,0,0:0:0:0:
320,192,187141,1,0,0:0:0:0:
320,192,187474,128,0,188141:0:0:0:0:
64,192,187474,1,0,0:0:0:0:
448,192,187474,1,0,0:0:0:0:
448,192,187807,1,0,0:0:0:0:
448,192,188141,128,0,189474:0:0:0:0:
64,192,188141,1,0,0:0:0:0:
192,192,188474,1,0,0:0:0:0:
64,192,188641,1,0,0:0:0:0:
320,192,188641,1,0,0:0:0:0:
64,192,188807,1,0,0:0:0:0:
320,192,188807,1,0,0:0:0:0:
192,192,188974,1,0,0:0:0:0:
64,192,189141,1,0,0:0:0:0:
192,192,189307,1,0,0:0:0:0:
64,192,189474,128,0,190807:0:0:0:0:
320,192,189474,1,0,0:0:0:0:
192,192,189474,1,0,0:0:0:0:
320,192,189807,1,0,0:0:0:0:
192,192,190141,1,0,0:0:0:0:
448,192,190141,1,0,0:0:0:0:
320,192,190474,1,0,0:0:0:0:
320,192,190807,128,0,192141:0:0:0:0:
192,192,190807,1,0,0:0:0:0:
448,192,190807,1,0,0:0:0:0:
448,192,190974,1,0,0:0:0:0:
192,192,191141,1,0,0:0:0:0:
64,192,191307,1,0,0:0:0:0:
192,192,191474,1,0,0:0:0:0:
448,192,191474,1,0,0:0:0:0:
448,192,191641,1,0,0:0:0:0:
64,192,191807,1,0,0:0:0:0:
192,192,191974,1,0,0:0:0:0:
448,192,192141,128,0,193474:0:0:0:0:
64,192,192141,1,0,0:0:0:0:
192,192,192141,1,0,0:0:0:0:
192,192,192307,1,0,0:0:0:0:
64,192,192474,1,0,0:0:0:0:
320,192,192474,1,0,0:0:0:0:
192,192,192641,1,0,0:0:0:0:
64,192,192807,1,0,0:0:0:0:
320,192,192807,1,0,0:0:0:0:
192,192,192974,1,0,0:0:0:0:
64,192,193141,1,0,0:0:0:0:
192,192,193307,1,0,0:0:0:0:
192,192,193474,128,0,194807:0:0:0:0:
320,192,193474,1,0,0:0:0:0:
64,192,193474,1,0,0:0:0:0:
448,192,193641,1,0,0:0:0:0:
320,192,193807,1,0,0:0:0:0:
64,192,193974,1,0,0:0:0:0:
320,192,193974,1,0,0:0:0:0:
448,192,194141,128,0,194807:0:0:0:0:
64,192,194141,1,0,0:0:0:0:
320,192,194141,1,0,0:0:0:0:
64,192,194474,128,0,194807:0:0:0:0:
320,192,194807,128,0,196141:0:0:0:0:
64,192,196141,128,0,197474:0:0:0:0:
448,192,196141,128,0,197474:0:0:0:0:
192,192,197474,128,0,198807:0:0:0:0:
448,192,200141,128,0,201474:0:0:0:0:
192,192,200141,128,0,201474:0:0:0:0:
320,192,201474,128,0,202807:0:0:0:0:
64,192,201474,128,0,202807:0:0:0:0:
448,192,202807,128,0,204141:0:0:0:0:
192,192,204141,128,0,205474:0:0:0:0:
320,192,204141,128,0,205474:0:0:0:0:
448,192,205474,128,0,206807:0:0:0:0:
64,192,205474,128,0,206807:0:0:0:0:
192,192,206807,128,0,208141:0:0:0:0:
64,192,208141,128,0,210807:0:0:0:0:
192,192,208807,128,0,210807:0:0:0:0:
320,192,209474,128,0,210807:0:0:0:0:
448,192,210807,128,0,212141:0:0:0:0:
64,192,212141,128,0,213474:0:0:0:0:
320,192,212141,128,0,213474:0:0:0:0:
192,192,213474,128,0,224141:0:0:0:0:
448,192,213641,1,0,0:0:0:0:
320,192,213807,1,0,0:0:0:0:
64,192,213974,1,0,0:0:0:0:
448,192,214141,1,0,0:0:0:0:
320,192,214307,1,0,0:0:0:0:
64,192,214474,1,0,0:0:0:0:
448,192,214641,1,0,0:0:0:0:
320,192,214807,1,0,0:0:0:0:
64,192,214974,1,0,0:0:0:0:
448,192,215141,1,0,0:0:0:0:
320,192,215307,1,0,0:0:0:0:
64,192,215474,1,0,0:0:0:0:
448,192,215641,1,0,0:0:0:0:
320,192,215807,1,0,0:0:0:0:
64,192,215974,1,0,0:0:0:0:
448,192,216196,1,0,0:0:0:0:
320,192,216391,1,0,0:0:0:0:
64,192,216599,1,0,0:0:0:0:
448,192,216807,1,0,0:0:0:0:
320,192,217057,1,0,0:0:0:0:
64,192,217307,1,0,0:0:0:0:
448,192,217557,1,0,0:0:0:0:
320,192,217807,1,0,0:0:0:0:
64,192,218099,1,0,0:0:0:0:
448,192,218391,1,0,0:0:0:0:
320,192,218724,1,0,0:0:0:0:
64,192,219057,1,0,0:0:0:0:
448,192,219474,1,0,0:0:0:0:
320,192,219863,1,0,0:0:0:0:
64,192,220307,1,0,0:0:0:0:
64,192,220807,128,0,224141:0:0:0:0:
320,192,220807,128,0,224141:0:0:0:0:
448,192,220807,128,0,224141:0:0:0:0:
