osu file format v7

[General]
AudioFilename: Owl City - Fireflies (DJ Strobe Edit) (Gens) [Music].mp3
AudioLeadIn: 0
PreviewTime: 65875
Countdown: 1
SampleSet: Soft
StackLeniency: 1
Mode: 0
LetterboxInBreaks: 1

[Editor]
Bookmarks: 17875,26125,34000,49875,57875,65875,83875,99875,107875,115875,131875,147875
DistanceSpacing: 0
BeatDivisor: 4
GridSize: 4

[Metadata]
Title:Fireflies (DJ Strobe Remix)
Artist:Owl City
Creator:Gens
Version:Hard
Source:
Tags:DiamondCrash DC

[Difficulty]
HPDrainRate:4
CircleSize:4
OverallDifficulty:7
SliderMultiplier:2.2
SliderTickRate:2

[Events]
//Background and Video events
0,0,"Owl City - Fireflies (DJ Strobe Remix) (Gens) [Background].jpg"
//Break Periods
2,34200,49100
2,84200,99100
//Storyboard Layer 0 (Background)
//Storyboard Layer 1 (Fail)
//Storyboard Layer 2 (Pass)
//Storyboard Layer 3 (Foreground)
//Storyboard Sound Samples
//Background Colour Transformations
3,100,0,0,230

[TimingPoints]
2000,500,4,2,0,70,1,0
32500,4000,4,2,0,70,1,0
34000,500,4,2,0,70,1,0
64375,-100,4,2,0,60,0,0
64875,-100,4,2,0,50,0,0
65375,-100,4,2,0,30,0,0
65875,-100,4,1,0,60,0,0
66000,-100,4,1,0,60,0,1
66125,-100,4,1,0,60,0,0
82000,-200,4,2,0,80,0,0
84000,-100,4,1,0,60,0,0
100250,-100,4,2,0,70,0,0
114375,-100,4,2,0,0,0,0
114625,-100,4,2,0,70,0,0
114875,-100,4,2,0,0,0,0
115125,-100,4,2,0,70,0,0
115375,-100,4,2,0,0,0,0
115625,-100,4,2,0,70,0,0
115875,-100,4,1,0,60,0,0
116000,-100,4,1,0,60,0,1
116125,-100,4,1,0,60,0,0
124000,-100,4,1,0,60,0,0
132000,-100,4,1,0,60,0,1
148000,-100,4,2,0,80,0,0

[HitObjects]
256,36,18000,5,4
324,120,18250,1,0
324,120,18375,1,0
391,224,18625,2,0,B|351:272|296:272,1,110,8|0
215,272,19000,2,0,B|160:272|120:320,2,110,2|0|4
256,36,20000,5,2
324,120,20250,1,0
324,120,20375,1,8
188,120,20625,1,0
188,120,20750,1,0
120,224,21000,2,0,B|160:272|216:272,2,110,4|0|4
391,224,22000,5,2
391,224,22250,2,0,B|351:272|296:272,1,110,0|8
328,120,22750,1,0
328,120,22875,2,0,B|256:49|184:120,1,165
256,192,23500,1,2
256,192,23625,1,0
184,264,23875,1,0
184,264,24000,2,0,B|256:335|328:264,1,165,4|0
328,264,24500,1,8
384,96,24875,6,0,B|256:8|128:96,1,275,0|8
128,96,25750,1,4
256,140,26250,5,0
256,140,26375,1,2
396,152,26625,2,0,B|344:0|168:0|116:152,1,385,2|4
256,244,28125,5,0
256,244,28250,1,2
396,232,28500,2,0,B|344:384|168:384|116:232,1,385,2|4
220,192,29750,5,0
292,192,29875,1,2
408,146,30125,2,0,B|462:192|408:238,1,110,2|8
288,264,30625,1,0
220,120,30875,1,4
104,146,31125,1,0
104,146,31250,2,0,B|50:192|104:238,2,110,0|2|8
256,40,32500,6,0,B|284:80|232:80|256:116,1,82.5,2|4
40,40,50000,5,4
124,124,50250,1,0
124,124,50375,1,2
208,208,50625,2,0,B|292:292,1,110,2|0
358,285,51000,2,0,B|436:208,2,110,8|0|4
472,40,52000,5,2
388,124,52250,1,0
388,124,52375,1,8
304,208,52625,2,0,B|220:292,1,110,0|0
153,285,53000,2,0,B|76:208,2,110,4|0|4
256,56,54000,6,0,B|256:0,2,55,2|0|8
160,152,54500,2,0,B|176:208|220:244,1,110,2|0
352,152,54875,2,0,B|336:208|292:244,1,110
256,180,55250,1,8
160,80,55500,6,0,B|104:24|0:44,2,165,2|4|0
160,80,56500,1,8
352,80,56875,6,0,B|408:24|512:44,1,165
352,80,57500,1,8
256,40,57750,1,4
308,336,58250,6,0,B|308:280,1,55,0|2
308,281,58625,2,0,B|308:164,1,110,2|0
308,171,59000,2,0,B|308:84|256:61|204:84|204:172,1,220,8|4
204,336,60000,5,2
204,336,60250,2,0,B|204:280,1,55,0|8
204,281,60625,2,0,B|204:164,1,110,8|0
204,171,61000,2,4,B|204:84|256:61|308:84|308:172,1,220
204,280,61875,5,0
256,384,62125,1,2
308,280,62375,2,2,B|427:192|308:104,1,220,2|4
308,104,63250,5,2
256,0,63500,1,8
204,104,63750,1,0
112,184,64000,6,0,B|112:296,1,110,4|0
184,184,64500,2,0,B|184:296,1,110,4|0
256,184,65000,2,0,B|256:296,1,110,4|0
328,184,65500,2,0,B|328:296,1,110,4|0
404,184,66000,5,4
328,108,66250,1,2
328,252,66500,2,0,B|256:324|184:252,2,165,10|4|0
304,156,67500,1,10
208,156,67750,1,0
208,156,67875,2,0,B|144:156|144:156|144:-6|368:-6|368:156|368:156|304:156,1,495,4|0
256,240,69250,5,0
308,340,69500,2,0,B|256:371|204:340,1,110,10|2
136,312,69875,1,0
108,244,70000,2,0,B|21:244|-2:192|21:140|109:140,3,220,4|0|12|0
404,140,72000,2,2,B|491:140|514:192|491:244|403:244,3,220,6|0|14|0
212,192,73875,6,0,B|156:172,1,55,0|12
300,192,74250,2,0,B|356:172,1,55,0|2
220,120,74625,2,0,B|192:72,1,55,0|0
292,120,75000,2,0,B|320:72,1,55,12|0
256,368,75500,5,4
256,368,76000,2,0,B|211:320|211:320|256:320,1,110,4|0
256,248,76375,2,0,B|301:200|301:200|256:200,1,110,8|0
256,128,76750,2,0,B|256:16,3,110,2|4|0|0
292,288,77875,5,0
220,288,78000,1,12
256,176,78250,2,2,B|272:128|240:128|256:68,2,110
256,68,79000,1,4
256,176,79250,2,0,B|256:344,1,165,8|2
328,272,79875,2,0,B|384:216|384:112|328:56|184:56|128:112|128:216|184:272,1,495,4|0
256,192,81250,5,2
256,192,81500,1,8
256,192,81750,1,0
256,192,82000,2,0,B|256:120|256:120|124:120|124:354|388:354|388:120|256:120,1,440,2|4
40,27,100000,5,4
40,27,100375,2,0,B|40:195,1,165,2|0
40,192,101000,2,0,B|40:307,2,110,4|0|4
256,357,102000,5,2
256,357,102375,2,0,B|256:189,1,165,8|0
256,192,103000,2,0,B|256:77,2,110,4|0|4
456,192,104000,6,0,B|496:152,2,55,2|0|8
456,192,104500,2,0,B|376:112,1,110,2|0
378,114,104875,2,0,B|298:194,1,110
300,191,105250,1,8
56,192,105500,6,0,B|136:112,1,110,2|0
134,114,105875,2,0,B|214:194,1,110,4|0
212,191,106250,1,8
328,64,106500,6,0,B|256:-8|184:64,2,165,2|4|8
328,64,107500,1,4
256,248,108000,6,0,B|256:312,2,55,2|0|8
176,304,108500,2,2,B|136:200,1,110,0|0
336,304,109000,2,0,B|376:200,1,110,2|0
312,168,109375,2,0,L|304:176|296:168|288:176|280:168|272:176|264:168|256:176|248:168|240:176|232:168|224:176|216:168|208:176|200:168|192:176,1,165,4|0
256,44,110000,6,0,L|256:12,4,27.5,2|2|2|0|8
256,44,110500,2,0,B|256:156,1,110,2|0
164,209,111000,2,0,B|197:256|256:264,1,110,4|0
347,318,111375,2,0,B|313:271|256:264,1,110,2|0
256,192,111750,1,0
256,120,111875,1,8
176,24,112125,6,0,B|128:88|128:200,1,165,2|4
256,192,112750,1,0
256,120,112875,1,8
336,24,113125,2,0,B|384:88|384:200,1,165,2|4
407,300,113875,6,0,B|371:336|371:336|256:336,1,165,2|8
336,264,114500,2,0,B|224:264,1,110,0|8
328,192,115000,2,0,B|216:192,1,110,0|8
320,120,115500,2,0,B|208:120,1,110,0|8
176,24,116000,6,0,B|120:24,2,55,12|0|2
336,24,116500,1,10
256,128,116750,1,0
256,128,116875,2,0,B|288:208|224:208|256:296,1,165,4|0
176,176,117500,1,10
336,248,117750,1,0
336,176,117875,2,0,B|512:56|256:-3|0:56|176:176,1,495,4|0
176,176,119250,5,0
292,120,119500,2,0,B|292:77|220:77|220:116,1,110,10|2
256,192,119875,1,0
256,192,120000,2,0,B|384:192|464:128,3,220,4|0|12|0
256,192,122000,2,2,B|128:192|48:256,3,220,6|0|14|0
448,48,123875,6,0,B|408:88,1,55,0|12
296,48,124250,2,0,B|344:96,1,55,0|2
216,48,124625,2,0,B|176:88,1,55
64,48,125000,2,0,B|112:96,1,55,12|0
356,232,125500,6,4,B|300:285|212:285|156:232,1,220
328,160,126250,1,0
328,160,126375,2,0,B|256:88|184:160,1,165,8|2
184,160,127000,1,4
256,320,127875,5,0
256,320,128000,1,12
256,320,128250,2,2,B|344:232,2,110
256,320,129000,1,4
256,320,129250,2,0,B|128:192,1,165,8|2
256,192,129875,1,4
256,192,130000,12,0,131500
160,96,132000,5,4
256,40,132250,1,2
352,96,132500,1,10
256,144,132750,1,0
256,144,132875,1,4
336,248,133125,2,2,B|256:285|176:248,1,165,2|10
320,176,133750,1,0
256,144,133875,1,0
192,112,134000,2,4,B|192:13|320:13|320:112,2,220
192,112,135250,5,0
320,112,135500,2,0,B|272:236,1,110,10|2
256,284,135875,1,0
256,356,136000,2,0,B|184:356|184:356|136:356|136:308|136:308|136:220,3,220,4|0|12|0
256,28,138000,2,2,B|328:28|328:28|376:28|376:76|376:76|376:164,3,220,6|0|14|0
256,192,139750,1,0
256,56,140000,6,0,B|176:136,1,110,12|0
108,137,140375,2,0,B|108:248,1,110,2|0
178,250,140750,2,0,B|256:328,1,110,0|12
328,324,141125,2,0,B|328:260|256:268|256:164,1,165,0|4
257,180,141750,1,0
328,32,142000,6,0,B|216:32,1,110,4|0
188,100,142375,2,0,B|308:100,1,110,8|0
328,168,142750,2,0,B|208:168,3,110,2|4|0|0
256,280,143875,5,0
256,280,144000,1,12
376,192,144250,1,2
256,104,144500,1,2
136,192,144750,1,2
256,280,145000,1,4
256,168,145250,2,0,B|288:88|224:88|256:4,1,165,8|2
254,7,145875,1,4
256,192,146000,12,4,148000
