osu file format v9

[General]
AudioFilename: Owl City - Fireflies(Adam Young Remix).mp3
AudioLeadIn: 0
PreviewTime: 53415
Countdown: 0
SampleSet: Normal
StackLeniency: 0.7
Mode: 0
LetterboxInBreaks: 0

[Editor]
DistanceSpacing: 0.9
BeatDivisor: 4
GridSize: 8

[Metadata]
Title:Fireflies (Adam Young Remix)
Artist:Owl City
Creator:JauiPlaY
Version:Hard
Source:
Tags:shinki yangzd88 ocean eyes

[Difficulty]
HPDrainRate:7
CircleSize:4
OverallDifficulty:7
ApproachRate:7
SliderMultiplier:2.4
SliderTickRate:4

[Events]
//Background and Video events
0,0,"bg.jpg"
//Break Periods
2,77639,87540
//Storyboard Layer 0 (Background)
//Storyboard Layer 1 (Fail)
//Storyboard Layer 2 (Pass)
//Storyboard Layer 3 (Foreground)
//Storyboard Sound Samples
//Background Colour Transformations
3,100,255,255,255

[TimingPoints]
5440,666.666666666667,4,1,0,60,1,0
51440,-100,4,2,0,100,0,0
53440,-100,4,1,0,100,0,1
53773,-100,4,1,0,60,0,1
71940,-153.846153846154,4,1,0,60,0,1
73440,-100,4,1,0,30,0,1
73773,-100,4,1,0,60,0,0
118106,-100,4,2,0,100,0,0
120106,-100,4,1,0,100,0,1
120440,-100,4,1,0,60,0,1
138606,-100,4,1,0,60,0,0
141440,-100,4,1,0,100,0,1
141773,-100,4,1,0,60,0,1
161773,-100,4,1,0,0,0,0

[Colours]
Combo1 : 68,68,255
Combo2 : 147,201,255

[HitObjects]
256,48,10773,1,0
148,59,11106,2,0,B|184:156|285:141|285:141|396:127|421:236,1,360,8|8
319,238,12439,1,0
304,344,12773,1,8
256,312,12939,1,0
208,344,13106,1,0
256,248,13439,5,0
148,237,13773,2,0,B|184:140|285:154|285:154|396:169|421:60,1,360,8|8
319,58,15106,1,0
256,144,15439,1,0
256,200,15606,1,8
256,256,15773,1,0
176,184,16106,5,0
88,120,16439,1,0
88,120,16606,1,8
160,40,16939,1,8
200,72,17106,2,0,B|256:112|312:72,1,120,0|0
408,120,17773,1,0
408,120,17939,1,8
408,120,18106,5,0
328,192,18439,1,0
312,240,18606,2,0,B|256:200|200:240,1,120,8|8
168,280,19106,1,0
104,192,19440,1,8
184,120,19773,5,0
200,72,19940,2,0,B|256:112|312:72,1,120,8|8
328,120,20440,1,0
256,200,20773,1,0
256,200,20940,2,0,B|256:320,1,120,8|0
256,320,21440,1,0
360,296,21773,6,0,B|365:185|255:167|255:167|154:154|146:51,1,360,8|8
256,64,23106,1,0
146,51,23440,1,8
146,51,23606,1,0
146,51,23773,1,0
256,64,24106,5,0
365,51,24440,2,0,B|357:154|256:167|256:167|146:185|152:296,1,360,8|8
151,295,25606,1,0
256,328,25940,2,0,B|321:344|376:311|393:245,1,180,8|8
393,245,26606,1,0
328,160,26940,1,0
256,240,27273,1,8
256,240,27440,1,8
184,160,27773,5,0
184,160,27940,1,8
256,240,28273,1,0
256,240,28440,2,0,B|256:312,2,60,8|0|8
256,136,29106,1,8
256,192,29940,12,0,32106
120,256,32440,5,0
120,256,32606,1,8
54,169,32940,2,0,B|110:129|174:161,1,120
167,157,33440,1,8
256,96,33773,1,0
256,40,33940,1,0
200,75,34106,2,0,B|169:151|260:202|353:146|305:56,1,240,8|0
345,157,35106,5,0
344,157,35273,2,0,B|402:129|458:169,1,120,8|0
457,168,35773,1,8
392,256,36106,1,0
312,328,36440,1,8
256,232,36773,1,0
200,328,37106,5,8
200,328,37273,1,8
120,256,37606,1,0
120,256,37773,1,8
154,153,38106,2,0,B|134:87|190:47,1,120
189,47,38606,1,8
256,136,38940,5,0
256,136,39106,1,8
321,48,39440,2,0,B|377:87|358:153,1,120
312,200,39939,2,0,B|343:276|252:327|159:271|207:181,1,240,8|0
198,200,40773,1,8
256,112,41106,2,0,B|256:176,1,60,0|8
256,280,41606,1,0
256,280,41773,1,0
312,184,42106,5,8
200,184,42439,1,0
200,184,42606,1,8
200,184,42773,1,0
256,96,43106,5,0
256,96,43273,1,8
312,183,43606,2,0,B|257:224|200:184,1,120
160,144,44106,2,0,B|81:201|82:289|164:343,1,240,8|0
216,344,44939,1,8
256,304,45106,1,0
256,192,45439,5,0
256,304,45773,1,0
256,304,45939,1,8
199,216,46273,2,0,B|254:175|310:215,1,120
352,256,46773,2,0,B|430:198|429:110|347:56,1,240,8|0
296,56,47606,1,0
256,96,47773,1,8
256,96,47939,1,8
176,176,48273,5,0
152,280,48606,1,0
152,280,48773,1,8
256,312,49106,1,0
256,312,49273,1,8
360,280,49606,1,8
360,280,49773,1,0
336,176,50106,1,8
256,104,50439,2,0,B|256:40,2,60,0|8|0
56,192,51439,5,0
256,376,52106,5,0
456,192,52773,5,0
256,8,53439,5,4
200,96,53773,2,0,B|256:136|312:96,1,120,8|0
256,192,54439,1,8
312,200,54606,2,0,B|373:229|365:297,1,120,0|8
365,297,55106,1,0
288,352,55439,1,8
256,304,55606,1,0
224,352,55773,1,0
176,256,56106,6,0,B|223:208|287:208|336:256,2,180,0|8|8
200,152,57439,1,0
256,144,57606,1,8
312,152,57773,1,0
256,56,58106,1,8
352,112,58439,1,0
352,112,58606,1,8
352,112,58773,6,0,B|435:159|435:256|352:304,2,240,0|8|0
312,208,60439,1,8
312,208,60606,1,0
200,208,60939,1,8
200,208,61106,1,0
159,304,61439,6,0,B|76:256|76:159|160:112,2,240,0|8|0
256,256,63106,1,0
256,256,63273,1,8
256,152,63606,1,0
256,152,63773,1,8
256,48,64106,5,0
344,128,64439,1,0
312,88,64606,2,0,B|256:127|200:87,1,120,8|8
168,128,65106,1,0
256,48,65439,2,0,B|256:232,1,180,0|8
312,200,66106,2,0,B|256:160|200:200,1,120,0|8
160,304,66773,6,0,B|208:387|305:387|352:304,2,240,0|8|0
160,304,68273,1,8
200,200,68606,1,0
200,200,68773,1,8
312,200,69106,1,0
312,200,69273,1,8
312,200,69439,5,0
256,296,69773,1,0
256,192,70106,1,8
256,80,70439,2,0,B|224:104|288:168|256:192,1,120,0|8
256,248,70939,1,0
312,248,71106,2,0,B|304:328|208:328|200:248,1,180,0|8
112,192,71940,2,0,B|144:128|224:128|256:184|256:184|288:128|368:128|400:192,1,350.999993723631
256,192,73773,12,0,77439
256,80,88440,5,8
152,120,88773,2,0,B|157:148|157:148|191:171,1,60,0|8
200,272,89273,2,0,B|256:312|311:273,1,120,0|8
328,165,89940,2,0,B|354:148|354:148|360:120,1,60,8|0
256,80,90440,1,8
256,184,90773,1,0
208,280,91106,2,0,B|248:272|256:304|256:304|264:272|304:280,1,120,0|8
392,216,91773,5,8
360,168,91940,2,0,B|392:143|373:105|333:90|312:124,1,120,0|8
199,124,92606,1,8
199,124,92773,2,0,B|178:90|138:105|119:143|151:167,1,120,0|8
120,216,93273,1,0
120,216,93440,1,0
152,320,93773,5,0
256,280,94106,1,8
360,320,94440,1,0
311,224,94773,1,0
311,224,94940,1,8
256,128,95273,1,8
256,128,95440,1,0
200,224,95773,2,0,B|256:264|312:224,1,120,8|0
256,192,97440,12,0,98773
200,280,99106,5,0
200,280,99273,1,8
311,280,99606,1,0
311,280,99773,1,8
256,184,100106,1,0
256,72,100440,1,8
315,162,100773,2,0,B|270:246|312:324|409:335,1,240
311,280,101773,5,8
311,280,101940,1,0
200,280,102273,1,8
200,280,102440,1,0
256,184,102773,1,0
256,72,103106,1,8
197,162,103440,2,0,B|241:246|199:324|102:335,1,240
103,335,104273,5,0
103,335,104440,1,8
112,224,104773,1,0
200,288,105106,1,0
200,288,105273,1,8
312,288,105606,5,8
312,288,105773,1,0
400,224,106106,1,8
328,144,106440,1,0
312,88,106606,2,0,B|256:49|200:89,1,120,8|8
184,144,107106,1,0
256,224,107440,5,8
256,328,107773,1,0
256,272,107940,2,0,B|288:248|224:184|256:160,1,120,8|8
256,104,108440,1,0
192,192,108773,1,0
256,104,109106,1,8
320,192,109440,1,0
320,192,109606,5,0
320,192,109773,1,8
312,296,110106,2,0,B|256:335|200:295,2,120,0|8|0
312,296,110940,1,8
224,232,111273,1,0
256,128,111606,1,8
256,128,111773,1,8
288,232,112106,5,0
352,144,112440,2,0,B|320:167|384:231|352:255,1,120,8|0
256,200,113106,1,8
160,144,113440,2,0,B|191:167|127:231|159:255,1,120
159,255,113940,1,8
208,352,114273,1,8
256,320,114440,1,0
304,352,114606,1,0
352,256,114940,5,8
312,152,115273,1,0
312,152,115440,1,8
200,152,115773,1,0
200,152,115940,1,8
256,56,116273,1,8
256,56,116440,2,0,B|256:136,2,60,0|0|8
256,160,117106,1,0
256,216,117273,1,8
256,272,117440,1,0
456,192,118106,5,0
256,376,118773,5,0
56,192,119440,5,0
256,8,120106,5,4
312,104,120440,2,0,B|256:65|200:105,1,120,8|0
200,216,121106,1,8
200,216,121273,1,0
176,320,121606,2,0,B|223:367|287:367|336:319,1,180,8|0
312,216,122440,1,0
312,216,122606,1,8
312,216,122773,6,0,B|304:136|208:136|200:216,2,180,0|8|8
344,112,124106,1,0
344,112,124273,1,8
344,112,124440,1,0
256,48,124773,1,8
168,112,125106,1,0
168,112,125273,1,8
160,168,125440,6,0,B|208:251|305:251|352:168,2,240,0|8|0
200,64,127106,1,0
200,64,127273,1,8
312,64,127606,1,0
312,64,127773,1,8
352,168,128106,6,0,B|304:251|207:251|160:168,2,240,0|8|0
256,128,129773,1,8
256,128,129940,1,0
256,232,130273,1,8
256,232,130440,1,0
152,256,130773,5,0
256,232,131106,1,8
256,288,131273,1,0
360,256,131606,1,0
360,256,131773,1,8
336,152,132106,2,0,B|286:200|222:200|175:153,1,180,0|8
200,104,132773,2,0,B|256:64|311:103,1,120,0|8
200,104,133440,5,0
256,200,133773,1,0
256,200,133940,1,8
312,104,134273,1,0
312,104,134440,1,8
256,200,134773,1,0
256,200,134940,1,8
256,200,135106,2,0,B|256:272,2,60,0|0|8
360,224,135773,5,0
360,224,135940,1,8
360,224,136106,1,0
256,256,136440,1,8
152,224,136773,1,0
256,200,137106,1,8
200,112,137440,1,0
200,112,137606,1,8
200,112,137773,2,0,B|255:72|311:111,1,120,0|0
311,111,138273,1,8
256,192,138606,12,0,140106
256,88,140440,5,8
256,192,140773,1,8
256,296,141106,1,0
256,296,141273,1,8
256,296,141440,1,4
152,288,141773,5,0
112,192,142106,1,8
184,112,142440,1,0
200,64,142606,2,0,B|256:24|311:63,1,120,8|8
328,112,143106,1,0
400,192,143440,1,8
360,288,143773,1,0
360,288,143940,1,8
336,240,144106,6,0,B|286:191|222:191|175:238,2,180,0|8|8
256,312,145440,1,0
256,312,145606,1,8
256,312,145773,1,0
344,248,146106,1,8
360,144,146440,1,0
360,144,146606,1,8
360,144,146773,6,0,B|286:180|332:278|437:287|453:206,2,240,0|8|0
283,64,148440,1,8
228,64,148606,1,0
256,168,148940,1,8
256,168,149106,1,0
152,144,149440,6,0,B|225:180|179:278|74:287|58:206,2,240,0|8|0
256,112,151106,1,0
256,112,151273,2,0,B|256:240,1,120,8|0
256,232,151773,1,8
256,336,152106,5,0
168,256,152440,1,8
200,296,152606,2,0,B|256:257|312:297,1,120
344,256,153106,1,8
256,336,153440,2,0,B|256:152,1,180,0|8
200,184,154106,2,0,B|256:224|312:184,1,120,0|8
352,80,154773,6,0,B|304:-3|207:-3|159:79,2,240,0|8|0
352,80,156273,1,8
256,128,156606,1,0
256,184,156773,1,8
256,312,157106,5,0
256,312,157273,1,8
256,312,157440,1,0
168,256,157773,1,0
120,152,158106,1,8
168,56,158439,1,0
256,120,158773,5,0
256,120,158939,1,8
256,120,159106,1,0
344,56,159439,1,0
344,56,159606,1,8
344,56,159773,1,0
344,56,159939,1,8
344,56,160106,5,0
392,152,160439,1,8
392,152,160606,1,8
344,256,160939,1,8
344,256,161106,1,8
256,312,161439,1,8
256,192,161773,12,0,164106
