osu file format v13

[General]
AudioFilename: Owl City - Embers.mp3
AudioLeadIn: 0
PreviewTime: 47775
Countdown: 0
SampleSet: Soft
StackLeniency: 0.7
Mode: 0
LetterboxInBreaks: 1
WidescreenStoryboard: 1

[Editor]
Bookmarks: 8740,23628,182409
DistanceSpacing: 1.1
BeatDivisor: 4
GridSize: 8
TimelineZoom: 1

[Metadata]
Title:Embers
TitleUnicode:Embers
Artist:Owl City
ArtistUnicode:Owl City
Creator:ztrot
Version:Advanced
Source:
Tags:ColdTooth Minao midsummer station
BeatmapID:566515
BeatmapSetID:141403

[Difficulty]
HPDrainRate:5.1
CircleSize:3.6
OverallDifficulty:5.5
ApproachRate:6.5
SliderMultiplier:1.6
SliderTickRate:1

[Events]
//Background and Video events
0,0,"BG.jpg",0,0
//Break Periods
2,149438,163873
//Storyboard Layer 0 (Background)
//Storyboard Layer 1 (Fail)
//Storyboard Layer 2 (Pass)
//Storyboard Layer 3 (Foreground)
//Storyboard Sound Samples

[TimingPoints]
946,487.80487804878,4,2,1,50,1,0
45824,-100,4,2,1,100,0,0
47775,-100,4,2,1,100,0,1
78994,-100,4,2,1,50,0,0
116067,-100,4,2,1,100,0,0
118019,-100,4,2,1,100,0,1
149238,-100,4,2,1,50,0,0
170702,-100,4,2,1,100,0,0
172653,-100,4,2,1,100,0,1
203872,-100,4,2,1,50,0,0
207775,-100,4,2,1,49,0,0
208019,-100,4,2,1,40,0,0

[Colours]
Combo1 : 191,143,0
Combo2 : 198,99,0
Combo3 : 209,41,54
Combo4 : 239,175,80

[HitObjects]
176,328,8750,6,0,P|96:288|88:256,2,120,4|0|4,0:0|0:0|0:0,0:0:0:0:
208,248,9726,1,8,0:0:0:0:
304,248,9970,1,0,0:0:0:0:
336,328,10214,2,0,P|396:263|373:194,1,160,0|0,0:0|0:0,0:0:0:0:
304,160,10945,1,0,0:0:0:0:
376,104,11189,2,0,P|440:144|480:232,1,160,4|8,0:0|0:0,0:0:0:0:
432,320,11921,5,0,0:0:0:0:
368,256,12165,1,0,0:0:0:0:
304,320,12409,1,0,0:0:0:0:
240,256,12653,2,0,P|211:307|227:367,2,120,4|0|4,0:0|0:0|0:0,0:0:0:0:
304,192,13628,1,8,0:0:0:0:
128,224,14116,1,0,0:0:0:0:
64,64,14604,1,0,0:0:0:0:
256,48,15092,5,4,0:0:0:0:
336,88,15336,1,0,0:0:0:0:
416,128,15580,2,0,P|392:192|456:272,1,160,8|0,0:0|0:0,0:0:0:0:
200,344,16555,6,0,P|280:320|296:264,2,120,4|0|4,0:0|0:0|0:0,0:0:0:0:
208,256,17531,1,8,0:0:0:0:
120,240,17775,1,0,0:0:0:0:
112,328,18019,1,0,0:0:0:0:
40,280,18263,2,0,P|32:232|104:152,1,160
56,72,18994,6,0,P|128:32|216:48,1,160,0|8,0:0|0:0,0:0:0:0:
370,88,19970,2,0,P|306:114|304:198,1,160,0|4,0:0|0:0,0:0:0:0:
192,120,20824,2,0,P|191:189|148:221,1,120,4|0,0:0|0:0,0:0:0:0:
184,304,21433,2,0,P|158:341|93:278,2,160,8|0|0,0:0|0:0|0:0,0:0:0:0:
272,288,22653,1,4,0:0:0:0:
334,356,22897,2,0,P|399:341|432:251,1,160,4|8,0:0|0:0,0:0:0:0:
432,176,23628,5,0,0:0:0:0:
352,136,23872,1,0,0:0:0:0:
352,224,24116,1,0,0:0:0:0:
352,224,24360,2,0,P|288:200|264:152,2,120,4|0|4,0:0|0:0|0:0,0:0:0:0:
432,176,25336,1,8,0:0:0:0:
152,48,25824,5,0,0:0:0:0:
360,48,26311,1,0,0:0:0:0:
256,192,26799,2,0,P|232:232|104:232,1,160,4|8,0:0|0:0,0:0:0:0:
168,168,27531,5,0,0:0:0:0:
80,168,27775,1,0,0:0:0:0:
40,248,28019,1,0,0:0:0:0:
80,328,28263,2,0,P|136:348|202:344,2,120,4|0|4,0:0|0:0|0:0,0:0:0:0:
40,248,29238,5,8,0:0:0:0:
256,136,29726,1,0,0:0:0:0:
472,248,30214,1,0,0:0:0:0:
336,360,30702,2,0,L|176:360,1,160,4|8,0:0|0:0,0:0:0:0:
144,264,31433,6,0,L|120:184,2,80,0|0|0,0:0|0:0|0:0,0:0:0:0:
256,128,32409,2,0,L|256:224,2,80,0|0|0,0:0|0:0|0:0,0:0:0:0:
368,264,33385,2,0,L|392:184,2,80,0|0|0,0:0|0:0|0:0,0:0:0:0:
296,53,34360,2,0,P|253:41|216:53,2,80,0|4|0,0:0|0:0|0:0,0:0:0:0:
377,95,35092,1,8,0:0:0:0:
296,136,35336,5,0,0:0:0:0:
256,216,35580,1,0,0:0:0:0:
168,216,35824,2,0,P|144:248|48:192,2,160,0|0|0,0:0|0:0|0:0,0:0:0:0:
112,152,37043,1,8,0:0:0:0:
256,48,37531,1,0,0:0:0:0:
400,152,38019,1,0,0:0:0:0:
256,336,38506,5,0,0:0:0:0:
256,248,38750,1,0,0:0:0:0:
256,160,38994,2,0,B|184:96|336:96|248:24,1,160,8|8,0:0|0:0,0:0:0:0:
80,64,39970,5,0,0:0:0:0:
40,232,40458,1,8,0:0:0:0:
168,352,40945,1,0,0:0:0:0:
256,200,41433,1,8,0:0:0:0:
344,352,41921,1,0,0:0:0:0:
472,232,42409,1,8,0:0:0:0:
432,64,42897,6,0,P|384:112|288:88,1,160,0|8,0:0|0:0,0:0:0:0:
352,32,43872,1,0,0:0:0:0:
352,32,44116,1,8,0:0:0:0:
352,32,44360,1,0,0:0:0:0:
264,24,44604,2,0,P|208:72|224:160,1,160,8|0,0:0|0:0,0:0:0:0:
128,160,45336,1,8,0:0:0:0:
48,320,45824,5,2,0:0:0:0:
56,320,46189,1,2,0:0:0:0:
64,320,46555,1,2,0:0:0:0:
336,344,47043,5,0,0:0:0:0:
392,280,47287,1,2,0:0:0:0:
304,264,47531,1,0,0:0:0:0:
360,192,47775,2,0,P|416:200|432:96,2,160,0|2|0,0:0|0:0|0:0,0:0:0:0:
200,264,49238,1,2,0:0:0:0:
120,280,49482,1,0,0:0:0:0:
176,344,49726,2,0,P|136:368|40:312,2,160,0|2|0,0:0|0:0|0:0,0:0:0:0:
256,192,51189,5,2,0:0:0:0:
256,104,51433,1,0,0:0:0:0:
168,80,51677,2,0,P|128:120|16:96,2,160,0|2|0,0:0|0:0|0:0,0:0:0:0:
176,256,53141,1,2,0:0:0:0:
256,296,53385,1,0,0:0:0:0:
336,256,53628,2,0,P|402:322|470:307,1,160,0|2,0:0|0:0,0:0:0:0:
419,235,54360,2,0,P|442:191|382:96,1,160,2|0,0:0|0:0,0:0:0:0:
312,80,55092,5,2,0:0:0:0:
256,152,55336,1,0,0:0:0:0:
200,80,55580,2,0,P|168:120|56:104,2,160,0|2|0,0:0|0:0|0:0,0:0:0:0:
120,48,56799,1,0,0:0:0:0:
120,48,57043,1,2,0:0:0:0:
312,80,57531,6,0,P|344:120|456:104,2,160,0|2|0,0:0|0:0|0:0,0:0:0:0:
392,48,58750,1,0,0:0:0:0:
392,48,58994,1,2,0:0:0:0:
408,224,59482,2,0,P|384:272|312:296,2,120,0|2|0,0:0|0:0|0:0,0:0:0:0:
320,208,60458,2,0,P|360:144|400:136,2,120,0|0|0,0:0|0:0|0:0,0:0:0:0:
240,256,61433,6,0,P|152:240|96:312,1,160,0|2,0:0|0:0,0:0:0:0:
184,328,62165,1,2,0:0:0:0:
48,200,62653,1,0,0:0:0:0:
120,144,62897,1,2,0:0:0:0:
208,136,63141,1,0,0:0:0:0:
288,168,63385,6,0,P|344:152|368:56,2,160,0|2|0,0:0|0:0|0:0,0:0:0:0:
288,80,64604,1,0,0:0:0:0:
208,40,64848,1,2,0:0:0:0:
80,296,65336,1,0,0:0:0:0:
368,264,65824,1,2,0:0:0:0:
48,88,66311,5,0,0:0:0:0:
64,176,66555,1,0,0:0:0:0:
136,120,66799,1,2,0:0:0:0:
152,208,67043,1,2,0:0:0:0:
176,296,67287,2,0,P|256:288|320:352,2,160,0|2|0,0:0|0:0|0:0,0:0:0:0:
88,280,68506,1,0,0:0:0:0:
112,368,68750,1,2,0:0:0:0:
256,152,69238,6,0,P|336:144|368:56,1,160,0|2,0:0|0:0,0:0:0:0:
432,144,69970,2,0,P|376:212|310:240,1,160,2|0,0:0|0:0,0:0:0:0:
232,240,70702,1,2,0:0:0:0:
72,64,71189,6,0,P|144:112|216:64,1,160,0|2,0:0|0:0,0:0:0:0:
376,48,72165,1,0,0:0:0:0:
440,112,72409,1,0,0:0:0:0:
352,136,72653,1,2,0:0:0:0:
440,320,73141,6,0,P|368:272|296:320,1,160,0|2,0:0|0:0,0:0:0:0:
136,336,74117,1,0,0:0:0:0:
72,272,74361,1,0,0:0:0:0:
160,248,74605,1,2,0:0:0:0:
256,192,75092,12,0,77043,0:0:0:0:
336,56,78994,6,0,P|416:96|424:128,2,120,4|0|4,0:0|0:0|0:0,0:0:0:0:
304,136,79970,1,8,0:0:0:0:
208,136,80214,1,0,0:0:0:0:
176,56,80458,2,0,P|116:121|139:190,1,160,0|0,0:0|0:0,0:0:0:0:
208,224,81189,1,0,0:0:0:0:
136,280,81433,2,0,P|72:240|32:152,1,160,4|8,0:0|0:0,0:0:0:0:
80,64,82165,5,0,0:0:0:0:
144,128,82409,1,0,0:0:0:0:
208,64,82653,1,0,0:0:0:0:
272,128,82897,2,0,P|301:77|285:17,2,120,4|0|4,0:0|0:0|0:0,0:0:0:0:
208,192,83872,1,8,0:0:0:0:
384,160,84360,1,0,0:0:0:0:
448,320,84848,1,0,0:0:0:0:
256,336,85336,5,4,0:0:0:0:
176,296,85580,1,0,0:0:0:0:
96,256,85824,2,0,P|120:192|56:112,1,160,8|0,0:0|0:0,0:0:0:0:
312,40,86799,6,0,P|232:64|216:120,2,120,4|0|4,0:0|0:0|0:0,0:0:0:0:
304,128,87775,1,8,0:0:0:0:
392,144,88019,1,0,0:0:0:0:
400,56,88263,1,0,0:0:0:0:
472,104,88507,2,0,P|480:152|408:232,1,160
456,312,89238,6,0,P|384:352|296:336,1,160,4|8,0:0|0:0,0:0:0:0:
142,296,90214,2,0,P|186:235|150:159,1,160,0|4,0:0|0:0,0:0:0:0:
72,328,91067,2,0,P|78:254|132:219,1,120,4|4,0:0|0:0,0:0:0:0:
83,146,91677,2,0,P|135:90|208:109,2,160,8|0|0,0:0|0:0|0:0,0:0:0:0:
168,176,92897,5,4,0:0:0:0:
256,192,93141,2,0,P|321:207|354:297,1,160,4|8,0:0|0:0,0:0:0:0:
264,280,93872,1,0,0:0:0:0:
176,328,94116,1,0,0:0:0:0:
88,280,94360,1,0,0:0:0:0:
176,232,94604,6,0,L|176:184|176:96,2,120,4|0|4,0:0|0:0|0:0,0:0:0:0:
88,192,95580,1,8,0:0:0:0:
360,336,96068,1,0,0:0:0:0:
152,336,96555,5,0,0:0:0:0:
256,192,97043,2,0,P|280:152|408:152,1,160,4|8,0:0|0:0,0:0:0:0:
344,216,97775,1,0,0:0:0:0:
432,216,98019,1,0,0:0:0:0:
472,136,98263,1,0,0:0:0:0:
432,56,98507,2,0,P|376:36|310:40,2,120,4|0|4,0:0|0:0|0:0,0:0:0:0:
472,136,99482,5,8,0:0:0:0:
256,248,99970,1,0,0:0:0:0:
40,136,100458,1,0,0:0:0:0:
176,24,100946,2,0,L|336:24,1,160,4|8,0:0|0:0,0:0:0:0:
368,120,101677,6,0,P|370:156|392:200,2,80,0|0|0,0:0|0:0|0:0,0:0:0:0:
256,256,102653,2,0,L|256:160,2,80,0|0|0,0:0|0:0|0:0,0:0:0:0:
144,120,103628,2,0,P|142:156|120:200,2,80,0|0|0,0:0|0:0|0:0,0:0:0:0:
216,331,104604,2,0,P|259:343|296:331,2,80,0|4|0,0:0|0:0|0:0,0:0:0:0:
135,289,105336,1,8,0:0:0:0:
208,248,105580,5,0,0:0:0:0:
304,248,105824,1,0,0:0:0:0:
344,168,106068,2,0,P|368:136|464:192,2,160,0|0|0,0:0|0:0|0:0,0:0:0:0:
400,232,107287,1,8,0:0:0:0:
256,336,107775,1,4,0:0:0:0:
112,232,108263,1,0,0:0:0:0:
256,48,108750,5,4,0:0:0:0:
256,136,108994,1,0,0:0:0:0:
256,224,109238,2,0,B|328:288|176:288|264:360,1,160,8|8,0:0|0:0,0:0:0:0:
432,320,110214,5,0,0:0:0:0:
472,152,110702,1,8,0:0:0:0:
344,32,111189,1,0,0:0:0:0:
256,184,111677,1,8,0:0:0:0:
168,32,112165,1,0,0:0:0:0:
40,152,112653,1,8,0:0:0:0:
80,320,113141,6,0,P|128:272|224:296,1,160,0|8,0:0|0:0,0:0:0:0:
160,352,114116,1,0,0:0:0:0:
160,352,114360,1,8,0:0:0:0:
160,352,114604,1,0,0:0:0:0:
248,360,114848,2,0,P|304:312|288:224,1,160,8|0,0:0|0:0,0:0:0:0:
384,224,115580,1,0,0:0:0:0:
464,64,116068,5,2,0:0:0:0:
456,64,116433,1,2,0:0:0:0:
448,64,116799,1,2,0:0:0:0:
176,40,117287,5,0,0:0:0:0:
120,104,117531,1,2,0:0:0:0:
208,120,117775,1,0,0:0:0:0:
152,184,118019,2,0,P|120:232|24:264,2,160,0|2|0,0:0|0:0|0:0,0:0:0:0:
328,192,119482,1,2,0:0:0:0:
400,240,119726,1,0,0:0:0:0:
472,192,119970,2,0,P|488:248|416:328,2,160,0|2|0,0:0|0:0|0:0,0:0:0:0:
480,104,121189,5,0,0:0:0:0:
400,136,121433,1,2,0:0:0:0:
408,48,121677,1,0,0:0:0:0:
328,88,121921,2,0,P|288:120|184:104,2,160,0|2|0,0:0|0:0|0:0,0:0:0:0:
376,256,123385,1,2,0:0:0:0:
336,336,123628,1,0,0:0:0:0:
288,264,123872,2,0,L|144:192,2,160,0|2|0,0:0|0:0|0:0,0:0:0:0:
432,56,125336,5,2,0:0:0:0:
300,157,125824,2,0,B|237:186|195:123|195:123,2,120,0|0|0,0:0|0:0|0:0,0:0:0:0:
268,83,126799,2,0,P|335:85|382:158,2,160,0|2|0,0:0|0:0|0:0,0:0:0:0:
192,192,128141,1,0,0:0:0:0:
80,120,128506,1,0,0:0:0:0:
80,120,128750,2,0,P|32:184|88:272,2,160,0|2|0,0:0|0:0|0:0,0:0:0:0:
208,104,130092,5,0,0:0:0:0:
336,104,130458,1,0,0:0:0:0:
336,104,130702,2,0,P|384:160|368:224,2,120,0|0|0,0:0|0:0|0:0,0:0:0:0:
288,184,131677,2,0,P|304:264|376:296,1,160,0|2,0:0|0:0,0:0:0:0:
369,296,132409,1,2,0:0:0:0:
136,96,132897,5,0,0:0:0:0:
208,40,133141,1,2,0:0:0:0:
304,40,133385,1,0,0:0:0:0:
376,96,133628,2,0,L|376:264,2,160,0|2|0,0:0|0:0|0:0,0:0:0:0:
232,200,135092,5,2,0:0:0:0:
232,112,135336,1,0,0:0:0:0:
136,96,135580,2,0,L|136:264,2,160,0|2|0,0:0|0:0|0:0,0:0:0:0:
256,336,137043,5,2,0:0:0:0:
304,256,137287,1,0,0:0:0:0:
208,256,137531,1,0,0:0:0:0:
368,192,138019,1,2,0:0:0:0:
144,192,138506,1,2,0:0:0:0:
256,48,138994,1,0,0:0:0:0:
304,128,139238,1,0,0:0:0:0:
208,128,139482,1,0,0:0:0:0:
40,168,139970,5,2,0:0:0:0:
96,232,140214,1,2,0:0:0:0:
416,232,140702,1,0,0:0:0:0:
472,160,140945,1,2,0:0:0:0:
336,304,141433,6,0,L|168:304,2,160,0|2|0,0:0|0:0|0:0,0:0:0:0:
256,208,142653,1,0,0:0:0:0:
176,112,142897,2,0,L|344:112,2,160,2|0|2,0:0|0:0|0:0,0:0:0:0:
64,248,144360,1,0,0:0:0:0:
64,160,144604,1,0,0:0:0:0:
64,72,144848,1,2,0:0:0:0:
256,80,145336,6,0,P|295:114|369:105,2,120,0|0|0,0:0|0:0|0:0,0:0:0:0:
328,32,146311,2,0,P|384:24|440:72,2,120,0|0|0,0:0|0:0|0:0,0:0:0:0:
256,192,147775,12,0,149238,0:0:0:0:
40,40,164848,5,0,0:0:0:0:
128,192,165336,1,8,0:0:0:0:
256,72,165824,1,0,0:0:0:0:
384,192,166311,1,8,0:0:0:0:
472,40,166799,2,8,P|472:104|408:104,2,120,8|8|8,0:0|0:0|0:0,0:0:0:0:
464,296,168019,6,8,L|376:328,3,80,8|0|8|8,0:0|0:0|0:0|0:0,0:0:0:0:
256,320,169116,2,0,P|176:320|144:288,1,120,8|8,0:0|0:0,0:0:0:0:
232,136,169970,1,0,0:0:0:0:
296,72,170214,1,0,0:0:0:0:
376,112,170458,1,0,0:0:0:0:
456,64,170702,5,2,0:0:0:0:
448,64,171067,1,2,0:0:0:0:
440,64,171433,1,2,0:0:0:0:
176,40,171921,5,0,0:0:0:0:
120,104,172165,1,2,0:0:0:0:
208,120,172409,1,0,0:0:0:0:
152,192,172653,2,0,P|96:184|80:288,2,160,0|2|0,0:0|0:0|0:0,0:0:0:0:
304,120,174116,1,2,0:0:0:0:
392,104,174360,1,0,0:0:0:0:
336,40,174604,2,0,P|376:16|472:72,2,160,0|2|0,0:0|0:0|0:0,0:0:0:0:
256,192,176067,5,2,0:0:0:0:
256,280,176311,1,0,0:0:0:0:
344,304,176555,2,0,P|384:264|496:288,2,160,0|2|0,0:0|0:0|0:0,0:0:0:0:
336,128,178019,1,2,0:0:0:0:
256,88,178263,1,0,0:0:0:0:
176,128,178506,6,0,P|110:62|42:77,1,160,0|2,0:0|0:0,0:0:0:0:
93,149,179238,2,0,P|70:193|130:288,1,160,2|0,0:0|0:0,0:0:0:0:
200,304,179970,1,2,0:0:0:0:
256,232,180214,1,0,0:0:0:0:
312,304,180458,2,0,P|344:264|456:280,2,160,0|2|0,0:0|0:0|0:0,0:0:0:0:
392,336,181677,1,0,0:0:0:0:
392,336,181921,1,2,0:0:0:0:
200,304,182409,6,0,P|168:264|56:280,2,160,0|2|0,0:0|0:0|0:0,0:0:0:0:
120,336,183628,1,0,0:0:0:0:
120,336,183872,1,2,0:0:0:0:
104,160,184360,2,0,P|128:112|200:88,2,120,0|2|0,0:0|0:0|0:0,0:0:0:0:
192,176,185336,2,0,P|152:240|112:248,2,120,0|0|0,0:0|0:0|0:0,0:0:0:0:
272,128,186311,6,0,P|360:144|416:72,1,160,0|2,0:0|0:0,0:0:0:0:
328,56,187043,1,2,0:0:0:0:
464,184,187531,1,0,0:0:0:0:
392,240,187775,1,2,0:0:0:0:
304,248,188019,1,0,0:0:0:0:
224,216,188263,6,0,P|168:232|144:328,2,160,0|2|0,0:0|0:0|0:0,0:0:0:0:
224,304,189482,1,0,0:0:0:0:
304,344,189726,1,2,0:0:0:0:
432,88,190214,1,0,0:0:0:0:
144,120,190702,1,2,0:0:0:0:
464,296,191189,5,0,0:0:0:0:
448,208,191433,1,0,0:0:0:0:
376,264,191677,1,2,0:0:0:0:
360,176,191921,1,2,0:0:0:0:
336,88,192165,2,0,P|256:96|192:32,2,160,0|2|0,0:0|0:0|0:0,0:0:0:0:
424,104,193384,1,0,0:0:0:0:
400,16,193628,1,2,0:0:0:0:
256,232,194116,6,0,P|176:240|144:328,1,160,0|2,0:0|0:0,0:0:0:0:
74,241,194848,2,0,P|130:173|196:145,1,160,2|0,0:0|0:0,0:0:0:0:
280,144,195580,1,2,0:0:0:0:
440,320,196067,6,0,P|368:272|296:320,1,160,0|2,0:0|0:0,0:0:0:0:
136,336,197043,1,0,0:0:0:0:
72,272,197287,1,0,0:0:0:0:
160,248,197531,1,2,0:0:0:0:
72,64,198019,6,0,P|144:112|216:64,1,160,0|2,0:0|0:0,0:0:0:0:
376,48,198995,1,0,0:0:0:0:
440,112,199239,1,0,0:0:0:0:
352,136,199483,1,2,0:0:0:0:
256,192,199970,12,0,201921,0:0:0:0:
64,64,203872,6,0,P|72:112|32:184,2,120,0|0|0,0:0|0:0|0:0,0:0:0:0:
160,56,204848,2,0,P|160:120|240:168,2,160,0|0|0,0:0|0:0|0:0,0:0:0:0:
168,256,206189,1,0,0:0:0:0:
48,216,206555,1,0,0:0:0:0:
88,296,206799,2,0,P|136:336|240:312,2,160,0|0|0,0:0|0:0|0:0,0:0:0:0:
136,168,208141,1,0,0:0:0:0:
40,72,208506,1,0,0:0:0:0:
128,80,208750,2,0,P|176:72|232:24,2,120,0|0|0,0:0|0:0|0:0,0:0:0:0:
256,192,209726,12,0,211677,0:0:0:0:
72,336,212287,5,0,0:0:0:0:
48,208,212653,2,0,P|56:112|200:72,1,240
144,160,213628,5,0,0:0:0:0:
184,240,213872,1,0,0:0:0:0:
256,128,214238,1,0,0:0:0:0:
328,240,214604,2,0,P|384:312|416:208,1,240
440,128,215580,2,0,P|392:112|368:48,2,120,0|0|0,0:0|0:0|0:0,0:0:0:0:
456,40,216555,1,0,0:0:0:0:
456,40,216921,1,0,0:0:0:0:
456,40,217287,1,0,0:0:0:0:
256,192,217775,12,0,219482,0:0:0:0:
