osu file format v12

[General]
AudioFilename: Dementia.mp3
AudioLeadIn: 2000
PreviewTime: 144104
Countdown: 0
SampleSet: Soft
StackLeniency: 0.7
Mode: 0
LetterboxInBreaks: 0
StoryFireInFront: 0

[Editor]
Bookmarks: 23159
DistanceSpacing: 0.8
BeatDivisor: 4
GridSize: 4

[Metadata]
Title:Dementia (feat. Mark Hoppus)
TitleUnicode:Dementia (feat. Mark Hoppus)
Artist:Owl City
ArtistUnicode:Owl City
Creator:HelloSCV
Version:Normal
Source:
Tags:Shooting Star EP scanter Adam Young inverness midsummer station
BeatmapID:238934
BeatmapSetID:86848

[Difficulty]
HPDrainRate:3
CircleSize:3
OverallDifficulty:3
ApproachRate:4
SliderMultiplier:1.3
SliderTickRate:1

[Events]
//Background and Video events
0,0,"bg.jpg",0,0
//Break Periods
2,68713,80894
2,129185,135224
//Storyboard Layer 0 (Background)
//Storyboard Layer 1 (Fail)
//Storyboard Layer 2 (Pass)
//Storyboard Layer 3 (Foreground)
Sprite,Foreground,CentreLeft,"o3o\T\T-BM-SCV.png",155,418 F,0,9930,10166,0,1 F,0,11348,11703,1,0
//Storyboard Sound Samples
//Background Colour Transformations
3,100,163,162,255

[TimingPoints]
482,472.44094488189,4,2,1,60,1,0
23159,-100,4,2,2,60,0,0
23277,-100,4,2,1,60,0,0
38277,-100,4,2,2,60,0,0
38395,-100,4,2,1,60,0,0
53395,-100,4,2,1,75,0,1
68513,-100,4,2,2,75,0,0
68631,-100,4,2,1,75,0,0
83631,-100,4,2,2,60,0,0
83749,-100,4,2,1,60,0,0
98749,-100,4,2,2,60,0,0
98867,-100,4,2,1,60,0,0
113867,-100,4,2,1,75,0,1
128985,-100,4,2,2,75,0,0
129104,-100,4,2,1,75,0,0
144104,-100,4,2,1,75,0,1
158749,-100,4,2,1,75,0,0
159222,-100,4,2,1,75,0,1
174340,-100,4,2,2,75,0,0
174458,-100,4,2,1,75,0,0
192293,-100,4,2,1,5,0,0

[Colours]
Combo1 : 255,179,142
Combo2 : 155,255,155
Combo3 : 111,183,255
Combo4 : 176,255,255

[HitObjects]
56,204,482,2,0,P|84:248|168:280,1,130,0|0,0:0|0:0,0:0:0:0:
204,280,1190,1,8,0:0:0:0:
248,252,1426,2,0,P|304:212|368:220,1,130,0|8,0:0|0:0,0:0:0:0:
460,256,2371,6,0,L|476:112,1,130
480,76,3080,1,8,0:0:0:0:
432,96,3316,2,0,P|368:120|304:92,1,130,0|8,0:0|0:0,0:0:0:0:
268,72,4025,1,0,0:0:0:0:
268,72,4261,6,0,P|264:136|232:192,1,130,0|0,0:0|0:0,0:0:0:0:
192,224,4970,1,8,0:0:0:0:
172,272,5206,2,0,P|212:317|282:328,1,130,0|8,0:0|0:0,0:0:0:0:
348,252,6151,6,0,P|356:184|404:140,1,130
448,136,6859,1,8,0:0:0:0:
496,120,7096,2,0,P|464:68|400:36,1,130,0|8,0:0|0:0,0:0:0:0:
308,72,8041,6,0,P|264:120|192:136,1,130
152,140,8749,1,8,0:0:0:0:
104,120,8985,2,0,L|72:256,1,130,0|8,0:0|0:0,0:0:0:0:
96,348,9930,6,0,P|144:316|220:308,1,130,0|0,0:0|0:0,0:0:0:0:
264,316,10639,1,8,0:0:0:0:
316,324,10875,2,0,P|372:328|452:292,1,130,0|8,0:0|0:0,0:0:0:0:
432,252,11584,1,0,0:0:0:0:
432,252,11820,6,0,P|408:192|428:124,1,130,0|0,0:0|0:0,0:0:0:0:
460,92,12529,2,0,L|316:108,1,130,8|0,0:0|0:0,0:0:0:0:
280,112,13237,1,8,0:0:0:0:
220,196,13710,6,0,P|184:144|184:72,1,130
200,32,14419,2,0,P|140:24|72:44,1,130,8|0,0:0|0:0,0:0:0:0:
36,76,15127,1,8,0:0:0:0:
64,176,15600,6,0,P|88:232|80:304,1,130,0|0,0:0|0:0,0:0:0:0:
52,340,16308,1,8,0:0:0:0:
100,360,16544,2,0,P|165:364|230:341,1,130,0|8,0:0|0:0,0:0:0:0:
228,240,17489,6,0,L|188:188,2,65,0|0|0,0:0|0:0|0:0,0:0:0:0:
264,204,18198,2,0,L|396:260,1,130,8|0,0:0|0:0,0:0:0:0:
432,272,18907,1,8,0:0:0:0:
432,272,19379,6,0,P|456:212|440:136,1,130
404,116,20088,2,0,P|340:120|272:84,1,130,8|0,0:0|0:0,0:0:0:0:
240,60,20796,1,8,0:0:0:0:
144,100,21269,1,0,0:0:0:0:
108,196,21741,6,0,L|144:264,1,65,0|8,0:0|0:0,0:0:0:0:
188,236,22214,2,0,L|168:364,1,130,8|8,0:0|0:0,0:0:0:0:
268,328,23159,6,0,P|308:280|376:272,1,130,4|0,0:0|0:0,0:0:0:0:
424,272,23867,2,0,L|464:212,1,65,8|0,0:0|0:0,0:0:0:0:
368,172,24576,2,0,L|404:117,1,65,8|0,0:0|0:0,0:0:0:0:
432,76,25048,2,0,P|368:72|312:28,1,130
264,36,25757,1,8,0:0:0:0:
228,72,25993,2,0,L|188:128,2,65,0|0|8,0:0|0:0|0:0,0:0:0:0:
284,160,26938,5,0,0:0:0:0:
204,224,27411,2,0,L|124:240,2,65,0|8|0,0:0|0:0|0:0,0:0:0:0:
140,140,28356,1,8,0:0:0:0:
56,200,28828,2,0,P|56:264|96:320,1,130
144,324,29537,1,8,0:0:0:0:
196,312,29773,2,0,P|224:292|260:284,2,65,0|0|8,0:0|0:0|0:0,0:0:0:0:
284,368,30718,5,0,0:0:0:0:
352,288,31190,2,0,L|364:212,1,65,0|8,0:0|0:0,0:0:0:0:
372,172,31663,1,0,0:0:0:0:
376,68,32135,2,0,L|316:44,1,65,8|0,0:0|0:0,0:0:0:0:
292,92,32607,2,0,P|236:120|156:112,1,130
120,108,33316,1,8,0:0:0:0:
104,156,33552,2,0,L|84:232,2,65,0|0|8,0:0|0:0|0:0,0:0:0:0:
184,224,34497,6,0,P|200:292|248:336,1,130,0|0,0:0|0:0,0:0:0:0:
292,340,35206,1,8,0:0:0:0:
388,300,35678,2,0,L|412:364,2,65,0|8|0,0:0|0:0|0:0,0:0:0:0:
384,248,36387,2,0,L|280:164,1,130
244,204,37096,2,0,L|216:64,1,130,8|0,0:0|0:0,0:0:0:0:
208,24,37804,1,8,0:0:0:0:
124,88,38277,5,4,0:0:0:0:
80,184,38749,2,0,L|52:248,2,65,0|8|0,0:0|0:0|0:0,0:0:0:0:
172,232,39694,2,0,L|228:200,2,65,8|0|0,0:0|0:0|0:0,0:0:0:0:
216,328,40639,1,0,0:0:0:0:
320,320,41111,2,0,P|384:308|444:256,1,130,0|8,0:0|0:0,0:0:0:0:
484,176,42056,5,0,0:0:0:0:
408,104,42529,2,0,P|384:80|356:64,1,65,0|8,0:0|0:0,0:0:0:0:
312,92,43001,2,0,P|260:128|184:128,1,130,0|8,0:0|0:0,0:0:0:0:
100,88,43946,2,0,L|64:224,1,130
60,264,44655,1,8,0:0:0:0:
56,316,44891,2,0,P|68:348|88:372,2,65,0|0|8,0:0|0:0|0:0,0:0:0:0:
160,300,45836,5,0,0:0:0:0:
264,312,46308,2,0,L|312:260,2,65,0|8|0,0:0|0:0|0:0,0:0:0:0:
220,216,47253,2,0,L|224:152,1,65,8|0,0:0|0:0,0:0:0:0:
272,128,47726,2,0,P|332:148|400:124,1,130
456,48,48670,2,0,P|396:28|328:52,2,130,0|8|0,0:0|0:0|0:0,0:0:0:0:
393,128,50088,5,0,0:0:0:0:
324,208,50560,1,0,0:0:0:0:
268,296,51032,2,0,L|200:280,1,65,8|0,0:0|0:0,0:0:0:0:
156,296,51505,2,0,L|108:160,1,130,8|8,0:0|0:0,0:0:0:0:
60,184,52214,2,0,L|136:72,1,130,0|0,0:0|0:0,0:0:0:0:
164,36,52922,1,8,0:0:0:0:
268,36,53395,5,4,0:1:0:0:
272,140,53867,2,0,L|340:156,1,65,0|8,0:0|0:0,0:0:0:0:
368,196,54340,2,0,L|452:80,2,130,0|8|8,0:0|0:0|0:0,0:0:0:0:
356,300,55757,2,0,L|288:312,2,65,0|8|0,0:0|0:0|0:0,0:0:0:0:
448,252,56702,1,8,0:0:0:0:
352,212,57174,6,0,P|286:202|220:176,1,130,8|0,0:0|0:0,0:0:0:0:
180,160,57883,1,8,0:0:0:0:
140,128,58119,2,0,P|100:176|88:252,2,130,0|8|8,0:0|0:0|0:0,0:0:0:0:
236,84,59537,2,0,P|221:52|188:31,2,65,0|8|0,2:0|0:0|0:0,0:0:0:0:
232,188,60482,1,8,0:0:0:0:
168,268,60954,5,8,0:0:0:0:
168,268,61426,2,0,L|228:300,1,65,0|8,0:0|0:0,0:0:0:0:
272,320,61899,2,0,P|336:328|396:296,1,130,0|8,0:0|0:0,0:0:0:0:
416,252,62607,1,0,0:0:0:0:
420,200,62844,2,0,P|424:136|476:80,2,130,8|0|0,0:0|0:0|0:0,0:0:0:0:
320,176,64261,1,8,0:0:0:0:
228,224,64733,5,8,0:0:0:0:
128,256,65206,1,0,0:0:0:0:
100,212,65442,2,0,L|60:156,1,65,8|0,0:0|0:0,0:0:0:0:
36,112,65915,2,0,P|92:112|164:76,1,130
192,40,66623,1,8,0:0:0:0:
284,92,67096,1,0,0:0:0:0:
304,140,67332,2,0,P|312:208|284:276,1,130,8|0,0:0|0:0,0:0:0:0:
248,292,68041,2,0,P|188:272|112:288,1,130,8|4,0:0|0:0,0:0:0:0:
108,216,82214,6,0,L|128:284,2,65,0|8|8,0:0|0:0|0:0,0:0:0:0:
212,228,83159,1,8,0:0:0:0:
304,176,83631,6,0,P|368:160|424:184,1,130,4|0,0:0|0:0,0:0:0:0:
484,268,84576,2,0,P|420:284|364:260,1,130,0|8,0:0|0:0,0:0:0:0:
312,260,85285,2,0,P|279:278|260:308,1,65
160,320,85993,2,0,L|180:248,1,65,0|8,0:0|0:0,0:0:0:0:
216,220,86466,2,0,L|196:152,2,65,0|0|8,0:0|0:0|0:0,0:0:0:0:
308,168,87411,5,0,0:0:0:0:
340,268,87883,2,0,L|360:332,2,65,0|8|0,0:0|0:0|0:0,0:0:0:0:
440,244,88828,1,8,0:0:0:0:
496,156,89300,2,0,P|444:112|440:36,1,130,0|0,0:0|0:0,0:0:0:0:
384,40,90009,1,8,0:0:0:0:
332,32,90245,2,0,P|300:28|256:32,2,65,0|0|8,0:0|0:0|0:0,0:0:0:0:
292,128,91190,5,0,0:0:0:0:
212,192,91663,2,0,P|186:253|207:326,1,130,0|0,0:0|0:0,0:0:0:0:
292,268,92607,1,8,0:0:0:0:
376,208,93080,2,0,P|428:180|508:192,1,130
448,280,94025,1,0,0:0:0:0:
376,208,94497,2,0,L|276:100,1,130,8|0,0:0|0:0,0:0:0:0:
184,100,95442,6,0,P|184:132|192:164,1,65,0|8,0:0|0:0,0:0:0:0:
164,264,96151,2,0,L|96:244,2,65,0|8|0,0:0|0:0|0:0,0:0:0:0:
212,284,96859,2,0,P|272:268|344:288,1,130,0|0,0:0|0:0,0:0:0:0:
380,312,97568,2,0,L|472:204,1,130,8|0,0:0|0:0,0:0:0:0:
500,176,98277,1,8,0:0:0:0:
408,132,98749,6,0,B|384:112|350:111|350:111|316:108|288:84,1,130,4|0,0:0|0:0,0:0:0:0:
208,20,99694,1,0,0:0:0:0:
216,124,100167,2,0,P|216:156|208:192,2,65,8|0|0,0:0|0:0|0:0,0:0:0:0:
116,156,101111,1,0,0:0:0:0:
152,252,101584,2,0,P|212:272|272:248,2,130,0|8|0,0:0|0:0|0:0,0:0:0:0:
48,232,103001,5,0,0:0:0:0:
116,156,103473,2,0,P|156:104|168:36,1,130,0|8,0:0|0:0,0:0:0:0:
220,40,104182,1,0,0:0:0:0:
260,72,104419,2,0,P|324:72|380:40,1,130
400,140,105363,2,0,L|456:184,2,65,0|0|8,0:0|0:0|0:0,0:0:0:0:
368,240,106308,5,0,0:0:0:0:
264,236,106781,2,0,L|192:228,2,65,0|8|0,0:0|0:0|0:0,0:0:0:0:
304,140,107726,1,8,0:0:0:0:
200,144,108198,2,0,P|144:160|112:224,1,130
148,320,109143,1,0,0:0:0:0:
244,284,109615,2,0,P|308:268|380:276,1,130,8|0,0:0|0:0,0:0:0:0:
464,324,110560,6,0,P|476:292|476:252,1,65,0|8,0:0|0:0,0:0:0:0:
416,176,111269,2,0,P|444:159|476:151,2,65,0|8|0,0:0|0:0|0:0,0:0:0:0:
384,216,111978,2,0,L|244:192,1,130,8|8,0:0|0:0,0:0:0:0:
232,148,112686,2,0,L|120:228,1,130,0|0,0:0|0:0,0:0:0:0:
84,256,113395,1,8,0:0:0:0:
172,312,113867,6,0,P|236:324|296:300,1,130,4|0,0:1|0:0,0:0:0:0:
368,228,114812,1,0,0:0:0:0:
344,128,115285,2,0,L|376:72,2,65,8|0|8,0:0|0:0|0:0,0:0:0:0:
252,176,116230,2,0,L|240:100,1,65,0|8,0:0|0:0,0:0:0:0:
232,60,116702,1,0,0:0:0:0:
140,108,117174,1,8,0:0:0:0:
48,60,117647,5,8,0:0:0:0:
68,160,118119,2,0,P|88:224|76:296,1,130
176,324,119064,2,0,L|244:316,1,65,8|0,0:0|0:0,0:0:0:0:
292,324,119537,2,0,P|360:316|408:256,1,130,8|0,0:0|0:0,0:0:0:0:
428,172,120482,2,0,P|360:180|312:240,2,130,0|8|8,0:0|0:0|0:0,0:0:0:0:
408,68,121899,6,0,L|476:40,2,65,0|8|0,0:0|0:0|0:0,0:0:0:0:
308,96,122844,2,0,L|324:24,2,65,8|0|8,0:0|0:0|0:0,0:0:0:0:
236,172,123789,1,0,0:0:0:0:
180,260,124261,2,0,P|128:300|60:304,2,130,0|8|8,0:0|0:0|0:0,0:0:0:0:
92,204,125678,5,0,0:0:0:0:
132,172,125915,2,0,P|164:116|164:52,2,130,8|0|0,0:0|0:0|0:0,0:0:0:0:
92,204,127096,1,8,0:0:0:0:
160,280,127568,1,0,0:0:0:0:
212,280,127804,2,0,P|272:268|332:212,1,130,8|0,0:0|0:0,0:0:0:0:
340,176,128513,2,0,P|356:112|404:68,1,130,8|4,0:0|0:0,0:0:0:0:
116,216,136544,6,0,P|156:264|232:276,1,130,12|0,0:0|0:0,0:0:0:0:
268,264,137253,2,0,P|332:244|408:264,1,130,8|0,0:0|0:0,0:0:0:0:
436,284,137962,1,8,0:0:0:0:
368,268,139852,5,8,0:0:0:0:
396,168,140324,2,0,P|356:120|280:108,1,130,8|0,0:0|0:0,0:0:0:0:
244,120,141033,2,0,P|180:140|104:120,1,130,8|0,0:0|0:0,0:0:0:0:
80,96,141741,1,8,0:0:0:0:
352,248,142686,6,0,L|352:313,2,65,0|8|8,0:0|0:0|0:0,0:0:0:0:
252,272,143631,1,8,0:0:0:0:
148,264,144104,6,0,P|96:236|68:172,1,130,4|0,0:1|0:0,0:0:0:0:
68,120,144812,1,8,0:0:0:0:
120,112,145048,2,0,P|182:96|230:47,1,130,0|8,0:0|0:0,0:0:0:0:
332,48,145993,1,8,0:0:0:0:
404,124,146466,1,0,0:0:0:0:
372,164,146702,1,8,0:0:0:0:
360,216,146938,2,0,P|356:252|364:284,2,65,0|0|8,0:0|0:0|0:0,0:0:0:0:
460,248,147883,5,8,0:0:0:0:
444,352,148356,2,0,P|392:384|316:372,1,130
256,300,149300,1,8,0:0:0:0:
216,204,149773,2,0,P|180:152|116:132,2,130,8|0|0,0:0|0:0|0:0,0:0:0:0:
116,236,151190,1,8,0:0:0:0:
88,336,151663,5,8,0:0:0:0:
188,312,152135,2,0,L|252:304,2,65,0|8|0,0:0|0:0|0:0,0:0:0:0:
232,216,153080,2,0,L|292:180,1,65,8|0,0:0|0:0,0:0:0:0:
336,200,153552,2,0,L|392:72,1,130,8|0,0:0|0:0,0:0:0:0:
296,32,154497,1,0,0:0:0:0:
224,108,154970,2,0,P|196:132|156:148,2,65,8|0|8,0:0|0:0|0:0,0:0:0:0:
140,44,155915,5,0,0:0:0:0:
104,80,156151,2,0,P|80:144|104:204,1,130,8|0,0:0|0:0,0:0:0:0:
144,228,156859,2,0,P|192:272|204:340,1,130,8|8,0:0|0:0,0:0:0:0:
308,348,157804,1,0,0:0:0:0:
352,324,158040,2,0,P|376:260|352:200,1,130,8|0,0:0|0:0,0:0:0:0:
328,160,158749,1,8,0:0:0:0:
324,56,159222,5,4,0:1:0:0:
236,108,159694,2,0,P|176:132|96:112,1,130
28,64,160639,2,0,P|23:95|24:136,1,65,8|0,0:0|0:0,0:0:0:0:
36,180,161111,2,0,P|76:224|88:296,1,130,8|0,0:0|0:0,0:0:0:0:
192,268,162057,2,0,L|264:252,2,65,0|0|8,0:0|0:0|0:0,0:0:0:0:
256,348,163001,5,8,0:0:0:0:
360,328,163474,2,0,P|392:308|420:280,1,65,0|8,0:0|0:0,0:0:0:0:
404,184,164182,2,0,P|372:204|344:232,1,65,0|8,0:0|0:0,0:0:0:0:
312,256,164655,2,0,P|264:272|184:240,1,130,0|0,0:0|0:0,0:0:0:0:
112,180,165600,2,0,P|93:149|86:114,1,65,8|0,0:0|0:0,0:0:0:0:
192,112,166308,1,8,0:0:0:0:
256,28,166781,5,8,0:0:0:0:
320,112,167253,2,0,L|372:152,2,65,0|8|0,0:0|0:0|0:0,0:0:0:0:
288,212,168198,1,8,0:0:0:0:
184,232,168670,2,0,P|136:260|104:332,1,130,8|0,0:0|0:0,0:0:0:0:
208,328,169615,1,0,0:0:0:0:
308,300,170088,2,0,P|368:284|452:296,1,130,8|8,0:0|0:0,0:0:0:0:
492,204,171033,5,0,0:0:0:0:
440,204,171269,2,0,P|380:176|356:116,1,130,8|0,0:0|0:0,0:0:0:0:
356,68,171978,1,8,0:0:0:0:
256,96,172450,2,0,P|252:60|232:32,2,65,8|0|8,0:0|0:0|0:0,0:0:0:0:
248,148,173159,2,0,P|236:216|268:284,1,130,8|0,0:0|0:0,0:0:0:0:
288,312,173867,2,0,P|220:308|164:336,1,130,8|4,0:0|0:0,0:0:0:0:
80,276,174812,6,0,L|60:338,2,65,0|8|0,0:0|0:0|0:0,0:0:0:0:
108,176,175757,1,8,0:0:0:0:
120,72,176230,2,0,P|176:92|212:156,1,130
212,204,176938,2,0,P|236:252|316:280,1,130,8|0,0:0|0:0,0:0:0:0:
356,276,177647,1,8,0:0:0:0:
460,292,178119,6,0,P|455:235|407:183,1,130
356,176,178828,2,0,P|312:140|296:64,1,130,8|0,0:0|0:0,0:0:0:0:
300,20,179537,1,8,0:0:0:0:
200,48,180009,2,0,L|144:16,2,65
168,88,180718,2,0,L|184:220,1,130,8|0,0:0|0:0,0:0:0:0:
136,240,181426,2,0,L|240:324,1,130,8|0,0:0|0:0,0:0:0:0:
340,308,182371,6,0,P|328:276|296:248,2,65,0|8|0,0:0|0:0|0:0,0:0:0:0:
436,352,183316,1,8,0:0:0:0:
448,248,183788,2,0,L|464:108,1,130
472,68,184497,2,0,P|420:92|348:88,1,130,8|0,0:0|0:0,0:0:0:0:
304,64,185206,1,8,0:0:0:0:
204,44,185678,6,0,P|212:104|264:160,1,130
304,180,186387,2,0,P|264:232|252:304,1,130,8|0,0:0|0:0,0:0:0:0:
252,348,187096,1,8,0:0:0:0:
152,324,187568,2,0,P|116:332|92:352,2,65,8|0|8,0:0|0:0|0:0,0:0:0:0:
168,276,188277,2,0,P|180:208|152:144,1,130,8|0,0:0|0:0,0:0:0:0:
120,120,188985,1,8,0:0:0:0:
256,192,189458,12,0,192293,0:0:0:0:
