osu file format v12

[General]
AudioFilename: Dementia.mp3
AudioLeadIn: 2000
PreviewTime: 144104
Countdown: 0
SampleSet: Soft
StackLeniency: 0.7
Mode: 0
LetterboxInBreaks: 0
StoryFireInFront: 0

[Editor]
Bookmarks: 23159
DistanceSpacing: 1.1
BeatDivisor: 4
GridSize: 4

[Metadata]
Title:Dementia (feat. Mark Hoppus)
TitleUnicode:Dementia (feat. Mark Hoppus)
Artist:Owl City
ArtistUnicode:Owl City
Creator:HelloSCV
Version:Hard
Source:
Tags:Shooting Star EP scanter Adam Young inverness midsummer station
BeatmapID:237556
BeatmapSetID:86848

[Difficulty]
HPDrainRate:6
CircleSize:4
OverallDifficulty:7
ApproachRate:8
SliderMultiplier:1.7
SliderTickRate:2

[Events]
//Background and Video events
0,0,"bg.jpg",0,0
//Break Periods
2,68713,81700
2,129185,135322
//Storyboard Layer 0 (Background)
//Storyboard Layer 1 (Fail)
//Storyboard Layer 2 (Pass)
//Storyboard Layer 3 (Foreground)
Sprite,Foreground,CentreLeft,"o3o\T\T-BM-SCV.png",155,418 F,0,9930,10166,0,1 F,0,11348,11703,1,0
//Storyboard Sound Samples
//Background Colour Transformations
3,100,163,162,255

[TimingPoints]
482,472.44094488189,4,2,1,60,1,0
23159,-100,4,2,2,60,0,0
23277,-100,4,2,1,60,0,0
38277,-100,4,2,2,60,0,0
38395,-100,4,2,1,60,0,0
53395,-100,4,2,1,75,0,1
68513,-100,4,2,2,75,0,0
68631,-100,4,2,1,75,0,0
83631,-100,4,2,2,60,0,0
83749,-100,4,2,1,60,0,0
98749,-100,4,2,2,60,0,0
98867,-100,4,2,1,60,0,0
113867,-100,4,2,1,75,0,1
128985,-100,4,2,2,75,0,0
129104,-100,4,2,1,75,0,0
144104,-100,4,2,1,75,0,1
158749,-100,4,2,1,75,0,0
159222,-100,4,2,1,75,0,1
174340,-100,4,2,2,75,0,0
174458,-100,4,2,1,75,0,0
189458,-100,4,2,2,75,0,0
189576,-100,4,2,1,75,0,0
192293,-100,4,2,1,5,0,0

[Colours]
Combo1 : 255,179,142
Combo2 : 155,255,155
Combo3 : 111,183,255
Combo4 : 176,255,255

[HitObjects]
36,240,482,6,0,P|112:284|192:244,1,170,0|0,2:0|0:0,0:0:0:0:
220,180,1190,1,8,0:0:0:0:
208,96,1426,2,0,B|212:48|264:28|264:28,2,85,0|0|8,0:0|0:0|0:0,0:0:0:0:
292,116,2135,5,0,0:0:0:0:
312,120,2253,1,0,0:0:0:0:
332,124,2371,1,0,0:0:0:0:
388,60,2607,1,0,0:0:0:0:
400,75,2725,1,0,0:0:0:0:
413,91,2844,2,0,L|468:160,1,85,0|8,0:0|0:0,0:0:0:0:
364,264,3316,2,0,P|366:221|390:185,1,85
444,252,3789,1,8,0:0:0:0:
412,332,4025,1,0,0:0:0:0:
412,332,4261,6,0,P|332:340|280:272,1,170
280,192,4970,1,8,0:0:0:0:
272,108,5206,2,0,P|228:124|200:160,1,85
208,236,5678,1,8,0:0:0:0:
280,192,5915,6,0,L|332:176,2,42.5
128,192,6387,2,0,L|136:88,1,85
144,24,6859,1,8,0:0:0:0:
144,208,7096,2,0,L|152:104,1,85
160,40,7568,1,8,0:0:0:0:
236,76,7804,1,0,0:0:0:0:
236,76,7922,1,0,0:0:0:0:
236,76,8041,6,0,P|288:104|384:64,1,170,0|0,0:0|0:0,0:0:0:0:
464,32,8749,1,8,0:0:0:0:
492,112,8985,2,0,L|480:196,1,85
472,280,9458,1,8,0:0:0:0:
388,296,9694,5,0,0:0:0:0:
368,292,9812,1,0,0:0:0:0:
348,288,9930,1,0,0:0:0:0:
288,348,10167,1,0,0:0:0:0:
275,332,10285,1,0,0:0:0:0:
262,316,10403,2,0,L|200:240,1,85,0|8,0:0|0:0,0:0:0:0:
80,186,10875,2,0,P|96:230|124:256,1,85
168,184,11348,1,8,0:0:0:0:
192,100,11584,1,0,0:0:0:0:
136,36,11820,6,0,P|192:100|280:100,1,170
336,44,12529,2,0,L|380:212,1,170,8|0,0:0|0:0,0:0:0:0:
404,292,13237,1,8,0:0:0:0:
324,268,13474,1,0,0:0:0:0:
240,256,13710,6,0,P|196:260|156:276,2,85
212,336,14419,2,0,P|144:352|76:272,1,170,8|0,0:0|0:0,0:0:0:0:
0,252,15127,2,0,L|32:156,1,85,8|0,0:0|0:0,0:0:0:0:
26,171,15600,6,0,P|88:180|160:104,1,170
148,24,16308,1,8,0:0:0:0:
228,52,16544,2,0,L|320:84,1,85
364,187,17017,2,0,L|284:160,1,85,8|0,0:0|0:0,0:0:0:0:
200,164,17489,5,0,0:0:0:0:
152,232,17726,1,0,0:0:0:0:
176,312,17962,1,0,0:0:0:0:
92,296,18198,2,0,P|68:224|116:150,1,170,8|0,0:0|0:0,0:0:0:0:
200,164,18907,2,0,P|244:156|272:128,1,85,8|0,0:0|0:0,0:0:0:0:
264,44,19379,6,0,L|280:228,1,170
284,300,20088,1,8,0:0:0:0:
368,280,20324,2,0,P|408:272|451:279,1,85
284,300,20796,2,0,P|244:308|200:300,1,85,8|0,0:0|0:0,0:0:0:0:
200,300,21269,5,0,0:0:0:0:
140,240,21505,1,0,0:0:0:0:
132,156,21741,1,0,0:0:0:0:
192,96,21978,2,0,P|236:108|280:96,1,85,8|8,0:0|0:0,0:0:0:0:
348,60,22450,1,8,0:0:0:0:
392,56,22568,1,8,0:0:0:0:
432,72,22686,2,0,L|448:116,3,42.5,8|8|8|8,0:0|0:0|0:0|0:0,0:0:0:0:
488,120,23159,6,0,L|480:220,1,85,4|0,0:0|0:0,0:0:0:0:
444,280,23631,1,0,0:0:0:0:
364,308,23867,1,8,0:0:0:0:
288,272,24104,2,0,P|260:200|172:180,1,170,0|8,0:0|0:0,0:0:0:0:
204,260,24812,5,0,0:0:0:0:
204,260,25048,2,0,P|176:180|96:164,1,170
124,244,25757,1,8,0:0:0:0:
24,180,25993,2,0,P|12:140|16:96,1,85
176,40,26466,2,0,P|140:60|96:64,1,85,8|0,0:0|0:0,0:0:0:0:
28,16,26938,5,0,0:0:0:0:
64,184,27411,1,0,0:0:0:0:
124,244,27647,1,8,0:0:0:0:
208,244,27883,2,0,P|236:192|344:172,1,170,0|8,0:0|0:0,0:0:0:0:
416,204,28592,1,0,0:0:0:0:
456,128,28828,6,0,L|512:60,1,85
428,44,29300,2,0,P|388:56|344:52,1,85,0|8,0:0|0:0,0:0:0:0:
260,36,29773,1,0,0:0:0:0:
200,96,30009,1,0,0:0:0:0:
128,48,30245,1,8,0:0:0:0:
108,216,30718,5,0,0:0:0:0:
108,216,31190,2,0,P|140:248|176:264,1,85,0|8,0:0|0:0,0:0:0:0:
20,252,31663,2,0,L|156:356,1,170,0|8,0:0|0:0,0:0:0:0:
240,356,32371,1,0,0:0:0:0:
264,276,32607,6,0,L|448:308,1,170
488,244,33315,1,8,0:0:0:0:
408,216,33552,2,0,P|412:172|396:128,1,85
316,120,34025,2,0,P|360:136|460:76,1,170,8|0,0:0|0:0,0:0:0:0:
234,100,34970,6,0,P|233:144|252:180,2,85,0|8|0,0:0|0:0|0:0,0:0:0:0:
336,200,35678,2,0,L|324:248,1,42.5
364,264,35915,2,0,L|296:316,1,85,8|0,0:0|0:0,0:0:0:0:
228,364,36387,5,0,0:0:0:0:
148,336,36623,1,0,0:0:0:0:
116,256,36859,1,0,0:0:0:0:
136,172,37096,2,0,L|184:96,1,85,8|8,0:0|0:0,0:0:0:0:
264,92,37568,2,0,L|252:36,1,42.5,8|8,0:0|0:0,0:0:0:0:
296,56,37804,2,0,L|324:12,3,42.5,8|8|8|8,0:0|0:0|0:0|0:0,0:0:0:0:
340,56,38277,6,0,P|376:76|432:80,1,85,4|0,0:0|0:0,0:0:0:0:
504,72,38749,1,0,0:0:0:0:
468,148,38985,1,8,0:0:0:0:
396,192,39222,2,0,P|336:172|256:240,1,170,0|8,0:0|0:0,0:0:0:0:
340,256,39930,1,0,0:0:0:0:
352,340,40167,6,0,B|304:348|272:312|272:312|184:348,1,170
112,348,40875,1,8,0:0:0:0:
156,276,41111,2,0,L|128:236,2,42.5
72,192,41584,2,0,P|96:160|100:108,1,85,8|0,0:0|0:0,0:0:0:0:
20,132,42056,6,0,L|192:96,1,170,0|0,0:0|0:0,0:0:0:0:
272,92,42765,1,8,0:0:0:0:
352,116,43001,2,0,P|352:156|368:200,1,85
467,263,43474,2,0,P|467:223|452:180,1,85,8|0,0:0|0:0,0:0:0:0:
392,268,43946,6,0,L|296:284,1,85
308,324,44300,2,0,L|224:280,1,85
192,268,44655,1,8,0:0:0:0:
144,200,44891,2,0,P|144:156|128:112,2,85,0|0|8,0:0|0:0|0:0,0:0:0:0:
320,204,45836,6,0,L|200:76,1,170
124,52,46544,1,8,0:0:0:0:
128,136,46781,2,0,P|124:184|16:240,1,170,0|8,0:0|0:0,0:0:0:0:
48,160,47489,1,0,0:0:0:0:
48,160,47726,6,0,L|164:296,1,170,0|0,0:0|0:0,0:0:0:0:
108,356,48434,1,8,0:0:0:0:
192,360,48670,2,0,L|288:348,1,85
272,264,49143,2,0,L|316:188,1,85,8|0,0:0|0:0,0:0:0:0:
360,116,49615,5,0,0:0:0:0:
200,56,50088,2,0,L|280:96,1,85,0|8,0:0|0:0,0:0:0:0:
292,176,50560,1,0,0:0:0:0:
232,236,50796,2,0,P|192:248|152:272,1,85,0|8,0:0|0:0,0:0:0:0:
112,196,51269,1,0,0:0:0:0:
64,124,51505,6,0,L|52:68,2,42.5,8|8|8,0:0|0:0|0:0,0:0:0:0:
148,108,51978,1,8,0:0:0:0:
220,144,52214,2,0,L|308:168,1,85,8|8,0:0|0:0,0:0:0:0:
360,104,52686,1,8,0:0:0:0:
392,76,52804,1,8,0:0:0:0:
436,76,52922,2,0,L|448:128,1,42.5,8|8,0:0|0:0,0:0:0:0:
416,148,53159,2,0,L|452:180,1,42.5,8|8,0:0|0:0,0:0:0:0:
492,180,53395,6,0,L|476:268,1,85,4|0,0:1|0:0,0:0:0:0:
416,332,53867,1,0,0:0:0:0:
328,296,54104,1,8,0:0:0:0:
252,240,54340,2,0,P|244:196|140:136,1,170,0|8,0:0|0:0,0:0:0:0:
160,228,55048,1,0,0:0:0:0:
72,192,55285,6,0,L|44:112,1,85,8|0,0:0|0:0,0:0:0:0:
88,92,55639,2,0,L|100:44,1,42.5
192,44,55993,1,8,0:0:0:0:
244,124,56230,2,0,P|276:144|322:149,1,85
376,6,56702,2,0,P|338:22|312:56,1,85,8|0,0:0|0:0,0:0:0:0:
396,100,57174,5,8,0:0:0:0:
396,100,57411,1,0,0:0:0:0:
412,192,57647,2,0,P|424:232|424:288,1,85,0|8,0:0|0:0,0:0:0:0:
368,348,58119,2,0,P|324:292|232:296,1,170,0|8,0:0|0:0,0:0:0:0:
152,348,58828,1,0,0:0:0:0:
112,264,59064,6,0,P|128:224|124:172,1,85,8|0,0:0|0:0,0:0:0:0:
72,104,59537,1,0,0:0:0:0:
216,56,59773,1,8,0:0:0:0:
152,100,60009,2,0,P|188:128|236:132,1,85
320,124,60482,1,8,0:0:0:0:
408,92,60718,1,0,0:0:0:0:
480,148,60954,6,0,L|468:240,1,85,8|0,0:0|0:0,0:0:0:0:
420,312,61426,2,0,L|376:316,1,42.5
348,352,61663,2,0,L|300:280,1,85,8|0,0:0|0:0,0:0:0:0:
216,240,62135,1,0,0:0:0:0:
124,236,62371,2,0,L|104:188,1,42.5,8|0,0:0|0:0,0:0:0:0:
60,200,62607,2,0,L|100:120,1,85,0|8,0:0|0:0,0:0:0:0:
188,104,63080,1,0,0:0:0:0:
268,152,63316,6,0,P|264:192|276:236,1,85,0|8,0:0|0:0,0:0:0:0:
344,300,63789,1,0,0:0:0:0:
432,272,64025,2,0,L|476:224,2,42.5,0|0|8,0:0|0:0|0:0,0:0:0:0:
388,192,64497,2,0,L|400:96,1,85,0|8,0:0|0:0,0:0:0:0:
398,107,64970,5,0,0:0:0:0:
308,124,65206,1,0,0:0:0:0:
216,136,65442,2,0,P|176:136|124:120,1,85,8|0,0:0|0:0,0:0:0:0:
64,188,65915,2,0,L|16:100,1,85,0|8,0:0|0:0,0:0:0:0:
148,216,66387,1,0,0:0:0:0:
212,284,66623,6,0,L|256:308,1,42.5,8|0,0:0|0:0,0:0:0:0:
264,344,66859,2,0,L|352:296,1,85,0|8,0:0|0:0,0:0:0:0:
424,268,67332,2,0,P|384:216|424:116,1,170,8|8,0:0|0:0,0:0:0:0:
456,100,67922,1,8,0:0:0:0:
480,60,68041,2,0,L|452:8,4,42.5,8|8|8|8|4,0:0|0:0|0:0|0:0|0:0,0:0:0:0:
236,268,82450,5,8,0:0:0:0:
236,268,82686,2,0,L|180:196,1,85,8|8,0:0|0:0,0:0:0:0:
144,188,83041,1,8,0:0:0:0:
104,176,83159,2,0,L|68:148,3,42.5,8|8|8|8,0:0|0:0|0:0|0:0,0:0:0:0:
36,124,83631,6,0,P|80:116|112:88,1,85,4|0,0:0|0:0,0:0:0:0:
172,32,84104,2,0,P|204:60|226:95,1,85,0|8,0:0|0:0,0:0:0:0:
304,124,84576,1,0,0:0:0:0:
292,208,84812,1,0,0:0:0:0:
364,252,85048,2,0,P|404:240|440:204,1,85,8|0,0:0|0:0,0:0:0:0:
360,352,85521,6,0,L|512:264,1,170
508,180,86230,1,8,0:0:0:0:
464,108,86466,2,0,P|444:72|404:40,1,85
296,88,86938,2,0,P|328:112|372:120,2,85,8|0|0,0:0|0:0|0:0,0:0:0:0:
152,180,87883,6,0,P|192:168|228:136,1,85,0|8,0:0|0:0,0:0:0:0:
96,112,88356,2,0,P|68:184|120:260,1,170,0|8,0:0|0:0,0:0:0:0:
200,272,89064,1,0,0:0:0:0:
276,236,89300,6,0,P|324:224|408:304,1,170
320,312,90009,1,8,0:0:0:0:
407,297,90245,2,0,L|492:292,1,85
336,224,90718,2,0,L|420:218,1,85,8|0,0:0|0:0,0:0:0:0:
480,160,91190,6,0,P|420:128|420:24,1,170
328,52,91899,1,8,0:0:0:0:
280,120,92135,2,0,P|244:144|188:156,1,85
168,232,92607,2,0,L|124:200,2,42.5,8|0|0,0:0|0:0|0:0,0:0:0:0:
140,312,93080,6,0,L|232:324,1,85
308,316,93552,1,0,0:0:0:0:
372,260,93789,1,8,0:0:0:0:
396,176,94025,2,0,P|404:132|396:88,1,85
324,132,94497,2,0,P|292:88|184:124,1,170,8|0,0:0|0:0,0:0:0:0:
152,276,95442,5,0,0:0:0:0:
236,296,95678,2,0,P|216:332|172:356,1,85,8|0,0:0|0:0,0:0:0:0:
96,336,96151,2,0,L|72:284,1,42.5
36,304,96387,2,0,L|40:216,1,85,8|0,0:0|0:0,0:0:0:0:
36,136,96859,5,0,0:0:0:0:
88,68,97096,1,0,0:0:0:0:
172,64,97332,1,0,0:0:0:0:
228,128,97568,2,0,P|268:156|312:160,1,85,8|8,0:0|0:0,0:0:0:0:
376,120,98041,1,8,0:0:0:0:
408,92,98159,1,8,0:0:0:0:
448,80,98277,2,0,L|468:120,3,42.5,8|8|8|8,0:0|0:0|0:0|0:0,0:0:0:0:
508,120,98749,6,0,L|496:216,1,85,4|0,0:0|0:0,0:0:0:0:
448,276,99222,1,0,0:0:0:0:
364,268,99458,1,8,0:0:0:0:
292,316,99694,2,0,P|256:296|208:288,1,85
100,259,100167,2,0,P|112:300|140:332,1,85,8|0,0:0|0:0,0:0:0:0:
172,228,100639,6,0,L|164:136,1,85
152,60,101111,1,0,0:0:0:0:
228,24,101348,1,8,0:0:0:0:
280,92,101584,2,0,L|320:124,2,42.5
348,44,102056,2,0,L|432:108,1,85,8|0,0:0|0:0,0:0:0:0:
415,95,102529,5,0,0:0:0:0:
416,264,103001,2,0,L|416:176,1,85,0|8,0:0|0:0,0:0:0:0:
336,212,103474,2,0,P|288:276|204:272,1,170,0|8,0:0|0:0,0:0:0:0:
252,200,104182,1,0,0:0:0:0:
212,124,104419,6,0,B|168:148|168:200|168:200|140:168|92:172,1,170
104,256,105127,1,8,0:0:0:0:
28,136,105363,2,0,L|48:92,1,42.5
16,68,105600,2,0,L|108:52,1,85,0|8,0:0|0:0,0:0:0:0:
184,40,106072,1,0,0:0:0:0:
268,24,106308,6,0,P|260:76|152:116,1,170
76,108,107017,1,8,0:0:0:0:
104,188,107253,2,0,P|72:212|52:256,1,85
145,354,107726,2,0,P|133:314|136:272,1,85,8|0,0:0|0:0,0:0:0:0:
212,304,108198,6,0,P|262:245|367:240,1,170
432,256,108907,1,8,0:0:0:0:
456,176,109143,2,0,P|452:136|460:84,1,85
304,27,109615,2,0,P|348:32|384:52,2,85,8|0|0,0:0|0:0|0:0,0:0:0:0:
296,196,110560,5,0,0:0:0:0:
296,196,110796,2,0,P|256:172|208:160,1,85,8|0,0:0|0:0,0:0:0:0:
144,204,111269,2,0,L|112:172,1,42.5
76,192,111505,2,0,L|64:100,1,85,8|0,0:0|0:0,0:0:0:0:
128,48,111978,5,8,0:0:0:0:
144,60,112096,1,8,0:0:0:0:
164,64,112214,2,0,P|208:72|248:64,1,85
332,76,112686,2,0,B|328:120|284:144,1,85,8|8,0:0|0:0,0:0:0:0:
296,228,113159,1,8,0:0:0:0:
320,264,113277,1,8,0:0:0:0:
360,280,113395,2,0,L|404:288,1,42.5,8|8,0:0|0:0,0:0:0:0:
420,328,113631,2,0,L|456:296,1,42.5,8|8,0:0|0:0,0:0:0:0:
496,304,113867,6,0,L|484:208,1,85,4|0,0:1|0:0,0:0:0:0:
476,128,114340,1,0,0:0:0:0:
408,192,114576,1,8,0:0:0:0:
420,48,114812,2,0,P|380:92|264:72,1,170,0|8,0:0|0:0,0:0:0:0:
332,8,115521,1,0,0:0:0:0:
240,12,115757,6,0,P|192:68|236:156,1,170,8|0,0:0|0:0,0:0:0:0:
312,180,116466,1,8,0:0:0:0:
224,148,116702,2,0,P|187:166|155:206,1,85
255,316,117174,2,0,P|260:276|244:236,1,85,8|0,0:0|0:0,0:0:0:0:
164,284,117647,5,8,0:0:0:0:
344,340,118119,2,0,P|387:341|429:330,1,85,0|8,0:0|0:0,0:0:0:0:
496,264,118592,2,0,P|431:249|390:161,1,170,0|8,0:0|0:0,0:0:0:0:
420,72,119300,1,0,0:0:0:0:
476,148,119537,6,0,P|400:164|332:96,1,170,8|0,0:0|0:0,0:0:0:0:
320,16,120245,1,8,0:0:0:0:
256,84,120482,2,0,P|212:96|180:128,1,85
128,260,120954,2,0,P|172:248|200:221,1,85,8|0,0:0|0:0,0:0:0:0:
120,172,121426,6,0,L|8:160,1,85,8|0,0:0|0:0,0:0:0:0:
0,76,121899,1,0,0:0:0:0:
176,12,122135,1,8,0:0:0:0:
140,96,122371,2,0,P|212:96|268:16,1,170,0|8,0:0|0:0,0:0:0:0:
400,136,123080,1,0,0:0:0:0:
336,68,123316,6,0,P|312:152|364:220,1,170,8|0,0:0|0:0,0:0:0:0:
448,224,124025,1,8,0:0:0:0:
508,296,124261,1,0,0:0:0:0:
432,348,124497,2,0,L|376:340,2,42.5,0|0|8,0:0|0:0|0:0,0:0:0:0:
380,272,124970,2,0,L|280:256,1,85,0|8,0:0|0:0,0:0:0:0:
224,316,125442,6,0,L|196:232,1,85,0|0,0:0|0:0,0:0:0:0:
276,184,125915,2,0,P|228:208|124:140,1,170,8|0,0:0|0:0,0:0:0:0:
112,68,126623,1,8,0:0:0:0:
200,96,126859,1,0,0:0:0:0:
40,140,127096,6,0,L|-16:168,2,42.5,8|0|0,0:0|0:0|0:0,0:0:0:0:
60,232,127568,1,0,0:0:0:0:
124,300,127804,2,0,P|156:336|272:312,1,170,8|8,0:0|0:0,0:0:0:0:
300,284,128395,1,8,0:0:0:0:
308,236,128513,2,0,L|356:228,4,42.5,8|8|8|8|4,0:0|0:0|0:0|0:0|0:0,0:0:0:0:
60,208,136072,5,8,0:0:0:0:
60,208,136308,1,0,0:0:0:0:
124,264,136544,2,0,L|160:292,1,42.5,12|0,0:0|0:0,0:0:0:0:
140,328,136781,2,0,L|224:344,1,85
308,336,137253,2,0,P|300:268|380:276,1,170,8|0,0:0|0:0,0:0:0:0:
379,274,137962,1,8,0:0:0:0:
452,176,139615,6,0,L|432:128,1,42.5
468,112,139852,2,0,L|376:96,1,85,8|0,0:0|0:0,0:0:0:0:
308,132,140324,2,0,L|292:84,2,42.5,12|0|0,0:0|0:0|0:0,0:0:0:0:
340,212,140796,1,0,0:0:0:0:
272,264,141033,2,0,P|228:216|128:240,1,170,8|0,0:0|0:0,0:0:0:0:
133,234,141741,1,8,0:0:0:0:
88,96,142686,5,8,0:0:0:0:
88,96,142923,1,8,0:0:0:0:
88,180,143159,2,0,P|104:220|140:256,1,85,8|8,0:0|0:0,0:0:0:0:
172,260,143513,1,8,0:0:0:0:
216,264,143631,2,0,L|236:308,1,42.5,8|8,0:0|0:0,0:0:0:0:
212,340,143867,2,0,L|260:356,1,42.5,8|8,0:0|0:0,0:0:0:0:
292,336,144104,6,0,P|352:264|436:276,1,170,4|0,0:1|0:0,0:0:0:0:
384,352,144812,1,8,0:0:0:0:
421,267,145048,2,0,L|464:193,1,85
444,45,145521,2,0,L|404:120,1,85,8|0,0:0|0:0,0:0:0:0:
320,156,145993,6,0,P|264:180|208:136,1,127.5,8|0,0:0|0:0,0:0:0:0:
216,100,146466,2,0,L|124:108,1,85,0|8,0:0|0:0,0:0:0:0:
60,168,146938,1,0,0:0:0:0:
100,320,147174,1,0,0:0:0:0:
144,176,147411,1,8,0:0:0:0:
168,268,147647,2,0,L|268:252,1,85,0|8,0:0|0:0,0:0:0:0:
344,248,148119,5,0,0:0:0:0:
420,192,148356,2,0,P|392:160|380:112,1,85,0|8,0:0|0:0,0:0:0:0:
444,52,148828,2,0,P|376:100|300:68,1,170,0|8,0:0|0:0,0:0:0:0:
224,20,149537,1,0,0:0:0:0:
208,112,149773,6,0,L|200:216,1,85,8|0,0:0|0:0,0:0:0:0:
196,288,150245,1,0,0:0:0:0:
112,328,150482,1,8,0:0:0:0:
44,264,150718,2,0,P|68:232|80:188,2,85,0|0|8,0:0|0:0|0:0,0:0:0:0:
96,356,151426,2,0,L|144:272,1,85,0|8,0:0|0:0,0:0:0:0:
208,216,151899,5,0,0:0:0:0:
300,228,152135,2,0,L|356:236,1,42.5
348,280,152371,2,0,L|416:216,1,85,8|0,0:0|0:0,0:0:0:0:
340,160,152844,1,0,0:0:0:0:
256,120,153080,2,0,L|200:112,1,42.5,8|0,0:0|0:0,0:0:0:0:
208,68,153316,2,0,L|140:132,1,85,0|8,0:0|0:0,0:0:0:0:
56,152,153789,1,0,0:0:0:0:
88,240,154025,5,0,0:0:0:0:
164,292,154261,1,8,0:0:0:0:
176,200,154497,2,0,L|260:224,1,85
256,272,154852,2,0,L|316:260,1,42.5,0|8,0:0|0:0,0:0:0:0:
388,240,155206,1,0,0:0:0:0:
432,160,155442,5,8,0:0:0:0:
368,92,155678,2,0,P|328:108|280:108,1,85,0|0,0:0|0:0,0:0:0:0:
308,16,156151,2,0,P|292:56|172:80,1,170,8|0,0:0|0:0,0:0:0:0:
104,28,156859,1,8,0:0:0:0:
96,120,157096,1,0,0:0:0:0:
52,204,157332,5,8,0:0:0:0:
128,260,157568,2,0,P|168:244|216:244,1,85,0|0,0:0|0:0,0:0:0:0:
188,336,158041,2,0,P|204:296|324:272,1,170,8|0,0:0|0:0,0:0:0:0:
396,320,158749,1,12,0:3:0:0:
396,320,159222,6,0,L|424:236,1,85,4|0,0:1|0:0,0:0:0:0:
424,144,159694,2,0,L|364:152,2,42.5,0|0|8,0:0|0:0|0:0,0:0:0:0:
364,72,160167,2,0,P|304:84|240:64,1,127.5
220,24,160639,2,0,L|168:100,1,85,8|0,0:0|0:0,0:0:0:0:
80,108,161111,6,0,B|92:156|128:180|128:180|164:204|180:256,1,170,8|0,0:0|0:0,0:0:0:0:
132,328,161820,1,8,0:0:0:0:
300,279,162056,2,0,P|260:288|224:312,1,85
356,356,162529,2,0,P|396:347|432:323,1,85,8|0,0:0|0:0,0:0:0:0:
376,264,163001,5,8,0:0:0:0:
380,172,163237,1,0,0:0:0:0:
320,100,163474,1,0,0:0:0:0:
320,100,163710,2,0,P|276:152|220:156,1,127.5,8|0,0:0|0:0,0:0:0:0:
184,188,164182,2,0,L|144:136,2,42.5,0|0|8,0:0|0:0|0:0,0:0:0:0:
136,268,164655,1,0,0:0:0:0:
263,339,164891,6,0,P|220:356|184:348,1,85,8|0,0:0|0:0,0:0:0:0:
92,360,165363,1,0,0:0:0:0:
36,284,165600,1,8,0:0:0:0:
68,196,165836,2,0,P|96:164|100:112,1,85
72,88,166190,2,0,L|120:60,1,42.5,0|8,0:0|0:0,0:0:0:0:
200,92,166544,1,0,0:0:0:0:
272,32,166781,5,8,0:0:0:0:
272,32,167017,1,0,0:0:0:0:
288,124,167253,2,0,L|296:172,1,42.5
340,168,167489,2,0,B|336:212|336:212|348:256,1,85,8|0,0:0|0:0,0:0:0:0:
312,340,167962,1,0,0:0:0:0:
220,348,168198,2,0,L|212:300,1,42.5,8|0,0:0|0:0,0:0:0:0:
168,304,168434,2,0,B|172:260|172:260|160:216,1,85,0|8,0:0|0:0,0:0:0:0:
72,188,168907,1,0,0:0:0:0:
24,108,169143,5,0,0:0:0:0:
108,64,169379,1,8,0:0:0:0:
176,128,169615,2,0,L|272:144,1,85
144,44,170088,2,0,L|200:52,2,42.5,8|0|0,0:0|0:0|0:0,0:0:0:0:
84,116,170560,6,0,P|88:152|112:200,1,85,8|0,0:0|0:0,0:0:0:0:
192,236,171033,1,0,0:0:0:0:
284,248,171269,2,0,P|360:204|432:232,1,170,8|0,0:0|0:0,0:0:0:0:
364,296,171978,1,8,0:0:0:0:
284,340,172214,1,0,0:0:0:0:
192,236,172450,6,0,L|204:180,1,42.5,8|0,0:0|0:0,0:0:0:0:
244,180,172686,2,0,L|208:104,1,85,0|8,0:0|0:0,0:0:0:0:
196,12,173159,2,0,P|192:68|96:120,1,170,8|8,0:0|0:0,0:0:0:0:
56,108,173749,1,8,0:0:0:0:
16,88,173867,2,0,L|0:132,4,42.5,8|8|8|8|4,0:0|0:0|0:0|0:0|0:0,0:0:0:0:
72,268,174812,6,0,L|52:176,2,85,0|8|0,0:0|0:0|0:0,0:0:0:0:
132,328,175521,1,0,0:0:0:0:
216,332,175757,2,0,L|316:316,1,85,8|0,0:0|0:0,0:0:0:0:
288,236,176230,6,0,L|312:196,2,42.5
368,268,176702,1,0,0:0:0:0:
420,200,176938,2,0,P|457:157|429:53,1,170,8|0,0:0|0:0,3:0:0:0:
348,76,177647,2,0,P|288:96|204:24,1,170,8|0,0:0|0:0,0:0:0:0:
124,48,178356,5,0,0:0:0:0:
132,132,178592,2,0,L|152:220,1,85,0|8,0:0|0:0,0:0:0:0:
104,284,179064,2,0,L|200:312,1,85
268,328,179537,1,8,0:0:0:0:
352,320,179773,2,0,L|388:288,1,42.5
424,308,180009,6,0,L|416:204,2,85
512,348,180718,2,0,L|496:140,1,170,8|0,0:0|0:0,0:0:0:0:
476,96,181426,1,8,0:0:0:0:
404,144,181663,2,0,P|368:124|340:88,1,85
172,100,182371,6,0,L|276:148,2,85,0|8|0,0:0|0:0|0:0,0:0:0:0:
92,72,183080,2,0,L|92:128,1,42.5
52,128,183316,2,0,L|76:216,1,85,8|0,0:0|0:0,0:0:0:0:
20,276,183789,6,0,L|64:320,2,42.5
128,280,184261,1,0,0:0:0:0:
208,312,184497,2,0,P|264:312|320:216,1,170,8|0,0:0|0:0,0:0:0:0:
236,232,185206,2,0,P|284:296|368:288,1,170,8|0,0:0|0:0,0:0:0:0:
416,220,185915,5,0,0:0:0:0:
436,136,186151,1,0,0:0:0:0:
436,136,186387,2,0,P|364:132|308:56,1,170,8|0,0:0|0:0,0:0:0:0:
232,100,187096,1,8,0:0:0:0:
168,156,187332,2,0,L|124:160,1,42.5
88,136,187568,6,0,L|64:176,2,42.5,8|8|8,0:0|0:0|0:0,0:0:0:0:
148,72,188041,1,8,0:0:0:0:
168,156,188277,2,0,P|200:236|296:248,1,170,8|8,0:0|0:0,0:0:0:0:
316,244,188867,1,8,0:0:0:0:
360,252,188985,2,0,L|396:292,4,42.5,8|8|8|8|4,0:0|0:0|0:0|0:0|0:0,0:0:0:0:
256,192,189576,12,0,192293,0:0:0:0:
