osu file format v9

[General]
AudioFilename: deer in the headlights.mp3
AudioLeadIn: 0
PreviewTime: 41110
Countdown: 1
SampleSet: Soft
StackLeniency: 0.2
Mode: 0
LetterboxInBreaks: 1

[Editor]
DistanceSpacing: 0.7
BeatDivisor: 2
GridSize: 4

[Metadata]
Title:Deer In The Headlights
Artist:Owl City
Creator:Origami_Munchkin
Version:Insane
Source:
Tags:Adam Young All Things Bright Beautiful

[Difficulty]
HPDrainRate:6
CircleSize:4
OverallDifficulty:6
ApproachRate:8
SliderMultiplier:2.4
SliderTickRate:4

[Events]
//Background and Video events
0,0,"BG.jpg"
//Break Periods
2,55042,61360
2,99595,111717
//Storyboard Layer 0 (Background)
//Storyboard Layer 1 (Fail)
//Storyboard Layer 2 (Pass)
//Storyboard Layer 3 (Foreground)
//Storyboard Sound Samples
//Background Colour Transformations
3,100,255,255,255

[TimingPoints]
182,428.571428571429,4,2,0,100,1,0
41324,-100,4,1,0,100,0,1
44110,-100,4,2,0,100,0,1
44324,-100,4,1,0,100,0,1
45396,-100,4,2,0,100,0,1
45610,-100,4,1,0,100,0,1
47539,-100,4,2,0,100,0,1
47753,-100,4,1,0,100,0,1
50110,-100,4,2,0,100,0,1
50324,-100,4,1,0,100,0,1
50539,-100,4,2,0,100,0,1
50753,-100,4,1,0,100,0,1
54182,-100,4,2,0,100,0,1
54396,-100,4,1,0,100,0,1
54610,-100,4,2,0,100,0,1
54824,-100,4,1,0,100,0,1
55039,-100,4,2,0,100,0,0
85896,-100,4,1,0,100,0,1
88682,-100,4,2,0,100,0,1
88896,-100,4,1,0,100,0,1
89967,-100,4,2,0,100,0,1
90182,-100,4,1,0,100,0,1
92110,-100,4,2,0,100,0,1
92324,-100,4,1,0,100,0,1
94682,-100,4,2,0,100,0,1
94896,-100,4,1,0,100,0,1
95110,-100,4,2,0,100,0,1
95324,-100,4,1,0,100,0,1
98753,-100,4,2,0,100,0,1
98967,-100,4,1,0,100,0,1
99182,-100,4,2,0,100,0,1
99396,-100,4,1,0,100,0,1
99610,-100,4,2,0,100,0,0
113324,-100,4,1,0,100,0,1
116110,-100,4,2,0,100,0,1
116324,-100,4,1,0,100,0,1
117396,-100,4,2,0,100,0,1
117610,-100,4,1,0,100,0,1
119539,-100,4,2,0,100,0,1
119753,-100,4,1,0,100,0,1
122110,-100,4,2,0,100,0,1
122324,-100,4,1,0,100,0,1
122539,-100,4,2,0,100,0,1
122753,-100,4,1,0,100,0,1
125967,-100,4,1,0,100,0,1
126182,-100,4,2,0,100,0,1
126396,-100,4,1,0,100,0,1
128753,-100,4,2,0,100,0,1
128967,-100,4,1,0,100,0,1
129824,-100,4,2,0,100,0,1
130253,-100,4,1,0,100,0,1
130682,-100,4,2,0,100,0,1
130896,-100,4,1,0,100,0,1
132396,-100,4,2,0,100,0,1
132610,-100,4,1,0,100,0,1
132824,-100,4,2,0,100,0,1
133039,-100,4,1,0,100,0,1
133253,-100,4,2,0,100,0,1
133467,-100,4,1,0,100,0,1
135182,-100,4,2,0,100,0,1
135396,-100,4,1,0,100,0,1
137110,-100,4,2,0,100,0,0
146753,-100,4,1,0,100,0,0
147182,-100,4,2,0,100,0,0

[Colours]
Combo1 : 234,116,45
Combo2 : 128,0,128
Combo3 : 14,138,231
Combo4 : 224,20,71
Combo5 : 242,231,13
Combo6 : 122,168,15

[HitObjects]
316,252,3824,1,0
256,192,4039,1,0
316,132,4253,1,0
376,192,4467,1,0
196,132,5110,1,0
136,192,5325,1,0
196,252,5539,1,0
256,192,5753,1,0
400,192,6396,6,0,B|400:64,1,120
152,36,7253,1,0
224,76,7467,1,0
256,152,7682,1,0
224,228,7896,1,0
360,36,8539,1,0
288,76,8753,1,0
256,152,8968,1,0
288,228,9182,1,0
48,308,9824,2,0,B|104:348|160:308,2,120
128,160,10682,6,0,B|184:120|240:160,1,120,0|8
296,220,11110,2,0,B|240:260|184:220,1,120,0|0
344,172,11753,1,8
420,132,11967,2,0,B|499:154|544:86|533:30|487:-16|431:-26|363:18|386:98,1,360,0|8
256,372,13253,2,0,B|256:244,2,120,0|8|0
256,204,14110,5,0
192,148,14324,2,0,B|88:52,1,120,8|0
44,124,14753,1,0
204,68,15182,1,8
288,68,15396,2,0,B|408:68,1,120
392,152,15824,1,0
308,152,16039,1,8
60,192,16681,5,0
228,192,17110,1,0
452,192,17539,1,0
392,136,17753,2,0,B|480:48,2,120,8|0|0
172,188,18610,5,8
120,136,18824,2,0,B|32:48,1,120
24,136,19253,2,0,B|112:224,1,120,0|8
268,152,20110,1,0
244,232,20324,1,8
440,72,20967,6,0,B|440:192,1,120,0|8
372,244,21396,2,0,B|372:124,1,120
288,264,22039,1,8
224,320,22253,2,0,B|104:320,1,120
104,236,22682,1,0
164,176,22896,1,8
248,192,23110,1,0
392,284,23539,1,0
392,100,23967,1,0
144,192,24610,6,0,B|120:144|120:112|120:64|168:56|200:56|256:88,1,240,8|0
240,176,25467,2,0,B|336:272,1,120,8|0
416,248,25896,2,0,B|440:296|440:328|440:376|392:384|360:384|304:352,1,240,0|8
152,288,26753,1,0
224,240,26967,1,0
272,168,27182,1,8
256,88,27396,1,0
200,32,27610,1,0
120,8,27824,5,0
48,48,28039,2,0,B|48:120|128:120,1,120,8|0
160,192,28467,1,0
72,192,28682,1,0
160,192,28896,2,0,B|160:256|256:304|328:280|376:176|328:104|272:96|240:96,1,360,8|0
264,32,29753,2,0,B|408:56|440:200|400:328|264:352|208:336|176:296,1,480,8|8
96,192,31039,1,0
176,192,31253,5,0
256,192,31467,2,0,B|376:192,1,120,8|0
464,192,31896,2,0,B|464:264|384:264,1,120
384,344,32324,2,0,B|312:344|312:264,1,120,8|0
224,264,32753,2,0,B|224:192|144:192,2,120,0|0|8
184,336,33396,1,0
264,336,33610,1,0
304,264,33824,5,0
304,176,34039,1,8
344,104,34253,1,0
424,104,34467,1,0
464,176,34682,5,0
456,256,34896,2,0,B|384:256|384:160,1,120,8|0
344,104,35324,2,0,B|344:32|240:32,1,120
264,120,35753,2,0,B|144:120,2,120,8|0|0
104,272,37253,6,0,B|32:272|32:192,2,120,0|0|0
256,192,38110,1,0
408,112,38539,6,0,B|480:112|480:192,2,120
256,192,39182,12,0,40467
256,192,40682,5,0
256,192,40896,1,8
424,192,41324,6,0,B|496:192|496:272,1,120
432,328,41753,2,0,B|360:328|360:248,1,120,8|0
200,192,42396,2,0,B|80:192,1,120,0|8
112,272,42824,1,0
112,112,43253,2,0,B|112:40|192:40,1,120,0|8
312,160,43896,2,0,B|312:232|232:232,1,120
232,312,44324,1,8
320,312,44539,6,0,B|416:224,1,120
336,80,45182,2,0,B|408:80|408:160,2,120,8|0|0
328,160,45824,1,0
248,168,46039,2,0,B|248:240|328:240,1,120,8|0
368,312,46467,1,0
416,240,46682,1,0
368,168,46896,1,8
288,136,47110,1,0
200,136,47324,2,0,B|160:192|200:248,2,120,0|0|8
316,344,48182,6,0,B|188:344,2,120,0|0|8
256,276,48824,1,0
296,112,49253,2,0,B|256:24|209:126,2,120,0|8|0
384,112,49896,1,0
128,112,50110,1,0
356,192,50324,1,8
156,192,50539,1,0
256,112,50753,1,0
256,280,51182,5,8
88,280,51610,2,0,B|16:280|16:200,1,120
104,200,52039,2,0,B|176:200|176:280,1,120,8|0
256,228,52467,1,0
256,144,52682,1,0
336,272,53110,2,0,B|336:200|416:200,1,120
496,200,53539,2,0,B|496:272|416:272,1,120,0|8
416,352,53967,2,0,B|296:352,1,120
256,272,54396,2,0,B|256:152,2,120,0|8|0
332,40,62110,6,0,B|404:40|404:120,1,120,0|8
340,176,62539,2,0,B|268:176|268:96,1,120
256,268,63182,1,8
172,176,63396,2,0,B|244:176|244:96,1,120
180,40,63824,2,0,B|108:40|108:120,1,120,0|8
256,320,64682,5,0
256,236,64896,1,8
32,120,65539,2,0,B|32:48|112:48,1,120,0|8
184,120,65967,2,0,B|184:48|104:48,1,120
108,192,66610,1,8
108,276,66824,2,0,B|108:348|188:348,1,120
108,276,67253,2,0,B|108:348|28:348,1,120,0|8
316,312,68110,2,0,B|316:192,1,120,0|8
316,72,68539,2,0,B|316:192,1,120
164,120,69182,6,0,B|164:192|244:192,1,120,8|0
248,108,69610,1,0
400,36,70039,2,0,B|400:108|320:108,1,120,8|0
324,192,70467,2,0,B|252:192|252:272,2,120,0|0|8
176,272,71324,2,0,B|176:344|96:344,2,120,0|0|8
408,48,72182,6,0,B|336:48|336:128,1,120
420,132,72610,2,0,B|420:204|340:204,1,120,8|0
260,204,73039,2,0,B|188:204|188:124,1,120
108,144,73467,2,0,B|8:148|8:191|-29:285|52:308|133:328|201:260,1,360,8|0
120,220,74324,1,8
266,143,74753,2,0,B|366:147|366:191|403:284|326:307|240:327|172:259,1,360
432,192,76039,6,0,B|360:192|360:112,1,120,8|0
276,104,76467,2,0,B|276:32|356:32,1,120
436,32,76896,2,0,B|508:32|508:112,1,120,8|0
508,192,77324,2,0,B|508:264|428:264,1,120
280,192,77967,1,0
260,24,78396,6,0,B|332:24|332:104,1,120,0|8
248,108,78824,1,0
96,32,79253,2,0,B|168:32|168:112,2,120,0|8|0
84,116,79896,2,0,B|12:116|12:196,1,120
96,200,80324,1,8
120,280,80539,1,0
192,320,80753,5,0
276,328,80967,1,0
356,300,81181,1,8
408,232,81396,1,0
404,148,81610,1,0
336,192,81824,2,0,B|192:192,1,120,0|8
212,108,82253,1,0
212,276,82681,6,0,B|140:276|140:356,2,120,0|8|0
300,276,83324,2,0,B|372:276|372:356,1,120
256,192,83753,12,0,85039
256,192,85253,1,0
256,192,85467,1,8
88,192,85895,6,0,B|16:192|16:112,1,120
80,56,86324,2,0,B|152:56|152:136,1,120,8|0
312,192,86967,2,0,B|432:192,1,120,0|8
400,112,87395,1,0
400,272,87824,2,0,B|400:344|320:344,1,120,0|8
200,224,88467,2,0,B|200:152|280:152,1,120
280,72,88895,1,8
192,72,89110,6,0,B|96:160,1,120
176,304,89753,2,0,B|104:304|104:224,2,120,8|0|0
184,224,90395,1,0
264,216,90610,2,0,B|264:144|184:144,1,120,8|0
144,72,91038,1,0
96,144,91253,1,0
144,216,91467,1,8
224,260,91682,1,0
312,248,91895,2,0,B|352:192|312:136,2,120,0|0|8
196,40,92753,6,0,B|324:40,2,120,0|0|8
256,108,93395,1,0
216,272,93824,2,0,B|256:360|303:258,2,120,0|8|0
128,272,94467,1,0
384,272,94681,1,0
160,192,94895,1,8
352,192,95110,1,0
256,272,95324,1,0
256,104,95753,5,8
424,104,96181,2,0,B|496:104|496:184,1,120
408,184,96610,2,0,B|336:184|336:104,1,120,8|0
256,256,97253,1,0
176,112,97681,2,0,B|176:184|96:184,1,120
16,184,98110,2,0,B|16:112|96:112,1,120,0|8
96,32,98538,2,0,B|216:32,1,120
256,112,98967,2,0,B|256:232,2,120,0|8|0
256,276,112467,5,0
256,236,112574,1,0
256,192,112682,1,0
256,152,112789,1,0
256,112,112896,1,0
424,192,113324,6,0,B|496:192|496:112,1,120
432,56,113753,2,0,B|360:56|360:136,1,120,8|0
200,192,114396,2,0,B|80:192,1,120,0|8
112,112,114824,1,0
112,272,115253,2,0,B|112:344|192:344,1,120,0|8
312,224,115896,2,0,B|312:152|232:152,1,120
232,72,116324,1,8
320,72,116539,6,0,B|416:160,1,120
336,304,117182,2,0,B|408:304|408:224,2,120,8|0|0
328,224,117824,1,0
248,216,118039,2,0,B|248:144|328:144,1,120,8|0
368,72,118467,1,0
416,144,118682,1,0
368,216,118896,1,8
292,252,119110,1,0
208,248,119324,2,0,B|168:192|208:136,2,120,0|0|8
316,40,120182,6,0,B|188:40,2,120,0|0|8
256,108,120824,1,0
296,272,121253,2,0,B|256:360|209:258,2,120,0|8|0
384,272,121896,1,0
128,272,122110,1,0
352,192,122324,1,8
160,192,122539,1,0
256,272,122753,1,0
256,188,122967,1,0
256,104,123182,1,8
340,104,123396,6,0,B|412:104|412:184,2,120
256,104,124039,1,8
104,176,124467,2,0,B|104:104|184:104,2,120,0|0|8
244,272,125324,2,0,B|244:344|164:344,2,120,0|0|8
256,188,125967,2,0,B|328:188|328:268,2,120
172,188,126610,1,8
156,20,127039,6,0,B|84:20|84:100,1,120
144,152,127467,2,0,B|216:152|216:72,1,120,8|0
384,72,128110,1,0
328,136,128324,1,8
348,216,128539,6,0,B|276:216|276:296,1,120
340,348,128967,2,0,B|412:348|412:268,1,120,0|8
480,116,129610,1,0
428,48,129824,1,0
344,32,130039,1,8
260,32,130253,6,0,B|188:32|188:112,1,120
272,116,130681,2,0,B|272:188|192:188,1,120,0|8
40,256,131324,1,0
60,336,131539,1,0
144,336,131753,2,0,B|216:336|216:256,1,120,8|0
228,176,132181,2,0,B|300:176|300:256,1,120
372,176,132610,2,0,B|300:176|300:256,1,120,8|0
348,324,133039,6,0,B|298:374|241:318,1,120
300,252,133467,1,8
60,272,133896,2,0,B|132:272|132:192,1,120
144,112,134324,2,0,B|216:112|216:192,1,120,8|0
452,272,134967,2,0,B|380:272|380:192,1,120,0|8
368,112,135396,2,0,B|296:112|296:192,1,120
256,352,136039,1,8
132,236,136467,1,0
84,168,136681,1,0
164,144,136896,1,8
240,180,137110,6,0,B|240:252|320:252,1,120
332,336,137539,2,0,B|404:336|404:256,1,120,0|8
488,244,137967,2,0,B|488:172|408:172,1,120
328,172,138396,2,0,B|328:100|408:100,1,120,0|8
356,32,138824,1,0
272,32,139039,6,0,B|200:32|200:112,1,120
116,108,139467,2,0,B|44:108|44:188,1,120,8|0
56,268,139896,2,0,B|128:268|128:188,1,120
212,192,140324,1,8
252,264,140539,6,0,B|302:214|359:269,1,120
412,332,140967,2,0,B|361:382|304:326,1,120,0|8
224,352,141396,1,0
224,184,141824,2,0,B|224:256|304:256,1,120,0|8
224,184,142253,2,0,B|224:256|144:256,1,120
80,308,142681,2,0,B|30:258|84:204,1,120,0|8
44,124,143110,1,0
44,40,143324,2,0,B|188:40,1,120
248,40,143753,6,0,B|320:40|320:120,1,120,8|0
236,128,144181,2,0,B|236:200|316:200,1,120
396,216,144610,2,0,B|396:286|316:287,1,120,8|0
256,228,145039,1,0
196,288,145253,2,0,B|126:288|125:208,1,120,0|8
44,200,145681,2,0,B|44:128|124:128,1,120
124,44,146110,2,0,B|268:44,1,120,0|8
256,128,146539,1,0
340,128,146753,5,0
352,168,146860,1,0
344,208,146967,1,0
304,224,147074,1,0
256,212,147181,1,8
256,296,147396,1,0
132,184,147824,6,0,B|60:184|60:104,1,120,0|8
144,100,148253,2,0,B|144:28|224:28,1,120
388,28,148896,1,8
304,40,149110,2,0,B|304:112|384:112,1,120
380,196,149539,2,0,B|452:196|452:276,1,120,0|8
256,116,150396,2,0,B|256:236,2,120,0|8|0
108,192,151253,6,0,B|180:192|180:272,1,120,0|8
96,276,151681,2,0,B|96:348|176:348,1,120
256,204,152324,1,8
268,288,152539,2,0,B|340:288|340:208,1,120
424,200,152967,2,0,B|424:128|344:128,1,120,0|8
264,140,153396,2,0,B|264:212|344:212,1,120
348,128,153824,1,0
428,100,154039,5,8
480,36,154253,1,0
316,208,154681,2,0,B|388:208|388:128,1,120,0|8
316,208,155110,2,0,B|388:208|388:288,1,120
240,208,155753,1,8
228,124,155967,2,0,B|156:124|156:204,1,120
144,284,156396,2,0,B|72:284|72:204,1,120,0|8
256,36,157253,6,0,B|376:36,2,120,0|8|0
204,192,158110,2,0,B|254:242|311:187,1,120,0|8
252,124,158539,2,0,B|201:74|144:130,1,120
308,192,159181,1,8
204,192,159396,1,0
392,192,159610,1,0
120,192,159824,1,0
256,192,160039,12,0,161324
180,40,161539,6,0,B|108:40|108:120,1,120,0|8
172,176,161968,2,0,B|244:176|244:96,1,120
256,268,162611,1,8
340,176,162825,2,0,B|268:176|268:96,1,120
332,40,163253,2,0,B|404:40|404:120,1,120,0|8
256,320,164111,5,0
256,236,164325,1,8
448,72,164968,2,0,B|448:0|368:0,1,120,0|8
296,72,165396,2,0,B|296:0|376:0,1,120
372,168,166039,1,8
372,252,166253,2,0,B|372:324|292:324,1,120
372,252,166682,2,0,B|372:324|452:324,1,120,0|8
460,240,167110,5,0
456,156,167324,1,0
384,112,167539,1,0
312,156,167753,1,8
236,192,167967,1,0
384,112,168396,6,0,B|312:112|312:32,1,120,0|8
228,36,168824,2,0,B|156:36|156:116,1,120
212,272,169467,1,8
248,348,169681,2,0,B|320:348|320:268,1,120
248,196,170110,2,0,B|320:196|320:276,1,120,0|8
256,28,170967,5,0
256,28,171181,1,8
372,256,171824,2,0,B|372:328|292:328,1,120,0|8
220,256,172253,2,0,B|220:328|300:328,1,120
256,192,172896,1,8
224,112,173110,1,0
324,248,173324,1,0
168,192,173539,1,0
324,136,173753,1,8
224,272,173967,1,0
256,192,174396,5,0
