osu file format v9

[General]
AudioFilename: 02 Deer In the Headlights- Owl City.mp3
AudioLeadIn: 0
PreviewTime: 41154
Countdown: 0
SampleSet: Soft
StackLeniency: 0.7
Mode: 0
LetterboxInBreaks: 0

[Editor]
DistanceSpacing: 0.9
BeatDivisor: 4
GridSize: 4

[Metadata]
Title:Deer In The Headlights
Artist:Owl City
Creator:Krisom
Version:Insane
Source:
Tags:Gonzvlo SapphireGhost All Things Bright and Beautiful

[Difficulty]
HPDrainRate:7
CircleSize:5
OverallDifficulty:7
ApproachRate:8
SliderMultiplier:2.1
SliderTickRate:2

[Events]
//Background and Video events
0,0,"DBBG.png"
//Break Periods
2,55741,68062
2,99884,109205
//Storyboard Layer 0 (Background)
//Storyboard Layer 1 (Fail)
//Storyboard Layer 2 (Pass)
//Storyboard Layer 3 (Foreground)
//Storyboard Sound Samples
//Background Colour Transformations
3,100,163,162,255

[TimingPoints]
241,428.571428571429,4,2,1,100,1,0
10633,-100,4,2,0,100,0,0
10848,-100,4,2,1,100,0,0
12348,-100,4,2,0,100,0,0
12562,-100,4,2,1,100,0,0
13205,-100,4,2,0,100,0,0
13848,-100,4,2,1,100,0,0
14062,-100,4,2,0,100,0,0
14276,-100,4,2,1,100,0,0
15776,-100,4,2,0,100,0,0
15991,-100,4,2,1,100,0,0
16633,-100,4,2,0,100,0,0
17276,-100,4,2,1,100,0,0
17491,-100,4,2,0,100,0,0
17705,-100,4,2,1,100,0,0
19205,-100,4,2,0,100,0,0
19419,-100,4,2,1,100,0,0
20062,-100,4,2,0,100,0,0
20276,-100,4,2,1,100,0,0
20919,-100,4,2,0,100,0,0
21133,-100,4,2,1,100,0,0
22633,-100,4,2,0,100,0,0
22848,-100,4,2,1,100,0,0
23491,-100,4,2,0,100,0,0
23705,-100,4,2,1,100,0,0
24133,-100,4,2,1,100,0,0
24455,-117.647058823529,4,2,1,100,0,0
24991,-117.647058823529,4,2,0,100,0,0
25151,-117.647058823529,4,2,1,100,0,0
28419,-117.647058823529,4,2,0,100,0,0
28633,-117.647058823529,4,2,1,100,0,0
31848,-117.647058823529,4,2,0,100,0,0
32008,-117.647058823529,4,2,1,100,0,0
33133,-117.647058823529,4,2,1,85,0,0
33241,-117.647058823529,4,2,1,100,0,0
37633,-153.846153846154,4,2,1,100,0,0
40741,-153.846153846154,4,2,1,85,0,0
40848,-153.846153846154,4,2,1,100,0,0
41383,-100,4,2,1,100,0,1
41491,-100,4,2,0,100,0,1
41705,-100,4,2,1,100,0,1
48348,-100,4,2,0,100,0,1
48562,-100,4,2,1,100,0,1
51776,-100,4,2,0,100,0,1
51991,-100,4,2,1,100,0,1
53491,-100,4,2,0,100,0,1
53705,-100,4,2,1,100,0,1
55098,-100,4,2,1,100,0,0
68383,-117.647058823529,4,2,1,100,0,0
69562,-117.647058823529,4,2,0,100,0,0
69723,-117.647058823529,4,2,1,100,0,0
72991,-117.647058823529,4,2,0,100,0,0
73151,-117.647058823529,4,2,1,100,0,0
75133,-117.647058823529,4,2,0,100,0,0
75294,-117.647058823529,4,2,1,100,0,0
76419,-117.647058823529,4,2,0,100,0,0
76580,-117.647058823529,4,2,1,100,0,0
77705,-117.647058823529,4,2,1,85,0,0
77812,-117.647058823529,4,2,1,100,0,0
79848,-117.647058823529,4,2,0,100,0,0
80062,-117.647058823529,4,2,1,100,0,0
82205,-153.846153846154,4,2,1,100,0,0
85312,-153.846153846154,4,2,1,85,0,0
85419,-153.846153846154,4,2,1,100,0,0
85955,-100,4,2,1,100,0,1
86062,-100,4,2,0,100,0,1
86276,-100,4,2,1,100,0,1
92919,-100,4,2,0,100,0,1
93133,-100,4,2,1,100,0,1
96348,-100,4,2,0,100,0,1
96562,-100,4,2,1,100,0,1
98062,-100,4,2,0,100,0,1
98276,-100,4,2,1,100,0,1
99669,-100,4,2,1,100,0,0
109848,-100,4,2,1,50,0,0
111776,-100,4,2,1,100,0,0
113383,-100,4,2,1,100,0,1
113491,-100,4,2,0,100,0,1
113705,-100,4,2,1,100,0,1
115419,-88.4955752212389,4,2,1,100,0,1
115955,-100,4,2,1,100,0,1
120348,-100,4,2,0,100,0,1
120562,-100,4,2,1,100,0,1
123776,-100,4,2,0,100,0,1
123991,-100,4,2,1,100,0,1
124419,-100,4,2,0,100,0,1
124633,-100,4,2,1,100,0,1
126991,-100,4,2,1,100,0,0
127098,-100,4,2,1,100,0,1
127205,-100,4,2,0,100,0,1
127419,-100,4,2,1,100,0,1
134062,-100,4,2,0,100,0,1
134276,-100,4,2,1,100,0,1
137491,-100,4,2,0,100,0,1
137705,-100,4,2,1,100,0,1
138776,-100,4,2,0,100,0,1
138991,-100,4,2,1,100,0,1
139205,-100,4,2,0,100,0,1
139419,-100,4,2,1,100,0,1
140919,-100,4,2,0,100,0,1
141133,-100,4,2,1,100,0,1
144348,-100,4,2,0,100,0,1
144562,-100,4,2,1,100,0,1
146062,-100,4,2,0,100,0,1
146276,-100,4,2,1,100,0,1
147669,-100,4,2,1,100,0,0
149491,-100,4,2,0,100,0,0
149705,-100,4,2,1,100,0,0
150348,-100,4,2,0,100,0,0
150991,-100,4,2,1,100,0,0
151205,-100,4,2,0,100,0,0
151419,-100,4,2,1,100,0,0
152919,-100,4,2,0,100,0,0
153133,-100,4,2,1,100,0,0
153776,-100,4,2,0,100,0,0
154419,-100,4,2,1,100,0,0
154633,-100,4,2,0,100,0,0
154848,-100,4,2,1,100,0,0
156348,-100,4,2,0,100,0,0
156562,-100,4,2,1,100,0,0
157205,-100,4,2,0,100,0,0
157848,-100,4,2,1,100,0,0
158062,-100,4,2,0,100,0,0
158276,-100,4,2,1,100,0,0
159883,-100,4,2,0,100,0,0
159991,-100,4,2,1,100,0,0
161919,-100,4,2,0,100,0,0
162133,-100,4,2,1,100,0,0
163205,-100,4,2,0,100,0,0
163419,-100,4,2,1,100,0,0
164062,-100,4,2,0,100,0,0
164223,-100,4,2,1,100,0,0
165348,-100,4,2,0,100,0,0
165562,-100,4,2,1,100,0,0
166633,-100,4,2,0,100,0,0
166848,-100,4,2,1,100,0,0
167491,-100,4,2,0,100,0,0
167705,-100,4,2,1,100,0,0
168776,-100,4,2,0,100,0,0
168991,-100,4,2,1,100,0,0
170062,-100,4,2,0,100,0,0
170276,-100,4,2,1,100,0,0
170973,-100,4,2,0,100,0,0
171080,-100,4,2,1,100,0,0
172205,-100,4,2,0,100,0,0
172419,-100,4,2,1,100,0,0
173491,-100,4,2,0,100,0,0
173705,-100,4,2,1,100,0,0
174133,-100,4,2,0,100,0,0

[Colours]
Combo1 : 234,254,255
Combo2 : 231,187,14
Combo3 : 134,146,249
Combo4 : 245,84,37
Combo5 : 37,214,107
Combo6 : 124,124,124

[HitObjects]
148,104,10526,5,2
208,32,10740,1,2
304,32,10955,1,8
364,104,11169,1,2
420,180,11383,2,0,B|368:196|352:268|384:312,1,157.5,2|2
392,320,11812,2,0,B|284:340,1,105,8|2
196,348,12240,1,2
104,324,12455,1,2
12,296,12669,2,0,B|-15:249|3:180|69:154|119:177,1,210,8|2
172,252,13312,2,0,B|188:284|212:260|212:260|232:284|256:252|256:252|280:284|300:260|300:260|324:284|340:252,1,210,2|2
316,348,13955,5,2
408,324,14169,1,2
500,296,14383,1,8
472,204,14598,1,2
444,116,14812,2,0,B|420:56|420:56|324:56,1,157.5,2|2
332,64,15240,2,0,B|300:116|240:96,1,105,8|2
156,56,15669,1,2
68,24,15883,1,2
12,100,16098,2,0,B|68:88|112:120|132:188|84:240,1,210,8|2
16,304,16740,1,2
496,304,17169,1,2
456,216,17383,5,2
340,148,17598,1,2
432,124,17812,1,12
364,240,18026,1,2
328,328,18241,2,0,B|256:384|184:328,1,157.5,2|2
176,336,18669,2,8,B|196:232,1,105,8|2
212,140,19098,1,2
124,108,19312,1,2
36,76,19526,2,0,B|-24:136|16:224,1,157.5,8|2
0,232,19955,1,2
84,280,20169,1,2
96,288,20276,1,2
112,296,20383,2,0,B|180:340|268:288|252:208,1,210,8|2
200,132,21026,5,2
256,56,21241,1,8
312,132,21455,1,2
356,216,21669,2,0,B|396:280|396:280|480:256,1,157.5,2|2
484,268,22098,2,0,B|456:216|504:172,1,105,8|2
444,100,22526,1,2
356,68,22741,1,2
316,152,22955,2,8,B|348:208|416:192,1,105
256,196,23383,2,0,B|248:240|248:240|264:256|264:256|256:292,1,105,2|2
196,152,23812,2,0,B|164:208|96:192,1,105,8|2
256,104,24241,37,4
392,188,24669,1,8
368,264,24883,1,0
336,340,25098,2,0,B|296:380|256:376|216:380|176:340,1,178.4999925524,2|8
144,264,25741,1,0
108,192,25955,2,0,B|96:132|208:108|196:48,1,178.4999925524,2|8
116,52,26598,2,0,B|124:116|196:152|256:100,1,178.4999925524,2|2
316,56,27241,1,8
392,80,27455,1,2
460,208,27669,5,2
408,268,27883,1,0
328,284,28098,1,8
256,248,28312,1,0
184,204,28526,1,2
104,220,28741,1,2
52,280,28955,2,0,B|40:344|124:388|176:340,1,178.4999925524,8|2
208,268,29598,1,2
192,188,29812,2,0,B|164:140|112:152,1,89.2499962762,8|2
256,160,30241,2,0,B|240:128|272:104|256:72,1,89.2499962762,8|2
320,188,30669,2,0,B|348:140|400:152,1,89.2499962762,8|2
456,280,31098,5,2
404,340,31312,1,0
328,316,31526,1,8
312,236,31741,1,0
364,172,31955,2,0,B|372:120|336:72|276:72|244:100,1,178.4999925524,2|8
188,156,32598,1,0
124,208,32812,2,0,B|64:260|4:208,2,133.8749944143,2|2|2
100,132,33669,1,2
136,60,33883,1,2
208,20,34098,2,0,B|268:-12|340:28|336:96,1,178.4999925524,8|2
264,208,34741,5,0
296,280,34955,1,8
376,296,35169,1,0
444,256,35383,1,0
444,176,35598,1,2
384,124,35812,2,0,B|324:152|252:104|264:40,1,178.4999925524,8|2
340,20,36455,1,2
340,20,36669,2,8,B|164:68,1,178.4999925524
128,140,37312,1,2
104,216,37526,1,0
192,308,37741,6,0,B|256:348|320:308,2,136.49999755919,2|8|2
216,244,38812,1,8
256,184,39026,1,2
296,244,39241,1,2
256,192,39455,12,2,40741
256,192,40955,5,8
336,24,41383,5,6
380,108,41598,1,2
424,188,41812,1,8
464,280,42026,2,0,B|475:336|439:384|371:396|327:344,1,210,2|2
256,284,42669,1,8
184,344,42883,2,0,B|140:396|72:384|36:336|48:276,1,210,2|2
80,192,43526,2,0,B|128:164|140:100|100:56,1,157.5,8|2
112,60,43955,2,0,B|152:60|152:60|176:52|176:52|216:52,1,105,2|2
400,60,44383,2,2,B|360:60|360:60|336:52|336:52|296:52,1,105,8|2
392,148,44812,6,0,B|348:96|280:108|244:156|256:212,1,210,2|8
256,308,45455,1,2
256,211,45669,2,0,B|268:156|232:108|164:96|120:148,1,210,2|8
84,236,46312,1,0
56,328,46526,2,0,B|108:392|200:360,1,157.5,2|2
212,352,46955,2,8,B|204:316|204:316|184:312|184:312|176:264,1,105
300,352,47383,2,0,B|308:316|308:316|328:312|328:312|336:264,1,105,2|2
344,172,47812,2,0,B|320:132|256:96|192:132|168:172,1,210,8|2
208,260,48455,5,2
304,260,48669,1,8
392,224,48883,2,0,B|344:172|344:172|384:148|392:88|348:52,1,210,2|2
256,68,49526,1,8
164,84,49740,1,2
72,104,49955,2,0,B|20:148|60:224|120:208,1,157.5,2|2
140,200,50383,2,8,B|148:244|148:244|140:260|140:260|148:304,1,105
240,344,50812,2,0,B|249:300|249:300|263:288|263:288|273:245,1,105,2|2
372,200,51240,2,0,B|364:244|364:244|372:260|372:260|364:304,1,105,8|2
444,252,51669,5,4
480,164,51883,1,2
436,80,52098,1,8
356,32,52312,2,0,B|316:4|256:-4|196:4|156:32,2,210,2|2|0
316,116,53383,1,2
256,192,53598,1,2
196,268,53812,1,8
156,352,54026,2,0,B|196:380|256:388|316:380|356:352,1,210,2|2
316,268,54669,1,8
256,192,54883,1,8
196,116,55098,1,2
256,340,55526,21,4
256,44,68812,5,4
404,104,69240,1,8
452,168,69455,1,0
464,248,69669,2,0,B|408:296|384:252|360:208|304:256,1,178.4999925524,2|8
248,316,70312,1,0
192,372,70526,2,0,B|16:340,1,178.4999925524,2|8
48,268,71169,2,0,B|84:207|169:222|176:296,1,178.4999925524,2|2
192,372,71812,1,8
272,356,72026,1,2
340,244,72240,5,2
376,172,72455,1,0
416,100,72669,2,0,B|324:72,1,89.2499962762,8|0
252,56,73098,2,0,B|220:96|172:80,1,89.2499962762,2|2
116,24,73526,2,0,B|80:200,1,178.4999925524,8|2
64,280,74169,1,2
116,340,74383,2,0,B|156:376|196:340,1,89.2499962762,8|2
295,264,74812,2,0,B|255:228|216:264,1,89.2499962762,8|2
316,340,75240,2,0,B|356:376|396:340,1,89.2499962762,2|2
440,212,75669,6,0,B|380:132|280:168,1,178.4999925524,2|8
240,236,76312,1,0
320,236,76526,2,0,B|400:176|364:76,1,178.4999925524,2|8
296,36,77169,1,0
216,48,77383,2,0,B|84:72,2,133.8749944143,2|2|2
204,128,78240,1,2
260,184,78455,2,0,B|276:252|208:296|144:248,1,178.4999925524,8|2
8,168,79312,6,0,B|-8:104|60:56|124:104,1,178.4999925524,8|2
204,84,79955,1,2
284,100,80169,1,2
360,76,80383,2,0,B|396:264,1,178.4999925524,8|2
420,328,81026,1,2
340,308,81240,2,8,B|256:256|172:308,1,178.4999925524
92,328,81883,1,2
116,252,82098,1,2
192,160,82312,6,0,B|256:120|320:160,2,136.49999755919,2|8|2
216,224,83383,1,8
256,284,83598,1,2
296,224,83812,1,2
256,192,84026,12,2,85312
256,192,85526,5,8
176,24,85955,5,6
132,108,86169,1,2
88,188,86383,1,8
172,228,86598,2,0,B|216:192|288:200|320:256|308:312,1,210,2|2
256,384,87240,1,8
203,310,87455,2,0,B|192:256|224:200|296:192|340:228,1,210,2|2
432,192,88098,2,0,B|384:164|372:100|412:56,1,157.5,8|2
400,60,88526,2,0,B|352:80|352:80|304:60,1,105,2|2
112,60,88955,2,2,B|160:40|160:40|208:60,1,105,8|2
132,148,89383,6,0,B|232:148|232:148|272:148|300:180|292:224,1,210,2|8
256,308,90026,1,2
219,222,90240,2,0,B|211:179|239:147|279:147|279:147|379:147,1,210,2|8
428,236,90883,1,0
456,328,91098,2,0,B|404:392|312:360,1,157.5,2|2
300,352,91526,2,8,B|308:316|308:316|328:312|328:312|336:264,1,105
212,352,91955,2,0,B|204:316|204:316|184:312|184:312|176:264,1,105,2|2
168,172,92383,2,0,B|228:164|256:216|256:216|284:164|344:172,1,210,8|2
348,84,93026,5,2
256,68,93240,1,8
162,53,93455,2,0,B|120:88|128:148|168:172|168:172|120:224,1,210,2|2
208,260,94098,1,8
304,260,94312,1,2
328,352,94526,2,0,B|256:408|184:352,1,157.5,2|2
192,336,94955,2,8,B|180:300|180:300|164:288|164:288|152:244,1,105
256,300,95383,2,0,B|256:192,1,105,2|2
320,336,95812,2,0,B|332:300|332:300|348:288|348:288|360:244,1,105,10|2
344,148,96240,5,4
256,112,96455,1,2
168,148,96669,1,8
84,192,96883,2,0,B|18:211|-31:164|-35:104|6:60,2,210,2|2|0
168,148,97955,1,2
256,112,98169,1,2
344,148,98383,1,8
428,192,98598,2,0,B|493:211|543:164|547:104|505:60,1,210,2|2
416,84,99240,1,8
344,148,99455,1,8
256,112,99669,1,4
256,192,109955,12,2,111669
256,192,112526,21,8
256,192,112633,1,8
256,192,112740,1,2
256,192,112848,1,2
256,192,112955,1,4
164,356,113383,5,4
256,344,113598,1,2
348,356,113812,1,8
428,304,114026,2,0,B|467:265|467:190|399:157|348:174,1,210,2|2
256,192,114669,1,8
165,209,114883,2,0,B|114:226|46:193|46:118|84:80,1,210,2|2
172,28,115526,2,0,B|256:-24|340:28,1,177.97499766621,8|2
328,48,115955,2,0,B|364:96|328:144,1,105,2|2
184,144,116383,2,0,B|148:96|184:48,1,105,8|2
256,96,116812,6,0,B|284:168|244:224|192:232|164:252|180:288,1,210,2|8
256,324,117455,1,2
335,272,117669,2,0,B|336:252|320:232|268:224|228:168|256:96,1,210,2|8
340,48,118312,1,2
428,12,118526,2,0,B|480:68|480:68|480:148,1,157.5,2|2
464,160,118955,2,8,B|416:196|368:160,1,105
208,124,119383,2,0,B|256:88|304:124,1,105,2|2
144,159,119812,2,0,B|96:196|48:160,1,105,8|2
180,232,120240,5,2
256,284,120455,1,2
332,232,120669,1,8
348,140,120883,2,0,B|296:128|256:178|256:178|216:128|164:140,2,210,2|2|2
440,104,121955,2,0,B|492:148|452:224|392:208,1,157.5,2|2
372,200,122383,2,8,B|364:244|364:244|372:260|372:260|364:304,1,105
272,344,122812,2,0,B|263:300|263:300|249:288|249:288|239:245,1,105,2|2
140,200,123240,2,0,B|148:244|148:244|140:260|140:260|148:304,1,105,8|2
68,252,123669,5,2
32,164,123883,1,2
76,80,124098,1,8
436,80,124526,1,2
480,164,124740,1,2
444,252,124955,1,8
360,292,125169,1,2
308,212,125383,2,0,B|256:192|204:212,1,105,2|2
152,292,125812,1,8
152,292,126026,1,8
204,372,126240,2,0,B|256:392|308:372,1,105,2|2
360,292,126669,1,8
256,20,127098,37,4
164,48,127312,1,2
116,128,127526,1,8
164,208,127740,2,0,B|204:256|256:220|256:208|256:196|308:160|348:208,1,210,2|2
404,284,128383,1,8
352,364,128598,2,0,B|400:396|476:384|504:320|500:276,1,210,2|2
444,204,129240,2,0,B|312:292,1,157.5,8|2
316,312,129669,2,0,B|268:348|220:312,1,105,2|2
112,360,130098,2,0,B|104:300|160:276,1,105,8|2
80,192,130526,6,0,B|104:144|196:132|232:196|220:244,1,210,2|8
256,332,131169,1,2
292,244,131383,2,0,B|280:196|316:132|408:144|432:192,1,210,2|8
468,276,132026,1,2
428,364,132240,2,0,B|392:324|392:324|344:336,1,105,2|2
212,284,132669,2,0,B|256:312|256:312|300:284,1,105,8|8
169,336,133098,2,0,B|120:324|120:324|84:364,1,105,2|2
44,276,133526,1,8
168,132,133955,5,2
256,100,134169,1,2
344,132,134383,1,8
344,228,134598,2,0,B|320:268|256:304|192:268|168:228,1,210,2|2
256,192,135240,1,8
256,192,135455,1,2
328,132,135669,2,0,B|292:96|220:96|184:132,1,157.5,2|2
196,160,136098,2,0,B|156:160|156:160|132:176|132:176|84:176,1,105,8|8
256,192,136526,2,0,B|284:232|240:256|256:292,1,105,2|2
316,160,136955,2,0,B|356:160|356:160|380:176|380:176|428:176,1,105,8|2
492,232,137383,5,4
456,320,137598,1,2
372,364,137812,1,8
348,272,138026,2,0,B|308:224|256:260|256:272|256:284|204:320|164:272,2,210,2|2|2
428,220,139098,1,2
372,144,139312,1,2
324,64,139526,2,0,B|372:20|372:20|464:20,1,157.5,8|2
476,32,139955,2,0,B|516:80|480:128,1,105,2|2
416,228,140383,2,0,B|376:180|412:132,1,105,8|2
348,280,140812,37,4
256,304,141026,1,2
164,328,141240,1,8
72,348,141455,2,0,B|8:376|-44:336|-44:264|16:236,1,210,2|2
108,212,142098,1,8
200,188,142312,2,0,B|259:160|259:88|207:48|143:76,1,210,2|2
56,112,142955,2,0,B|-8:148|-8:148|-8:236,1,157.5,8|2
8,260,143383,2,0,B|56:292|108:260,1,105,8|2
256,304,143812,2,0,B|208:272|156:304,1,105,8|2
308,248,144240,5,4
380,184,144455,1,2
448,116,144669,1,8
368,64,144883,2,0,B|292:33|216:101|247:177,1,210,2|2
256,268,145526,1,8
304,348,145741,1,0
208,348,145955,5,2
256,268,146169,1,2
304,188,146383,1,8
208,188,146598,1,2
172,100,146812,1,8
208,72,146919,1,8
256,64,147026,1,2
304,72,147133,1,2
340,100,147241,1,8
256,148,147455,1,8
256,148,147669,1,2
256,336,148098,5,12
168,300,148312,1,2
80,264,148526,2,0,B|20:280|-24:216|8:164,1,157.5,2|2
28,172,148955,2,0,B|40:132|40:132|56:128|56:128|68:84,1,105,8|2
160,64,149383,1,2
256,56,149598,1,2
352,48,149812,2,0,B|400:44|400:44|452:68|460:144|384:160,1,210,8|2
340,244,150455,2,0,B|324:276|300:252|300:252|280:276|256:244|256:244|232:276|212:252|212:252|188:276|172:244,1,210,2|2
128,160,151098,37,2
208,96,151312,1,2
304,96,151526,1,8
384,160,151741,1,2
416,248,151955,2,0,B|324:248|324:248|296:308,1,157.5,2|2
288,320,152383,2,0,B|256:272|196:292,1,105,8|2
104,320,152812,1,2
68,232,153026,1,2
32,144,153241,2,0,B|88:156|132:124|152:56|104:4,1,210,8|2
28,60,153883,1,2
484,60,154312,1,2
472,152,154526,5,2
360,224,154741,1,2
452,244,154955,1,12
380,132,155169,1,2
328,52,155383,2,0,B|304:28|256:12|208:28|184:52,1,157.5,2|2
192,80,155812,2,0,B|88:96,1,105,8|2
20,160,156241,1,2
60,244,156455,1,2
148,208,156669,2,0,B|216:148|304:220|256:296,1,210,8|0
168,332,157312,2,0,B|100:392|12:320|60:244,1,210,2|2
20,160,157955,5,0
92,100,158169,1,2
184,100,158383,1,8
256,40,158598,1,2
352,40,158812,2,0,B|448:40|448:40|492:84,1,157.5,2|2
504,116,159241,2,0,B|464:160|408:136,1,105,8|2
280,212,159669,2,0,B|320:168|376:192,1,105,2|2
332,276,160098,2,0,B|276:284|276:284|240:300|240:300|180:312,1,157.5,8|2
152,316,160526,2,0,B|112:260|124:196|208:172|256:192|300:212|388:188|400:124|360:68,1,420,2|2
168,120,161812,5,12
256,152,162026,1,2
344,120,162241,2,0,B|404:152|404:152|404:240,1,157.5,2|2
412,256,162669,2,0,B|376:304|316:280,1,105,8|2
236,328,163098,1,2
144,308,163312,1,2
52,288,163526,2,0,B|52:236|52:236|52:172|112:160,1,157.5,8|2
124,176,163955,1,2
216,156,164169,1,2
240,148,164276,1,2
264,140,164383,2,0,B|320:120|368:176|340:232|340:232|380:276,1,210,8|2
444,340,165026,37,2
504,268,165241,1,8
468,180,165455,1,2
500,92,165669,2,0,B|508:28|436:-4|392:32,1,157.5,2|2
380,48,166098,2,0,B|348:80|348:80|288:80,1,105,8|2
204,36,166526,1,2
120,80,166741,1,2
108,172,166955,1,8
176,236,167169,1,8
256,192,167383,1,2
336,148,167598,1,2
404,212,167812,1,8
392,304,168026,1,2
308,348,168241,5,2
308,348,168669,1,12
216,332,168883,1,2
124,308,169098,2,0,B|124:240|124:240|124:208|100:184|64:184,1,157.5,2|2
48,176,169526,2,0,B|88:144|88:144|88:88,1,105,8|2
168,40,169955,1,2
256,68,170169,1,2
344,96,170383,2,0,B|396:132|376:208|308:204,1,157.5,8|2
296,224,170812,1,2
208,256,171026,1,2
184,268,171133,1,2
160,280,171241,2,0,B|80:323|10:233|74:169,1,210,8|2
136,100,171883,5,2
208,36,172098,1,8
304,36,172312,1,2
376,100,172526,2,0,B|424:100|424:100|488:100|508:156,1,157.5,2|2
500,184,172955,2,0,B|444:184|444:184|408:220,1,105,8|2
392,312,173383,1,2
304,348,173598,1,2
208,348,173812,1,8
120,312,174026,1,2
120,312,174455,1,4
