osu file format v12

[General]
AudioFilename: 14 Butterfly Wings.mp3
AudioLeadIn: 0
PreviewTime: 128115
Countdown: 0
SampleSet: Soft
StackLeniency: 0.7
Mode: 0
LetterboxInBreaks: 0
WidescreenStoryboard: 0

[Editor]
DistanceSpacing: 0.9
BeatDivisor: 4
GridSize: 4
TimelineZoom: 1

[Metadata]
Title:Butterfly Wings
TitleUnicode:Butterfly Wings
Artist:Owl City
ArtistUnicode:Owl City
Creator:JauiPlaY
Version:Normal
Source:
Tags:ocean eyes deluxe edition adam young
BeatmapID:251755
BeatmapSetID:93274

[Difficulty]
HPDrainRate:3
CircleSize:3
OverallDifficulty:3
ApproachRate:4
SliderMultiplier:1.2
SliderTickRate:1

[Events]
//Background and Video events
0,0,"0dcc5531009fd4f5b5cac6825def2a58.jpg",0,0
//Break Periods
2,44315,54545
2,72315,77545
//Storyboard Layer 0 (Background)
//Storyboard Layer 1 (Fail)
//Storyboard Layer 2 (Pass)
//Storyboard Layer 3 (Foreground)
//Storyboard Sound Samples
//Background Colour Transformations
3,100,255,255,255

[TimingPoints]
115,500,4,2,1,85,1,0
44115,-100,4,2,1,5,0,0
55865,-100,4,2,2,85,0,0
78865,-100,4,2,1,85,0,0
82115,-100,4,2,1,85,0,1
82240,-100,4,2,1,85,0,0
112115,-100,4,2,3,90,0,1
127990,-100,4,2,3,90,0,0
128115,-100,4,2,3,90,0,1
143990,-100,4,2,3,90,0,0
144115,-100,4,2,3,90,0,1
144240,-100,4,2,3,90,0,0
156115,535.714285714286,4,2,3,90,1,0
157186,555.555555555556,4,2,3,90,1,0
158297,606.060606060606,4,2,3,90,1,0
159509,638.297872340426,4,2,3,90,1,0

[Colours]
Combo1 : 192,192,192
Combo2 : 255,96,96
Combo3 : 255,255,47
Combo4 : 146,255,47
Combo5 : 128,255,255
Combo6 : 181,81,255
Combo7 : 255,128,192

[HitObjects]
322,226,6865,6,0,P|253:275|186:221,1,180
200,116,8115,2,0,B|232:108|256:96|256:96|280:108|312:116,1,120,8|0,0:0|0:0,0:0:0:0:
456,192,9365,2,0,P|448:236|432:260,1,60,0|8,0:0|0:0,0:0:0:0:
335,274,10115,6,0,P|253:311|175:268,1,180,8|0,0:0|0:0,0:0:0:0:
71,248,11365,2,0,P|64:236|56:192,1,60,0|8,0:0|0:0,0:0:0:0:
124,108,12115,6,0,P|185:90|200:34,1,120,8|0,0:0|0:0,0:0:0:0:
310,40,13115,2,0,P|327:90|388:108,1,120,0|8,0:0|0:0,0:0:0:0:
360,212,14115,5,8,0:0:0:0:
344,320,14615,2,0,B|280:316|256:252|256:252|228:316|164:320,1,240,0|8,0:0|0:0,0:0:0:0:
152,212,16115,5,8,0:0:0:0:
176,108,16615,2,0,L|212:36,1,60
309,54,17365,2,0,L|336:108,1,60,0|8,0:0|0:0,0:0:0:0:
344,215,18115,6,0,P|255:190|169:215,1,180,8|0,0:0|0:0,0:0:0:0:
200,320,19365,2,0,P|256:340|312:320,1,120
336,272,20115,6,0,B|312:176|232:168|208:72,1,240,8|0,0:0|0:0,0:0:0:0:
152,168,21615,1,8,0:0:0:0:
176,272,22115,6,0,B|200:176|280:168|304:72,1,240,8|0,0:0|0:0,0:0:0:0:
360,168,23615,1,8,0:0:0:0:
440,240,24115,6,0,P|399:285|346:319,1,120,8|0,0:0|0:0,0:0:0:0:
256,376,25115,1,0,0:0:0:0:
256,272,25615,2,0,L|256:184,2,60,8|0|4,0:0|0:0|0:0,0:0:0:0:
161,317,26615,6,0,P|112:285|72:240,1,120
152,168,27615,1,8,0:0:0:0:
168,64,28115,6,0,B|200:24|256:116|256:116|312:24|344:64,1,240,8|0,0:0|0:0,0:0:0:0:
360,168,29615,1,8,0:0:0:0:
256,208,30115,2,0,B|256:248|240:280|240:280|272:280|272:280|256:312|256:352,2,180,8|0|8,0:0|0:0|0:0,0:0:0:0:
148,216,32115,6,0,P|111:162|50:131,1,120,8|0,0:0|0:0,0:0:0:0:
92,32,33115,2,0,P|164:36|208:68,1,120,0|8,0:0|0:0,0:0:0:0:
309,61,34115,6,0,P|348:36|420:32,1,120,8|0,0:0|0:0,0:0:0:0:
440,136,35115,2,0,P|393:163|357:217,1,120,0|8,0:0|0:0,0:0:0:0:
432,300,36115,5,8,0:0:0:0:
328,328,36615,2,0,P|216:264|212:164,1,240,0|8,0:0|0:0,0:0:0:0:
256,64,38115,5,8,0:0:0:0:
300,164,38615,2,0,P|296:264|184:328,1,240,0|8,0:0|0:0,0:0:0:0:
80,300,40115,1,4,0:0:0:0:
256,192,40240,12,0,44115,0:0:0:0:
256,192,55865,6,0,L|256:280,1,60,0|4,0:0|0:0,0:0:0:0:
360,220,56615,1,8,0:0:0:0:
360,220,56865,2,0,B|360:176|360:176|352:128|308:108,1,120
192,114,57865,1,0,0:0:0:0:
192,114,58115,6,0,B|160:128|152:176|152:176|152:220,1,120,0|8,0:0|0:0,0:0:0:0:
200,316,59115,2,0,B|232:324|256:336|256:336|280:324|312:316,1,120,0|8,0:0|0:0,0:0:0:0:
392,256,60115,6,0,P|432:200|456:136,1,120,0|8,0:0|0:0,0:0:0:0:
392,64,61115,1,0,0:0:0:0:
310,132,61615,1,8,0:0:0:0:
201,132,62115,5,0,0:0:0:0:
120,64,62615,1,8,0:0:0:0:
60,152,63115,2,0,P|80:200|120:256,1,120,0|2,0:0|0:0,0:0:0:0:
178,347,64115,5,0,0:0:0:0:
256,272,64615,2,0,P|356:278|316:186,1,240,8|8,0:0|0:0,0:0:0:0:
256,96,66115,5,0,0:0:0:0:
195,186,66615,2,0,P|155:278|256:272,1,240,8|8,0:0|0:0,0:0:0:0:
334,347,68115,5,0,0:0:0:0:
368,244,68615,2,0,L|428:216,1,60,8|0,0:0|0:0,0:0:0:0:
376,120,69365,2,0,L|321:145,1,60,0|8,0:0|0:0,0:0:0:0:
256,60,70115,5,0,0:0:0:0:
190,145,70615,2,0,L|136:120,1,60,8|0,0:0|0:0,0:0:0:0:
89,218,71365,2,0,L|144:244,1,60,0|2,0:0|0:0,0:0:0:0:
178,347,72115,5,4,0:0:0:0:
200,156,78865,5,0,0:0:0:0:
200,156,79115,2,0,P|256:136|312:156,1,120
300,264,80115,2,0,P|256:272|212:264,2,90,8|0|0,0:0|0:0|0:0,0:0:0:0:
256,164,81365,2,0,L|256:104,1,60,0|0,0:0|0:0,0:0:0:0:
360,168,82115,6,0,B|360:212|360:212|352:260|308:280,1,120,4|0,0:0|0:0,0:0:0:0:
192,273,83115,2,0,B|159:259|151:211|151:211|151:167,1,120,0|8,0:0|0:0,0:0:0:0:
256,144,84115,2,0,L|256:328,2,180,8|0|8,0:0|0:0|0:0,0:0:0:0:
152,172,86115,5,8,0:0:0:0:
168,64,86615,2,0,B|232:68|256:132|256:132|284:68|348:64,1,240,0|8,0:0|0:0,0:0:0:0:
360,172,88115,5,8,0:0:0:0:
336,276,88615,2,0,L|300:348,1,60
203,330,89365,2,0,L|176:276,1,60,0|8,0:0|0:0,0:0:0:0:
256,204,90115,5,8,0:0:0:0:
348,148,90615,1,0,0:0:0:0:
312,48,91115,2,0,B|264:56|256:40|256:40|248:56|200:48,1,120,0|8,0:0|0:0,0:0:0:0:
164,148,92115,5,8,0:0:0:0:
164,148,92615,2,0,B|188:244|268:252|292:348,1,240,0|8,0:0|0:0,0:0:0:0:
348,256,94115,5,8,0:0:0:0:
348,148,94615,2,0,B|324:244|244:252|220:348,1,240,0|8,0:0|0:0,0:0:0:0:
164,256,96115,5,8,0:0:0:0:
256,196,96615,1,0,0:0:0:0:
256,88,97115,2,0,L|256:16,2,60,2|2|0,0:0|0:0|0:0,0:0:0:0:
164,144,98115,5,4,0:0:0:0:
256,196,98615,1,0,0:0:0:0:
348,144,99115,1,0,0:0:0:0:
360,248,99615,1,8,0:0:0:0:
344,352,100115,6,0,B|312:392|256:300|256:300|200:392|168:352,1,240,8|0,0:0|0:0,0:0:0:0:
152,248,101615,1,8,0:0:0:0:
256,208,102115,2,0,B|256:168|272:136|272:136|240:136|240:136|256:104|256:64,2,180,8|0|8,0:0|0:0|0:0,0:0:0:0:
364,200,104115,6,0,P|414:231|447:280,1,120,8|0,0:0|0:0,0:0:0:0:
372,360,105115,1,0,0:0:0:0:
308,272,105615,1,8,0:0:0:0:
204,272,106115,5,8,0:0:0:0:
140,360,106615,1,0,0:0:0:0:
64,280,107115,2,0,P|97:231|148:200,1,120,0|8,0:0|0:0,0:0:0:0:
80,116,108115,5,8,0:0:0:0:
184,88,108615,2,0,P|296:152|300:252,1,240,0|8,0:0|0:0,0:0:0:0:
256,352,110115,5,8,0:0:0:0:
212,252,110615,2,0,P|216:152|328:88,1,240
432,116,112115,5,4,0:0:0:0:
376,208,112615,1,8,0:0:0:0:
311,294,113115,2,0,P|256:314|199:292,1,120,0|8,0:0|0:0,0:0:0:0:
136,208,114115,5,2,0:0:0:0:
200,120,114615,1,8,0:0:0:0:
300,68,115115,2,0,P|256:60|212:68,2,90,0|8|8,0:0|0:0|0:0,0:0:0:0:
312,120,116115,5,2,0:0:0:0:
256,212,116615,1,8,0:0:0:0:
212,312,117115,2,0,P|256:320|300:312,2,90,0|8|8,0:0|0:0|0:0,0:0:0:0:
176,272,118115,6,0,P|196:204|200:136,1,120,2|8,0:0|0:0,0:0:0:0:
311,155,119115,2,0,P|316:204|336:272,1,120,0|8,0:0|0:0,0:0:0:0:
432,224,120115,5,2,0:0:0:0:
404,328,120615,2,0,P|280:304|200:228,1,240,8|8,0:0|0:0,0:0:0:0:
256,136,122115,5,2,0:0:0:0:
312,228,122615,2,0,P|232:304|108:328,1,240,8|8,0:0|0:0,0:0:0:0:
80,224,124115,5,2,0:0:0:0:
164,156,124615,2,0,B|166:122|166:122|208:97|202:40,1,120,8|0,0:0|0:0,0:0:0:0:
308,49,125615,2,0,B|303:97|345:122|345:122|348:156,1,120,8|2,0:0|0:0,0:0:0:0:
308,252,126615,6,0,B|320:276|344:300|344:300|320:324|308:348,1,120,8|0,0:0|0:0,0:0:0:0:
204,348,127615,2,0,B|192:324|168:300|168:300|192:276|204:252,1,120,8|4,0:0|0:0,0:0:0:0:
136,176,128615,5,8,0:0:0:0:
201,90,129115,2,0,P|255:70|311:90,1,120,0|8,0:0|0:0,0:0:0:0:
376,176,130115,5,2,0:0:0:0:
312,264,130615,1,8,0:0:0:0:
212,316,131115,2,0,P|256:324|300:316,2,90,0|8|8,0:0|0:0|0:0,0:0:0:0:
200,264,132115,5,2,0:0:0:0:
256,172,132615,1,8,0:0:0:0:
300,72,133115,2,0,P|256:64|212:72,2,90,0|8|8,0:0|0:0|0:0,0:0:0:0:
336,112,134115,6,0,P|316:180|312:248,1,120,2|8,0:0|0:0,0:0:0:0:
200,228,135115,2,0,P|196:180|176:112,1,120,0|8,0:0|0:0,0:0:0:0:
80,160,136115,5,2,0:0:0:0:
108,56,136615,2,0,P|232:80|312:156,1,240,8|8,0:0|0:0,0:0:0:0:
256,248,138115,5,2,0:0:0:0:
200,156,138615,2,0,P|280:80|404:56,1,240
432,160,140115,5,2,0:0:0:0:
400,264,140615,2,0,P|364:312|288:344,1,120,8|0,0:0|0:0,0:0:0:0:
200,339,141615,2,0,P|147:311|112:264,1,120,8|0,0:0|0:0,0:0:0:0:
156,164,142615,6,0,P|256:108|356:164,1,240,8|8,0:0|0:0,0:0:0:0:
256,224,144115,1,4,0:0:0:0:
