osu file format v12

[General]
AudioFilename: 14 Butterfly Wings.mp3
AudioLeadIn: 0
PreviewTime: 128115
Countdown: 0
SampleSet: Soft
StackLeniency: 0.7
Mode: 0
LetterboxInBreaks: 0
WidescreenStoryboard: 0

[Editor]
Bookmarks: 26115,40115,56115,72115,82115,98115,111115,112115,128115,144115
DistanceSpacing: 1.1
BeatDivisor: 4
GridSize: 4
TimelineZoom: 1.6

[Metadata]
Title:Butterfly Wings
TitleUnicode:Butterfly Wings
Artist:Owl City
ArtistUnicode:Owl City
Creator:JauiPlaY
Version:Insane
Source:
Tags:ocean eyes deluxe edition adam young
BeatmapID:251754
BeatmapSetID:93274

[Difficulty]
HPDrainRate:6
CircleSize:4
OverallDifficulty:7
ApproachRate:8
SliderMultiplier:2
SliderTickRate:1

[Events]
//Background and Video events
0,0,"0dcc5531009fd4f5b5cac6825def2a58.jpg",0,0
//Break Periods
2,44315,55115
2,72315,78115
//Storyboard Layer 0 (Background)
//Storyboard Layer 1 (Fail)
//Storyboard Layer 2 (Pass)
//Storyboard Layer 3 (Foreground)
//Storyboard Sound Samples
//Background Colour Transformations
3,100,255,255,255

[TimingPoints]
115,500,4,2,1,85,1,0
25615,-66.6666666666667,4,3,1,85,0,0
25740,-100,4,2,1,85,0,0
27115,-66.6666666666667,4,2,1,85,0,0
27240,-100,4,2,1,85,0,0
44115,-100,4,2,1,5,0,0
55865,-100,4,2,2,85,0,0
68490,-100,4,2,2,100,0,0
68615,-100,4,2,2,85,0,0
78865,-100,4,2,1,85,0,0
82115,-100,4,2,1,85,0,1
82240,-100,4,2,1,85,0,0
96115,-66.6666666666667,4,2,1,85,0,0
96615,-100,4,2,1,85,0,0
112115,-100,4,2,3,90,0,1
127990,-100,4,2,3,90,0,0
128115,-100,4,2,3,90,0,1
143990,-100,4,2,3,90,0,0
144115,-100,4,2,3,90,0,1
144240,-100,4,2,3,90,0,0
156115,535.714285714286,4,2,3,90,1,0
157186,555.555555555556,4,2,3,90,1,0
158297,606.060606060606,4,2,3,90,1,0
159509,638.297872340426,4,2,3,90,1,0

[Colours]
Combo1 : 192,192,192
Combo2 : 255,96,96
Combo3 : 255,255,47
Combo4 : 146,255,47
Combo5 : 128,255,255
Combo6 : 181,81,255
Combo7 : 255,128,192

[HitObjects]
256,192,6865,5,0,0:0:0:0:
256,192,6990,1,0,0:0:0:0:
256,192,7115,2,0,P|292:264|340:292,1,100,0|2,0:0|0:0,0:0:0:0:
328,320,7490,2,0,P|341:308|377:236,1,100,0|0,0:0|0:0,0:0:0:0:
377,236,7865,1,2,0:0:0:0:
452,168,8115,6,0,P|380:132|304:172,1,150,8|0,0:0|0:0,0:0:0:0:
256,192,8615,2,0,P|192:192|144:180,1,100,0|8,0:0|0:0,0:0:0:0:
157,184,9365,1,0,0:0:0:0:
144,284,9615,1,2,0:0:0:0:
96,104,9990,5,0,0:0:0:0:
32,160,10115,2,0,P|24:188|24:216,1,50,8|0,0:0|0:0,0:0:0:0:
52,332,10365,2,0,P|60:304|60:276,1,50
144,284,10615,6,0,P|196:276|260:284,1,100,0|0,0:0|0:0,0:0:0:0:
380,340,11240,2,0,P|332:336|304:328,1,50
468,248,11615,2,0,P|423:265|394:270,1,50,0|0,0:0|0:0,0:0:0:0:
472,128,11990,2,0,P|439:163|415:180,1,50,0|8,0:0|0:0,0:0:0:0:
388,80,12365,5,0,0:0:0:0:
388,80,12490,1,0,0:0:0:0:
388,80,12615,2,0,P|320:69|271:21,1,100,0|8,0:0|0:0,0:0:0:0:
202,88,13115,2,0,P|202:152|208:188,1,100
309,295,13490,2,0,P|309:231|304:196,1,100,2|0,0:0|0:0,0:0:0:0:
202,88,13865,1,2,0:0:0:0:
202,88,14115,5,8,0:0:0:0:
193,290,14490,1,0,0:0:0:0:
372,197,14865,1,0,0:0:0:0:
372,197,14990,1,0,0:0:0:0:
372,197,15115,2,0,P|304:172|252:188,1,100,0|2,0:0|0:0,0:0:0:0:
216,220,15490,2,0,P|190:223|122:198,1,100,0|0,0:0|0:0,0:0:0:0:
64,152,15865,1,2,0:0:0:0:
128,76,16115,6,0,P|156:160|116:236,1,150,8|0,0:0|0:0,0:0:0:0:
92,240,16615,2,0,P|100:296|132:344,1,100,0|8,0:0|0:0,0:0:0:0:
182,261,17365,1,0,0:0:0:0:
312,344,17615,1,2,0:0:0:0:
312,344,17990,1,0,0:0:0:0:
272,268,18115,6,0,L|268:212,1,50,8|0,0:0|0:0,0:0:0:0:
320,104,18365,2,0,L|323:153,1,50
256,48,18615,2,0,P|304:20|346:23,1,100,0|0,0:0|0:0,0:0:0:0:
448,120,19240,1,0,0:0:0:0:
448,120,19365,2,0,P|435:161|419:185,2,50,0|0|0,0:0|0:0|0:0,0:0:0:0:
488,28,19865,1,0,0:0:0:0:
388,44,20115,5,8,0:0:0:0:
276,188,20490,1,0,0:0:0:0:
460,216,20865,1,0,0:0:0:0:
376,184,21115,5,8,0:0:0:0:
180,120,21490,1,0,0:0:0:0:
220,312,21865,1,0,0:0:0:0:
276,188,22115,5,8,0:0:0:0:
76,148,22490,1,0,0:0:0:0:
204,24,22865,1,0,0:0:0:0:
180,120,23115,2,0,B|168:160|168:160|148:180|144:220,1,100,0|2,0:0|0:0,0:0:0:0:
28,332,23490,2,0,B|40:292|40:292|60:272|64:232,1,100,0|0,0:0|0:0,0:0:0:0:
76,148,23865,1,2,0:0:0:0:
144,212,24115,6,0,B|176:220|176:220|224:252|296:248,1,150,8|0,0:0|0:0,0:0:0:0:
437,332,24615,2,0,P|376:309|324:309,1,100,0|8,0:0|0:0,0:0:0:0:
342,307,25365,2,0,P|304:332|287:337,1,50
252,340,25615,6,0,L|248:364,4,18.7500007152558,0|0|0|0|0,0:0|0:0|0:0|0:0|0:0,0:0:0:0:
216,308,25865,2,0,P|203:265|193:250,1,50
144,212,26115,6,0,B|76:248|76:296|76:296|92:344,1,150,4|0,0:0|0:0,0:0:0:0:
220,188,26615,2,0,P|184:144|124:128,1,100,0|8,0:0|0:0,0:0:0:0:
44,148,27115,2,0,L|23:160,4,18.7500007152558,0|0|0|0|0,0:0|0:0|0:0|0:0|0:0,0:0:0:0:
60,100,27365,2,0,P|83:64|107:45,1,50
128,32,27615,2,0,P|192:48|260:36,1,100,0|0,0:0|0:0,0:0:0:0:
324,36,28115,5,8,0:0:0:0:
416,120,28365,2,0,P|416:86|425:59,2,50,0|0|0,0:0|0:0|0:0,0:0:0:0:
488,200,28865,2,0,P|488:234|479:261,2,50,8|0|0,0:0|0:0|0:0,0:0:0:0:
432,340,29365,1,0,0:0:0:0:
352,280,29615,2,0,P|264:296|200:340,1,150,2|0,0:0|0:0,0:0:0:0:
215,328,30115,5,8,0:0:0:0:
110,221,30490,1,0,0:0:0:0:
70,366,30865,1,8,0:0:0:0:
110,297,31115,5,0,0:0:0:0:
80,292,31240,1,0,0:0:0:0:
55,275,31365,1,2,0:0:0:0:
38,250,31490,1,0,0:0:0:0:
33,221,31615,1,0,0:0:0:0:
38,191,31740,1,0,0:0:0:0:
55,166,31865,1,2,0:0:0:0:
38,67,32115,6,0,P|147:39|197:58,1,150,8|0,0:0|0:0,0:0:0:0:
204,92,32615,2,0,P|214:148|246:187,1,100,0|8,0:0|0:0,0:0:0:0:
313,218,32990,2,0,P|363:193|418:193,1,100
315,300,33365,2,0,P|265:325|210:325,1,100,0|2,0:0|0:0,0:0:0:0:
152,254,33865,1,0,0:0:0:0:
278,124,34115,5,8,0:0:0:0:
222,327,34490,1,0,0:0:0:0:
74,175,34865,1,8,0:0:0:0:
180,147,35115,6,0,L|143:100,2,50
152,254,35615,1,0,0:0:0:0:
74,175,35865,1,0,0:0:0:0:
74,175,35990,1,0,0:0:0:0:
74,175,36115,5,8,0:0:0:0:
129,80,36365,1,0,0:0:0:0:
129,80,36490,2,0,P|181:66|241:88,1,100,0|0,0:0|0:0,0:0:0:0:
242,199,36865,2,0,P|285:210|337:196,1,100,8|0,0:0|0:0,0:0:0:0:
322,143,37240,2,0,P|322:112|333:83,1,50,0|0,0:0|0:0,0:0:0:0:
443,58,37615,6,0,P|466:37|495:26,1,50,2|2,0:0|0:0,0:0:0:0:
446,135,37865,2,0,P|422:155|393:166,1,50,0|2,0:0|0:0,0:0:0:0:
381,238,38115,6,0,P|445:290|484:303,1,100,8|0,0:0|0:0,0:0:0:0:
348,314,38490,2,0,P|270:344|239:371,1,100,0|0,0:0|0:0,0:0:0:0:
298,247,38865,2,0,P|310:164|302:124,1,100,8|0,0:0|0:0,0:0:0:0:
115,69,39365,1,2,0:0:0:0:
115,69,39490,2,0,P|123:103|140:128,1,50
225,76,39865,1,2,0:0:0:0:
22,127,40115,1,4,0:0:0:0:
256,192,40240,12,0,44115,0:0:0:0:
256,192,55865,5,0,0:0:0:0:
256,192,55990,1,0,0:0:0:0:
256,192,56115,2,0,P|264:272|256:344,1,150,4|0,0:0|0:0,0:0:0:0:
184,316,56615,2,0,B|172:268|172:268|168:244|176:196,1,100,8|0,0:0|0:0,0:0:0:0:
328,68,57115,2,0,B|340:116|340:116|344:140|336:188,1,100,0|0,0:0|0:0,0:0:0:0:
173,217,57615,1,8,0:0:0:0:
92,292,57865,2,0,P|66:311|41:323,1,50
20,240,58115,6,0,P|78:179|74:90,1,150
35,87,58615,2,0,B|83:63|83:63|115:55|147:71,1,100,8|0,0:0|0:0,0:0:0:0:
292,112,59115,2,0,B|244:136|244:136|212:144|180:128,1,100,0|2,0:0|0:0,0:0:0:0:
220,28,59615,1,8,0:0:0:0:
292,112,59865,1,2,0:0:0:0:
324,216,60115,6,0,P|316:300|276:372,1,150
229,238,60615,2,0,P|297:214|337:218,1,100,8|0,0:0|0:0,0:0:0:0:
195,333,61115,2,0,P|140:286|123:249,1,100
61,190,61615,2,0,P|115:143|132:106,1,100,8|0,0:0|0:0,0:0:0:0:
188,26,62115,5,0,0:0:0:0:
249,117,62365,2,0,P|265:144|286:169,2,50,0|0|8,0:0|0:0|0:0,0:0:0:0:
227,225,62865,2,0,P|255:238|286:248,2,50
262,329,63365,2,0,P|293:325|324:316,1,50
340,367,63615,2,0,L|368:264,1,100,2|0,0:0|0:0,0:0:0:0:
454,336,64115,6,0,P|481:235|474:184,1,150
427,59,64615,2,0,L|400:155,1,100,8|0,0:0|0:0,0:0:0:0:
304,210,65115,1,0,0:0:0:0:
8,143,65365,1,0,0:0:0:0:
207,156,65615,1,8,0:0:0:0:
105,197,65865,1,0,0:0:0:0:
37,283,66115,6,0,P|99:342|190:352,1,150
149,129,66615,2,0,P|66:153|12:227,1,150,8|0,0:0|0:0,0:0:0:0:
226,303,67115,2,0,P|245:257|244:208,1,100,0|2,0:0|0:0,0:0:0:0:
169,54,67615,2,0,P|149:111|155:161,1,100,8|2,0:0|0:0,0:0:0:0:
244,208,68115,6,0,P|307:194|352:159,1,100
244,208,68490,2,0,P|224:269|231:325,1,100,8|0,0:0|0:0,0:0:0:0:
244,208,68865,2,0,P|200:159|147:137,1,100,8|0,0:0|0:0,0:0:0:0:
170,143,69240,1,0,0:0:0:0:
170,143,69365,1,0,0:0:0:0:
100,228,69615,2,0,P|48:142|90:48,1,200,8|0,0:0|0:0,0:0:0:0:
244,96,70490,5,0,0:0:0:0:
244,96,70615,2,0,P|254:157|229:210,1,100,8|0,0:0|0:0,0:0:0:0:
184,352,71115,1,0,0:0:0:0:
184,352,71240,2,0,P|173:290|198:237,1,100,0|0,0:0|0:0,0:0:0:0:
185,256,71615,2,0,B|239:226|259:342|279:289|286:319|313:314|335:294|335:294|355:286|392:298,1,200,2|4,0:0|0:0,0:0:0:0:
256,192,78865,5,0,0:0:0:0:
256,180,78990,1,0,0:0:0:0:
256,168,79115,2,0,B|288:136|288:136|304:152|336:104,1,100,0|2,0:0|0:0,0:0:0:0:
182,113,79490,2,0,B|209:153|225:137|225:137|256:168,1,100
208,268,79865,2,0,P|256:280|304:268,1,100,2|0,0:0|0:0,0:0:0:0:
364,104,80490,5,0,0:0:0:0:
364,104,80615,2,0,P|325:53|277:33,1,100
120,280,81115,2,0,P|158:330|206:350,1,100,0|2,0:0|0:0,0:0:0:0:
190,346,81490,1,2,0:0:0:0:
190,346,81615,1,0,0:0:0:0:
256,256,81865,2,0,L|256:204,1,50
208,180,82115,6,0,P|264:140|352:132,1,150,4|0,0:0|0:0,0:0:0:0:
332,220,82615,2,0,P|336:272|312:320,1,100,0|8,0:0|0:0,0:0:0:0:
256,256,83115,1,0,0:0:0:0:
416,200,83365,1,0,0:0:0:0:
416,200,83490,1,0,0:0:0:0:
384,368,83740,1,0,0:0:0:0:
384,368,83865,1,0,0:0:0:0:
248,340,84115,6,0,P|184:296|188:208,1,150,8|0,0:0|0:0,0:0:0:0:
124,240,84615,2,0,P|84:196|12:208,1,100
4,348,85115,2,0,P|48:308|36:236,1,100
72,112,85615,2,0,P|58:82|55:49,2,50,0|0|0,0:0|0:0|0:0,0:0:0:0:
124,240,86115,5,8,0:0:0:0:
118,210,86240,1,0,0:0:0:0:
125,180,86365,1,0,0:0:0:0:
143,156,86490,2,0,P|150:98|134:54,1,100
236,88,86865,2,0,P|228:145|244:189,1,100,8|0,0:0|0:0,0:0:0:0:
272,304,87240,6,0,L|240:264,1,50,0|2,0:0|0:0,0:0:0:0:
336,260,87490,2,0,L|367:299,1,50,0|0,0:0|0:0,0:0:0:0:
463,295,87740,2,0,L|432:256,1,50,0|2,0:0|0:0,0:0:0:0:
428,368,88115,6,0,P|464:291|474:202,1,150,8|0,0:0|0:0,0:0:0:0:
500,180,88615,2,0,P|448:108|444:76,1,100,0|8,0:0|0:0,0:0:0:0:
316,40,88990,2,0,P|368:112|372:144,1,100
360,176,89365,2,0,B|332:220|332:220|280:228,1,100
272,256,89740,1,0,0:0:0:0:
259,284,89865,1,0,0:0:0:0:
247,312,89990,1,0,0:0:0:0:
235,340,90115,5,8,0:0:0:0:
205,345,90240,1,0,0:0:0:0:
175,351,90365,2,0,P|88:276|72:168,1,200
120,100,91115,1,0,0:0:0:0:
216,156,91365,2,0,P|248:148|272:136,1,50,0|2,0:0|0:0,0:0:0:0:
340,24,91740,2,0,P|308:32|284:44,1,50,2|0,0:0|0:0,0:0:0:0:
399,80,92115,5,8,0:0:0:0:
120,100,92365,1,0,0:0:0:0:
120,100,92490,1,0,0:0:0:0:
275,331,92740,1,0,0:0:0:0:
275,331,92865,1,0,0:0:0:0:
409,241,93115,5,8,0:0:0:0:
265,171,93365,1,0,0:0:0:0:
265,171,93490,1,0,0:0:0:0:
275,331,93740,1,0,0:0:0:0:
275,331,93865,1,0,0:0:0:0:
367,326,94115,5,8,0:0:0:0:
316,248,94365,1,0,0:0:0:0:
316,248,94490,1,0,0:0:0:0:
275,331,94740,1,0,0:0:0:0:
275,331,94865,1,0,0:0:0:0:
188,360,95115,6,0,P|156:333|145:302,1,50
153,222,95365,2,0,P|184:248|195:279,1,50,2|0,0:0|0:0,0:0:0:0:
78,237,95615,2,0,P|46:210|35:179,1,50
45,100,95865,2,0,P|76:126|87:157,1,50,2|0,0:0|0:0,0:0:0:0:
144,60,96115,6,0,L|148:24,12,18.7500007152558
144,60,96615,2,0,P|200:76|240:112,1,100
296,41,97115,5,2,0:0:0:0:
152,167,97365,1,2,0:0:0:0:
260,235,97615,5,0,0:0:0:0:
45,100,97865,1,0,0:0:0:0:
260,235,98115,6,0,P|285:306|339:362,1,150,4|0,0:0|0:0,0:0:0:0:
384,332,98615,2,0,P|440:300|464:272,1,100,0|0,0:0|0:0,0:0:0:0:
428,168,99115,1,0,0:0:0:0:
428,168,99240,2,0,B|400:128|400:128|376:104|347:95,1,100
340,192,99615,2,0,B|312:232|312:232|288:256|259:264,1,100,2|0,0:0|0:0,0:0:0:0:
260,372,100115,6,0,P|192:332|156:244,1,150,8|0,0:0|0:0,0:0:0:0:
110,112,100615,1,0,0:0:0:0:
110,112,100865,2,0,P|178:152|214:240,1,150,8|0,0:0|0:0,0:0:0:0:
159,270,101365,2,0,P|94:263|45:226,1,100
57,191,101740,2,0,P|38:160|32:136,1,50
160,43,102115,5,8,0:0:0:0:
292,134,102365,1,0,0:0:0:0:
352,43,102615,1,0,0:0:0:0:
220,134,102865,1,0,0:0:0:0:
256,236,103115,2,0,L|256:304,1,50,0|0,0:0|0:0,0:0:0:0:
180,200,103365,2,0,L|180:268,1,50,2|0,0:0|0:0,0:0:0:0:
332,200,103615,2,0,L|332:268,1,50,0|0,0:0|0:0,0:0:0:0:
256,296,103865,1,2,0:0:0:0:
256,304,104115,6,0,P|317:355|398:355,1,150,8|0,0:0|0:0,0:0:0:0:
412,312,104615,2,0,P|436:268|436:216,1,100,0|8,0:0|0:0,0:0:0:0:
420,64,104990,2,0,P|396:108|396:160,1,100
332,200,105365,2,0,P|283:199|239:175,1,100
189,105,105865,1,0,0:0:0:0:
189,105,106115,6,0,P|256:100|336:120,1,150,8|0,0:0|0:0,0:0:0:0:
239,175,106615,2,0,P|244:240|232:284,1,100,0|0,0:0|0:0,0:0:0:0:
220,292,106990,1,0,0:0:0:0:
204,310,107115,2,0,P|139:314|95:302,1,100
38,203,107615,2,0,P|72:196|137:201,1,100,2|0,0:0|0:0,0:0:0:0:
105,306,108115,5,8,0:0:0:0:
137,201,108365,1,0,0:0:0:0:
137,201,108490,1,0,0:0:0:0:
110,94,108740,1,0,0:0:0:0:
110,94,108865,2,0,P|150:62|215:40,1,100,8|0,0:0|0:0,0:0:0:0:
223,250,109240,2,0,P|175:231|123:186,1,100
302,74,109615,2,0,P|309:124|296:191,1,100
320,196,109990,1,0,0:0:0:0:
337,219,110115,6,0,P|386:249|445:245,1,100,8|0,0:0|0:0,0:0:0:0:
416,141,110490,2,0,P|367:111|307:114,1,100
337,219,110865,2,0,P|307:268|310:328,1,100,0|4,0:0|0:0,0:0:0:0:
305,309,112115,6,0,P|243:223|238:153,1,150,4|0,0:0|0:0,0:0:0:0:
192,93,112615,2,0,L|156:187,1,100,8|2,0:0|0:0,0:0:0:0:
273,88,112990,2,0,L|237:182,1,100
355,79,113365,2,0,L|319:173,1,100,2|8,0:0|0:0,0:0:0:0:
450,26,113865,1,2,0:0:0:0:
487,129,114115,6,0,B|501:177|471:223|455:230|461:243|461:243|474:265|447:279,1,150
464,324,114615,2,0,P|402:346|356:346,1,100,8|2,0:0|0:0,0:0:0:0:
226,349,115115,2,0,L|315:290,1,100,0|2,0:0|0:0,0:0:0:0:
228,260,115490,2,0,L|317:201,1,100,8|8,0:0|0:0,0:0:0:0:
230,171,115865,2,0,L|319:112,1,100,2|0,0:0|0:0,0:0:0:0:
168,40,116490,5,0,0:0:0:0:
168,40,116615,2,0,P|176:100|152:144,1,100,8|2,0:0|0:0,0:0:0:0:
56,160,117115,2,0,P|18:112|16:62,1,100,0|2,0:0|0:0,0:0:0:0:
172,211,117490,2,0,P|221:215|263:189,1,100,8|8,0:0|0:0,0:0:0:0:
102,245,117865,2,0,P|53:241|12:268,1,100,2|0,0:0|0:0,0:0:0:0:
232,296,118365,5,0,0:0:0:0:
128,332,118615,1,8,0:0:0:0:
263,189,118865,2,0,L|244:128,2,50,2|0|0,0:0|0:0|0:0,0:0:0:0:
184,96,119365,2,0,P|200:64|224:36,1,50,2|8,0:0|0:0,0:0:0:0:
344,216,119740,2,0,P|328:248|304:276,1,50,0|10,0:0|0:0,0:0:0:0:
172,192,120115,6,0,B|208:144|248:128|248:128|280:148|296:144,1,150
344,216,120615,2,0,B|312:232|312:232|260:240|232:228,1,100,8|2,0:0|0:0,0:0:0:0:
304,60,121115,1,0,0:0:0:0:
344,216,121365,2,0,P|334:248|337:280,1,50,2|8,0:0|0:0,0:0:0:0:
440,352,121740,2,0,P|449:319|446:287,1,50,8|2,0:0|0:0,0:0:0:0:
356,352,122115,6,0,B|297:361|264:319|264:319|184:328,1,150
100,260,122615,2,0,L|212:248,1,100,8|2,0:0|0:0,0:0:0:0:
96,344,123115,2,0,P|48:324|16:264,1,100,0|2,0:0|0:0,0:0:0:0:
100,260,123490,2,0,P|73:217|76:149,1,100,8|8,0:0|0:0,0:0:0:0:
150,194,123865,2,0,P|152:143|192:94,1,100,2|0,0:0|0:0,0:0:0:0:
440,184,124490,5,0,0:0:0:0:
440,184,124615,2,0,B|440:212|428:232|428:232|408:248|376:252,1,100,8|2,0:0|0:0,0:0:0:0:
316,160,125115,2,0,B|289:149|266:154|266:154|244:166|229:195,1,100,0|2,0:0|0:0,0:0:0:0:
272,264,125490,2,0,B|276:291|291:309|291:309|313:322|345:321,1,100,8|8,0:0|0:0,0:0:0:0:
168,360,125865,2,0,B|189:342|197:320|197:320|197:294|180:267,1,100,2|0,0:0|0:0,0:0:0:0:
100,300,126365,5,0,0:0:0:0:
100,300,126490,1,0,0:0:0:0:
100,300,126615,2,0,P|72:240|64:188,1,100,8|2,0:0|0:0,0:0:0:0:
8,158,126990,5,0,0:0:0:0:
30,139,127115,1,0,0:0:0:0:
59,130,127240,1,0,0:0:0:0:
90,134,127365,1,2,0:0:0:0:
115,148,127490,1,8,0:0:0:0:
100,300,127740,1,0,0:0:0:0:
100,300,127865,2,0,P|143:258|151:205,1,100,10|4,0:0|0:0,0:0:0:0:
160,56,128490,5,0,0:0:0:0:
160,56,128615,2,0,L|242:127,1,100,8|2,0:0|0:0,0:0:0:0:
372,156,128990,2,0,L|269:191,1,100
180,292,129365,2,0,L|200:185,1,100,2|8,0:0|0:0,0:0:0:0:
372,156,129865,1,2,0:0:0:0:
180,292,130115,6,0,P|231:234|323:231,1,150
372,156,130615,2,0,P|392:212|392:272,1,100,8|2,0:0|0:0,0:0:0:0:
272,320,131115,2,0,P|307:338|366:348,1,100,0|2,0:0|0:0,0:0:0:0:
180,292,131490,2,0,P|204:323|252:359,1,100,8|8,0:0|0:0,0:0:0:0:
112,224,131865,2,0,P|119:263|147:316,1,100,2|0,0:0|0:0,0:0:0:0:
28,224,132490,5,0,0:0:0:0:
28,224,132615,2,0,P|49:164|109:141,1,100,8|2,0:0|0:0,0:0:0:0:
136,52,133115,2,0,P|165:70|186:130,1,100,0|2,0:0|0:0,0:0:0:0:
284,203,133490,2,0,P|254:219|192:208,1,100,8|8,0:0|0:0,0:0:0:0:
112,224,133865,1,2,0:0:0:0:
112,224,134115,6,0,B|116:288|144:312|144:312|176:308|208:324,1,150
240,356,134615,2,0,L|344:324,1,100,8|2,0:0|0:0,0:0:0:0:
404,240,135115,2,0,P|418:277|422:336,1,100,0|2,0:0|0:0,0:0:0:0:
385,145,135490,2,0,P|414:172|444:223,1,100,8|0,0:0|0:0,0:0:0:0:
325,70,135865,2,0,P|363:81|412:114,1,100,10|0,0:0|0:0,0:0:0:0:
248,128,136490,5,0,0:0:0:0:
248,128,136615,2,0,P|232:72|244:16,1,100,8|2,0:0|0:0,0:0:0:0:
168,208,137115,2,0,B|168:256|168:256|160:256|160:256|160:304,1,100,0|2,0:0|0:0,0:0:0:0:
119,124,137490,2,0,B|77:100|77:100|81:93|81:93|39:69,1,100,8|8,0:0|0:0,0:0:0:0:
16,160,137865,1,2,0:0:0:0:
16,160,138115,6,0,P|40:256|88:304,1,150
112,360,138615,2,0,P|176:336|224:336,1,100,8|2,0:0|0:0,0:0:0:0:
216,312,138990,1,0,0:0:0:0:
224,288,139115,2,0,P|292:294|335:315,1,100,0|2,0:0|0:0,0:0:0:0:
496,296,139490,2,0,P|427:289|384:268,1,100,8|0,0:0|0:0,0:0:0:0:
436,204,139865,1,10,0:0:0:0:
436,204,140115,6,0,P|456:124|456:32,1,150
368,136,140615,2,0,P|356:80|328:28,1,100,8|2,0:0|0:0,0:0:0:0:
280,136,141115,2,0,P|304:196|360:220,1,100,0|2,0:0|0:0,0:0:0:0:
200,180,141490,2,0,P|176:120|120:96,1,100,8|0,0:0|0:0,0:0:0:0:
120,224,141865,2,0,P|144:284|200:308,1,100,10|0,0:0|0:0,0:0:0:0:
276,348,142365,6,0,P|292:308|296:284,2,50,0|0|8,0:0|0:0|0:0,0:0:0:0:
352,251,142865,1,2,0:0:0:0:
330,232,142990,1,0,0:0:0:0:
301,223,143115,1,0,0:0:0:0:
270,226,143240,1,0,0:0:0:0:
245,240,143365,2,0,B|197:240|215:195|215:195|182:208|147:206|100:168|76:92|225:84|118:30,1,300,2|4,0:0|0:0,0:0:0:0:
